#TITLE:Heart to Heart;
#SUBTITLE:;
#ARTIST:Arisa Nakayama;
#TITLETRANSLIT:;
#SUBTITLETRANSLIT:;
#ARTISTTRANSLIT:;
#GENRE:J-Pop;
#CREDIT:Ace Of Hearts;
#BANNER:Heart to Heart - bn.png;
#BACKGROUND:Heart to Heart - bg.png;
#LYRICSPATH:;
#CDTITLE:Ace Of Hearts.png;
#MUSIC:Heart to Heart.ogg;
#OFFSET:1.520;
#SAMPLESTART:58.900;
#SAMPLELENGTH:12.000;
#SELECTABLE:YES;
#BPMS:0.000=138.000,107.000=69.000,121.750=138.000,187.000=69.000;
#STOPS:73.500=0.217
,74.500=0.217
,121.750=0.544
;
#BGCHANGES:3.500=To Heart 2 (PS2) OP.avi=1.000=1=0=0=StretchNoLoop==CrossFade==,
99999=-nosongbg-=1.000=0=0=0 // don't automatically add -songbackground-
;
#KEYSOUNDS:;

//---------------dance-single - Hard----------------
#NOTES:
     dance-single:
     Ace Of Hearts (2011):
     Hard:
     7:
     0.428,0.181,0.032,1.000,0.065: // measure 1
0000
0000
0000
0000
,  // measure 2
0002
0000
1003
2000
0000
0000
3000
0002
,  // measure 3
0000
0000
0013
0040
0000
0000
0030
0001
,  // measure 4
0010
0001
1000
0002
0000
0023
0000
0230
,  // measure 5
0000
0000
0300
2000
,  // measure 6
3002
0000
1003
0020
0000
0030
2000
0000
,  // measure 7
3002
0000
0013
0200
0000
0300
0020
0000
,  // measure 8
0032
0000
1003
0200
0000
2300
0000
3000
,  // measure 9
1002
0000
1003
0100
0000
0010
0000
2002
,  // measure 10
0000
0000
0000
0000
,  // measure 11
0000
0000
3003
0000
0000
0004
0003
0000
,  // measure 12
0000
1000
0010
2000
0000
3001
0100
0001
,  // measure 13
0200
0000
0301
2000
0000
0000
3000
0000
,  // measure 14
0000
0001
0010
0002
0000
0013
0001
0010
,  // measure 15
0200
0000
1300
0004
0000
0000
0003
0000
,  // measure 16
0000
0000
1000
0000
0010
0000
1000
0000
0002
0000
0000
0023
0000
0000
0130
0000
,  // measure 17
2000
0000
0000
0000
3000
0000
0000
0000
0002
0000
0000
0203
0000
0000
0301
0000
,  // measure 18
2000
0000
3001
0001
1000
0100
0010
0100
,  // measure 19
0000
0000
0000
0000
4000
3000
0000
1000
,  // measure 20
0100
0020
0000
0031
1000
0001
0200
0000
,  // measure 21
0301
4000
0000
0000
3000
0000
0000
0010
,  // measure 22
1000
0020
0000
1030
0001
1000
0020
0000
,  // measure 23
1030
0002
0000
0000
0003
0000
0000
0010
,  // measure 24
0001
0000
0010
0000
0200
0000
0000
2300
0000
0000
3001
0000
0200
0000
0000
0000
,  // measure 25
0300
0000
0000
0000
0020
0000
0000
0230
0000
0000
0301
0000
2000
0000
0000
0000
,  // measure 26
3001
0200
0000
0320
0000
2030
0000
0000
,  // measure 27
0000
3000
0000
0020
,  // measure 28
0000
0000
0030
0000
2000
0000
0000
3002
0000
0000
0013
0000
0200
0000
1300
0002
,  // measure 29
0000
0000
2003
0000
3200
0000
0310
0002
0000
0000
0003
0000
2000
0000
3001
0020
,  // measure 30
0000
0000
0230
0000
2300
0000
0000
0000
3000
0001
0010
0200
0000
0000
0000
0300
,  // measure 31
0000
1000
0100
0020
0000
0000
0000
0030
0000
0000
0002
0000
0000
0000
0000
0000
,  // measure 32
1003
2000
0000
0000
3000
0200
0000
0000
,  // measure 33
0310
0040
0000
0000
0030
0001
0010
0001
,  // measure 34
1000
0020
0000
2030
0000
3002
0000
0000
,  // measure 35
0000
0003
1000
0200
,  // measure 36
0310
0002
0000
0000
2003
0000
3020
0000
,  // measure 37
1030
0002
0000
0000
0003
0000
0200
0000
,  // measure 38
0301
2000
0000
3200
0000
0300
0020
0000
,  // measure 39
0000
0032
0000
0000
0003
2000
0000
0000
,  // measure 40
3001
0002
0000
0000
0003
0200
0000
0000
,  // measure 41
0310
0040
0000
0000
0030
1000
0010
1000
,  // measure 42
0001
0020
0000
0230
0000
2300
0000
0000
,  // measure 43
0000
3000
0002
0203
,  // measure 44
0310
2000
0000
0000
3002
0000
0203
0000
,  // measure 45
0310
2000
0000
3000
0002
0000
0023
0000
,  // measure 46
0130
2000
0000
3002
0000
0003
2000
0000
,  // measure 47
3100
0020
0000
0230
0300
4200
0000
0000
,  // measure 48
0000
0000
0000
0000
0000
0000
0000
3300
;

//---------------dance-single - Expert----------------
#NOTES:
     dance-single:
     Ace Of Hearts (2011):
     Challenge:
     9:
     0.595,0.232,0.496,0.981,0.119: // measure 1
0000
0000
0000
0000
,  // measure 2
0012
0000
1003
2000
0000
0000
3000
1200
,  // measure 3
0000
0000
0310
0040
0000
0000
0030
0100
,  // measure 4
1100
1000
0001
0020
0000
0230
0000
2000
,  // measure 5
0000
0000
0000
0000
3300
0000
2000
3000
,  // measure 6
1002
0000
0103
0040
0000
0030
0200
0300
,  // measure 7
0102
0000
1003
0200
0000
0300
0020
0030
,  // measure 8
0012
0000
1003
0200
0000
0320
0000
0030
,  // measure 9
0012
0000
1003
2200
3300
0220
0330
1100
,  // measure 10
1002
0103
0010
2010
3001
0010
0220
0000
,  // measure 11
0300
0000
0000
0100
0000
0000
0100
0000
0000
0001
0000
0000
0031
0000
0000
1000
0100
0010
0001
0000
0000
0000
0000
0000
,  // measure 12
2001
3010
0100
0002
0000
1003
0100
0010
,  // measure 13
0200
0000
1300
0002
0000
0103
0010
0100
,  // measure 14
0101
0001
1000
0200
0000
0310
0001
1000
,  // measure 15
0200
0000
0310
0004
0000
0013
0100
1000
,  // measure 16
1001
0000
0001
0000
0100
0000
0010
0000
2000
0000
0000
0100
0000
0000
3001
0000
,  // measure 17
0401
0000
0000
0000
0300
0000
0000
0000
0020
0000
0000
1000
0000
0000
0130
0000
,  // measure 18
0102
0000
1003
1000
0100
1000
0001
0100
,  // measure 19
0001
0000
0000
1000
0000
0000
1000
0000
0000
0001
0000
0000
0001
0010
0100
1000
0000
0000
2001
0000
0000
3100
0000
0000
,  // measure 20
0010
0002
0000
1003
0010
0100
0002
0000
,  // measure 21
1003
0020
0000
0130
0010
1000
1001
0001
,  // measure 22
0010
0200
0000
0310
0001
1000
1020
0000
,  // measure 23
0130
0004
0000
1003
0010
0100
0101
0001
,  // measure 24
1000
0000
0100
0000
0020
0000
0000
0100
0000
0000
0031
0000
2001
0000
0000
0000
,  // measure 25
3000
0000
0000
0000
0020
0000
0000
0100
0000
0000
1030
0000
1002
0000
0000
0000
,  // measure 26
0013
0220
0330
0100
0000
2200
0300
3001
,  // measure 27
0100
0001
1001
2000
0000
3000
2020
0000
,  // measure 28
0000
0000
3030
0000
0020
0000
0130
0002
0000
0000
2003
3000
1200
0000
0310
0002
,  // measure 29
0000
0000
0000
0000
0403
0000
0000
0300
0120
0000
0000
0000
1030
0000
0002
0000
0000
0000
1003
0000
0100
0000
0010
0000
0002
0000
0000
0000
1003
0000
0020
0000
,  // measure 30
0000
0000
0230
0300
0104
0000
0000
0000
0003
0010
0100
2000
0000
0000
3001
0001
,  // measure 31
0010
0001
1000
0020
0000
0130
0001
1001
0000
0000
1200
0000
0000
0000
0000
0000
,  // measure 32
0310
0020
0000
0000
0030
0012
0000
0000
,  // measure 33
1003
4000
0000
0000
3000
0010
0210
0301
,  // measure 34
1000
0002
0000
0013
0000
0210
0000
1000
,  // measure 35
1300
0001
2000
0000
3200
0300
0120
0000
,  // measure 36
0031
2000
0000
0000
3020
0030
0210
0000
,  // measure 37
0301
0004
0000
0000
0003
0000
2000
0000
,  // measure 38
3100
0020
0000
0032
0000
0003
2001
0000
,  // measure 39
0000
0040
0000
0000
3030
0210
0000
0000
,  // measure 40
0301
0002
0000
0000
0003
0201
0000
0000
,  // measure 41
0010
0040
0000
0300
0030
1000
1001
0001
,  // measure 42
0010
0200
0000
2300
0000
3002
0000
0013
,  // measure 43
0010
0001
1000
0100
0020
0030
0012
0000
,  // measure 44
1003
0040
0000
0030
0100
0000
0102
0000
,  // measure 45
1003
0400
0000
0310
0011
0000
0002
0000
,  // measure 46
1003
0200
0000
0310
0100
1000
1002
0000
,  // measure 47
0103
0000
0000
0020
0000
0000
0000
0000
0000
1030
0000
0000
0001
0000
0000
0040
0400
0000
0000
0000
0000
0000
0000
0000
,  // measure 48
0000
0000
0000
0000
0000
0000
0000
0330
;

//---------------dance-single - Medium----------------
#NOTES:
     dance-single:
     Ace Of Hearts (2011):
     Medium:
     5:
     0.245,0.154,0.032,0.410,0.000: // measure 1
0000
0000
0000
0000
,  // measure 2
0002
0000
0000
2003
0000
3000
0000
0002
,  // measure 3
0000
0000
0000
0203
0000
0300
0000
0000
,  // measure 4
0002
0000
1003
0010
0000
1000
0000
0002
,  // measure 5
0000
0000
0003
1000
,  // measure 6
0002
0000
0000
0013
0000
0000
0001
0000
,  // measure 7
2000
0000
0000
3100
0000
0000
1000
0000
,  // measure 8
0002
0000
0000
0013
0000
0010
0000
0000
,  // measure 9
0002
0000
0003
1001
0000
0110
0000
2002
,  // measure 10
0000
0000
0000
0000
,  // measure 11
0000
3003
0000
0000
,  // measure 12
0000
0001
0001
0010
,  // measure 13
0010
0000
0000
0010
0000
0000
0000
0000
,  // measure 14
0000
0001
0001
1000
,  // measure 15
1000
0000
0000
1000
0000
0000
0000
0000
,  // measure 16
0000
0010
0010
0000
,  // measure 17
0100
0000
0001
0000
,  // measure 18
1000
0000
1000
0000
0001
0000
0000
0001
,  // measure 19
0000
0000
0000
0000
,  // measure 20
1000
1000
0010
0010
,  // measure 21
0000
0010
0000
0000
0000
0000
0000
0000
,  // measure 22
0100
0100
0001
0001
,  // measure 23
0000
0001
0000
0000
0000
0000
0000
0000
,  // measure 24
1000
1000
0000
0100
,  // measure 25
0000
0010
0000
0002
,  // measure 26
0000
1003
0000
1000
0000
0200
0000
0000
,  // measure 27
0000
0300
0000
0020
,  // measure 28
0000
0030
0000
0000
0001
0000
0000
0000
0001
0000
0000
0000
1000
0000
0000
0000
,  // measure 29
1000
0000
0010
0000
0010
0000
1000
1000
,  // measure 30
1000
0000
0002
0000
0003
0100
0200
0000
,  // measure 31
0300
0000
0010
0000
0020
0000
0000
0030
0000
0000
2000
0000
0000
0000
0000
0000
,  // measure 32
0000
3002
0000
0000
0003
0020
0000
0000
,  // measure 33
0000
0032
0000
0000
0003
0000
2000
0000
,  // measure 34
3001
0100
0000
0001
0000
2000
0000
0000
,  // measure 35
0000
3000
0001
0020
,  // measure 36
0000
0130
0000
0000
0010
0000
0200
0000
,  // measure 37
0000
1300
0000
0000
0000
0000
0001
0000
,  // measure 38
0000
1000
0000
1000
0000
0000
0010
0000
,  // measure 39
0000
0020
0000
0030
0000
2000
0000
0000
,  // measure 40
0000
3002
0000
0000
0003
2000
0000
0000
,  // measure 41
3010
0020
0000
0000
0030
0000
2000
0000
,  // measure 42
3001
0010
0000
0100
0000
2000
0000
0000
,  // measure 43
0000
3000
0001
0020
,  // measure 44
0000
0031
0000
0000
1000
0000
0020
0000
,  // measure 45
0000
0130
0000
0000
0010
0000
2000
0000
,  // measure 46
0000
3001
0000
0010
0000
0000
0002
0000
,  // measure 47
0000
1003
0000
0020
0000
0400
0000
0000
,  // measure 48
0000
0000
0000
0330
;

//---------------dance-single - Easy----------------
#NOTES:
     dance-single:
     Ace Of Hearts (2011):
     Easy:
     3:
     0.163,0.103,0.022,0.205,0.000: // measure 1
0000
0000
0000
0000
,  // measure 2
2000
0000
0000
0000
3000
0000
0000
2000
,  // measure 3
0000
0000
3000
0000
,  // measure 4
0001
0001
0001
0000
,  // measure 5
0200
0000
0300
0000
,  // measure 6
0010
0010
0010
0000
,  // measure 7
1000
1000
1000
0000
,  // measure 8
0001
0001
0001
0000
,  // measure 9
0010
0000
0001
0000
,  // measure 10
2002
0000
0000
0000
,  // measure 11
0000
3003
0000
0000
,  // measure 12
0000
0000
1000
0000
,  // measure 13
1000
0000
1000
0000
,  // measure 14
0000
0000
0001
0000
,  // measure 15
0001
0000
0001
0000
,  // measure 16
0000
0000
0100
0000
,  // measure 17
0100
0000
0001
0000
,  // measure 18
0001
0000
1000
0000
,  // measure 19
1000
0000
0000
0000
,  // measure 20
0000
0010
0000
0010
,  // measure 21
0000
0010
0000
0000
,  // measure 22
0000
0100
0000
0100
,  // measure 23
0000
0100
0000
0000
,  // measure 24
0000
0001
0000
0001
,  // measure 25
0000
0001
0000
1000
,  // measure 26
0000
1000
0000
2000
,  // measure 27
0000
3000
0000
0020
,  // measure 28
0030
1000
0000
1000
,  // measure 29
0000
1000
0000
0010
,  // measure 30
0000
0020
0030
2000
,  // measure 31
3000
0000
0000
0000
0002
0000
0000
0003
0000
0000
0020
0000
0000
0000
0000
0000
,  // measure 32
0000
0000
0030
0000
0000
0002
0000
0000
,  // measure 33
0000
0003
0000
1000
,  // measure 34
1000
1000
0000
0200
,  // measure 35
0000
0300
0000
0010
,  // measure 36
0010
0010
0000
0001
,  // measure 37
0001
0001
0000
1000
,  // measure 38
1000
1000
0000
0020
,  // measure 39
0000
0000
0030
0000
0000
2000
0000
0000
,  // measure 40
0000
0000
3000
0000
0000
0020
0000
0000
,  // measure 41
0000
0030
0000
1000
,  // measure 42
1000
1000
0000
0002
,  // measure 43
0000
0003
0000
0010
,  // measure 44
0010
0010
0000
0001
,  // measure 45
0001
0001
0000
1000
,  // measure 46
1000
1000
0000
0001
,  // measure 47
0001
0001
0000
0202
,  // measure 48
0000
0000
0000
0303
;

//---------------dance-single - Novice----------------
#NOTES:
     dance-single:
     Ace Of Hearts (2011):
     Beginner:
     1:
     0.105,0.051,0.022,0.173,0.000: // measure 1
0000
0000
0000
0000
,  // measure 2
0002
0000
0003
0000
,  // measure 3
0002
0000
0003
0000
,  // measure 4
2000
0000
0000
0000
,  // measure 5
3000
0000
0000
0000
,  // measure 6
0010
0000
0000
0000
,  // measure 7
0010
0000
0000
0000
,  // measure 8
1000
0000
0000
0000
,  // measure 9
1000
0000
0000
0000
,  // measure 10
2002
0000
0000
0000
,  // measure 11
0000
3003
0000
0000
,  // measure 12
0000
0000
0001
0000
,  // measure 13
0001
0000
0000
0000
,  // measure 14
0000
0000
0010
0000
,  // measure 15
0010
0000
0000
0000
,  // measure 16
0000
0000
0001
0000
,  // measure 17
0001
0000
0000
0000
,  // measure 18
1000
0000
1000
0000
,  // measure 19
1000
0000
0000
0000
,  // measure 20
0000
0010
0000
0010
,  // measure 21
0000
0000
0000
0000
,  // measure 22
0000
1000
0000
1000
,  // measure 23
0000
0000
0000
0000
,  // measure 24
0000
0001
0000
0001
,  // measure 25
0000
0000
0000
0100
,  // measure 26
0000
0100
0000
0200
,  // measure 27
0000
0300
0000
0020
,  // measure 28
0030
1000
0000
1000
,  // measure 29
0000
1000
0000
0100
,  // measure 30
0000
0200
0300
1000
,  // measure 31
0000
0000
0000
0000
2000
0000
0000
3000
0000
0000
0000
0000
0002
0000
0000
0000
,  // measure 32
0000
0003
0000
0002
,  // measure 33
0000
0003
0000
0200
,  // measure 34
0000
0000
0000
0300
,  // measure 35
0000
0000
0000
0010
,  // measure 36
0000
0000
0000
0010
,  // measure 37
0000
0000
0000
1000
,  // measure 38
0000
0000
0000
1000
,  // measure 39
0000
0000
0000
0020
,  // measure 40
0000
0030
0000
0020
,  // measure 41
0000
0030
0000
1000
,  // measure 42
0000
0000
0000
1000
,  // measure 43
0000
0000
0000
0001
,  // measure 44
0000
0000
0000
0001
,  // measure 45
0000
0000
0000
1000
,  // measure 46
0000
0000
0000
1000
,  // measure 47
0000
0000
0000
2002
,  // measure 48
0000
0000
0000
3003
;
