#TITLE:Connect;
#SUBTITLE:;
#ARTIST:Claris;
#TITLETRANSLIT:;
#SUBTITLETRANSLIT:;
#ARTISTTRANSLIT:;
#GENRE:J-Pop;
#CREDIT:Ace Of Hearts;
#BANNER:Connect - bn.png;
#BACKGROUND:Connect - bg.png;
#LYRICSPATH:;
#CDTITLE:Ace Of Hearts.png;
#MUSIC:Connect.ogg;
#OFFSET:2.320;
#SAMPLESTART:65.800;
#SAMPLELENGTH:12.000;
#SELECTABLE:YES;
#BPMS:0.000=87.500,20.000=175.000,177.500=87.500,179.500=175.000,216.500=700.000,218.500=175.000,243.000=87.500;
#DISPLAYBPM:87.500:175.000;
#STOPS:216.500=0.257
,217.500=0.257
;
#BGCHANGES:3.375=Madoka Magica OP.avi=1.000=1=0=0=StretchNoLoop==CrossFade==,
99999=-nosongbg-=1.000=0=0=0 // don't automatically add -songbackground-
;
#KEYSOUNDS:;

//---------------dance-single - Hard----------------
#NOTES:
     dance-single:
     Ace Of Hearts (2011):
     Hard:
     8:
     0.562,0.544,0.033,1.000,0.156: // measure 1
0000
0000
0000
0000
,  // measure 2
1000
0100
1000
0100
0020
0000
0030
0001
0010
0200
0000
1300
0100
0020
0000
M032
,  // measure 3
0000
1M03
0000
02M0
0000
0000
0000
1300
0001
0020
0000
0031
1000
0001
1000
0010
,  // measure 4
0000
1000
0010
1000
0002
0000
0003
0010
0100
1000
0000
0001
0100
0020
0000
2M30
,  // measure 5
0000
30M1
0000
020M
0000
0000
0000
0000
0000
0301
1000
0002
0000
0000
0000
0000
,  // measure 6
0003
0020
0000
0000
,  // measure 7
0000
0230
0000
0000
0000
0000
2300
0000
,  // measure 8
0000
3002
0000
0000
,  // measure 9
0000
0203
0000
0000
0000
0000
0000
0000
,  // measure 10
0301
0100
0020
0000
0000
0000
0000
0000
,  // measure 11
0000
2030
0000
0000
0000
0000
3002
0000
,  // measure 12
0000
0000
0203
0000
0000
0301
0100
0001
,  // measure 13
0100
0001
2000
0000
0000
3001
0010
0100
,  // measure 14
1000
0000
0002
0000
2003
0000
3001
0020
,  // measure 15
0000
0230
0000
0000
2300
0000
0000
3002
,  // measure 16
0000
0203
0000
0000
0301
0000
1000
0010
,  // measure 17
0000
0200
0000
0000
0000
0000
0300
0020
,  // measure 18
0000
0130
0002
0000
2003
0000
3001
0100
,  // measure 19
0000
0020
0000
1030
0001
2000
0000
3002
,  // measure 20
0000
0013
M200
0000
0000
0000
230M
0000
,  // measure 21
0000
3M02
0000
M203
,  // measure 22
0000
0000
0300
0000
0020
0000
0130
0002
,  // measure 23
0000
2003
0000
0000
3100
0020
0000
0032
,  // measure 24
0000
2003
0000
0000
3020
0000
1030
0001
,  // measure 25
0000
0200
0000
0000
0000
0300
0000
0020
,  // measure 26
0000
1030
0002
0000
2003
0000
3010
0200
,  // measure 27
0000
0302
0000
1003
0100
0010
0002
0000
,  // measure 28
2003
0000
3200
0000
0000
2300
0000
0000
,  // measure 29
3002
0000
0000
0003
,  // measure 30
1000
0010
2000
0000
0M00
0000
0000
3000
,  // measure 31
0001
0200
0000
00M0
0000
0300
0020
0000
,  // measure 32
0230
0000
0302
0000
00M0
2003
0000
0M00
,  // measure 33
3002
00M0
0000
0003
,  // measure 34
1000
0010
020M
0000
0000
M302
0000
0000
,  // measure 35
02M3
0000
0000
032M
0000
0000
2M30
0000
,  // measure 36
3001
0200
0000
0000
00M0
0000
00M0
0000
,  // measure 37
0301
2000
0000
0000
0M00
0000
3M00
0000
,  // measure 38
0001
0100
0020
0000
M000
0000
M000
0000
,  // measure 39
1030
0002
0000
0000
0M00
0003
2M00
0000
,  // measure 40
3020
0000
0230
0000
0000
0302
0000
0000
,  // measure 41
1003
0200
0000
0000
0300
0000
0020
0000
,  // measure 42
0230
0000
23M0
0000
3M01
0200
000M
0302
,  // measure 43
M000
2003
00M0
0000
301M
0200
00M0
0002
,  // measure 44
0000
0020
M000
0000
0000
0000
M000
0000
,  // measure 45
0000
0000
0000
0000
0030
0000
0000
0303
0000
0001
0010
0001
1000
0002
0000
0003
,  // measure 46
0000
1000
0001
0020
0030
00M1
1000
0200
,  // measure 47
0300
1M00
0000
M001
0000
200M
0000
0000
,  // measure 48
3000
0010
0100
0002
0000
1003
0100
1000
,  // measure 49
0001
0020
0030
00M1
1000
0010
0200
0000
,  // measure 50
0300
0001
0100
0020
0030
10M0
0001
2000
,  // measure 51
0000
31M0
0000
0M10
0000
02M0
0000
0000
,  // measure 52
0000
0000
0000
1300
0001
0200
0000
0310
,  // measure 53
1000
0001
0010
0100
1000
0001
0020
0000
,  // measure 54
0030
0100
1000
0002
0000
1003
0100
0020
,  // measure 55
0030
0011
00M0
1001
0M00
0202
M000
00M0
,  // measure 56
0303
0100
0010
2000
0000
3001
0010
0100
,  // measure 57
0010
0002
0000
2003
0000
3020
0000
0000
,  // measure 58
0000
2030
3002
0203
,  // measure 59
0310
0000
2000
0000
0000
3000
0002
0000
0000
0000
0203
0000
0000
0000
0000
0000
,  // measure 60
0000
0300
0002
2003
,  // measure 61
0000
3020
0000
0200
,  // measure 62
0000
0330
0000
0000
0000
0000
0000
0000
0000
0000
0000
0000
0000
0000
0000
0000
;

//---------------dance-single - Expert----------------
#NOTES:
     dance-single:
     Ace Of Hearts (2011):
     Challenge:
     10:
     0.764,0.510,0.301,1.000,0.284:
0000
0000
0000
0000
,
0001
0010
0001
1000
0020
0030
00M0
1000
0010
0200
0300
0M01
1000
0200
0300
001M
,
0000
01M0
0000
2M00
0000
3000
0000
0001
0100
0020
0030
10M0
0010
0100
0010
1000
,
0000
0001
0010
0100
2000
3000
M000
0001
0010
0002
0003
100M
0010
0200
0000
M301
,
0000
100M
0000
M002
0000
0000
0M00
0000
0000
10M0
1000
0020
0000
0000
M000
0000
,
0033
0000
0010
0100
2000
0000
0000
0000
0001
0000
0000
0000
3001
0000
0010
0000
,
0001
2001
0000
3010
0100
0001
1000
0100
,
2000
3000
2002
3000
0103
0010
1000
0001
,
1000
2200
3000
0310
0001
1000
0010
0100
,
0001
1000
0100
1000
0002
0000
0000
0000
1003
0000
0010
0000
0100
0000
0010
0000
,
1000
2002
3000
0013
0100
0010
0001
1000
,
0010
0000
0220
0030
0001
0001
0010
0010
,
0301
0000
0001
0000
2002
0000
0000
0000
3003
0000
0001
1000
0100
0000
0010
0000
,
0002
0000
0013
0100
2000
0000
0000
0000
3002
0000
0000
0000
0203
0000
0320
0000
,
0M00
0002
0000
0030
20M0
0000
0003
320M
,
M300
0120
0000
0000
2030
0000
3001
0020
,
0030
2200
0000
0000
0300
0002
3000
0203
,
0000
0310
2000
0000
3002
0000
1003
0100
,
0000
0020
0000
0130
1000
0002
0000
1003
,
0000
0100
M020
0000
0000
0000
200M
0000
,
0000
0030
00M2
0000
0000
3000
M200
0000
,
0003
0300
0120
0000
0032
0000
1003
0020
,
0000
0030
0210
0000
0000
0000
0000
0000
0301
0000
2000
0000
0000
0000
3001
0000
,
0000
0021
0000
0000
0230
0000
1300
0010
,
0000
0220
0000
0000
0030
0302
0000
2003
,
0000
3100
0020
0000
2030
000M
3010
0002
,
0003
2001
0000
3010
0100
0001
2000
0000
,
3020
0000
M230
0000
00M0
2000
0000
0300
,
0M02
3020
0003
0230
,
0301
1000
0020
0000
010M
0000
013M
0000
,
0001
2000
0100
0000
0M01
0000
3M02
0000
,
0103
0010
0200
0000
M010
0000
M010
0000
,
0302
1000
0M10
0M10
,
1003
0010
0200
0000
M000
002M
0000
M300
,
0M02
0000
M030
20M0
0000
0003
0200
3000
,
0310
0200
0001
0000
001M
0000
031M
0000
,
1000
0002
0010
0000
10M3
0000
10M0
0000
,
0010
0100
0020
0000
1M00
0000
1M30
0000
,
0001
0200
0010
0000
00M1
0000
03M2
0000
,
2003
0000
3020
0000
0000
M032
0000
0000
,
0013
2000
000M
0000
30M0
0000
0M02
0000
,
M023
0000
0000
0030
021M
0000
0000
0000
13M0
0000
0001
0000
000M
0000
M200
0000
,
0300
012M
0M00
0000
103M
0002
0M00
0013
,
000M
0000
M220
0000
0000
0000
003M
0000
1300
0000
0001
0010
0100
0000
1000
0000
,
0001
0000
1000
0100
0020
0000
0000
0000
0030
0100
1000
0001
1000
1020
0000
0030
,
00M0
0000
0100
0000
0001
0000
2000
0000
3000
M000
1000
0000
0001
0000
0020
0000
,
0030
0210
0300
1M00
0000
2002
0000
0000
,
3003
0000
0001
0000
0100
0000
0020
0000
0030
00M0
0010
0000
1010
0000
1000
0000
,
0001
0000
0020
0000
0030
0000
0100
0000
0010
0000
0001
0000
2000
0000
3000
M000
,
0000
0000
1000
0000
0010
0000
0200
0000
0300
0M00
0100
0000
0010
0000
2000
0000
,
3000
1002
0003
001M
0000
0220
0000
0030
,
1000
0000
1300
0001
0100
0002
0000
1003
,
0010
1000
0010
1000
0010
0100
0010
0100
0001
1000
0001
1000
0020
0000
0030
00M0
,
0000
0000
0010
0000
0100
0000
0002
0000
0003
000M
0001
0000
1000
0000
0100
0010
,
0001
10M1
0000
M011
0000
22M1
0000
0000
,
3300
0100
0010
0002
0000
1003
0010
0001
,
0010
2000
0000
3002
0003
0022
0000
0000
,
0000
0003
200M
0030
00M2
3000
M200
0003
,
0310
0000
0002
0000
0003
000M
2000
0000
0000
0000
3001
0020
0200
0000
0030
0000
,
1300
0000
0001
0000
0100
0000
0010
0100
0001
0000
1000
0000
1200
0000
0000
0000
,
0000
0320
0000
2000
,
0000
3030
0000
0000
0000
0000
0000
0000
0000
0000
0000
0000
0000
0000
0000
0000
;

//---------------dance-single - Medium----------------
#NOTES:
     dance-single:
     Ace Of Hearts (2011):
     Medium:
     6:
     0.310,0.204,0.000,0.635,0.050:
0000
0000
0000
0000
,
1000
0000
0010
0000
1000
0000
0000
0000
0001
0000
0000
0000
1000
0000
0000
0001
,
0000
0000
0000
0002
0000
0000
0003
0000
1000
0000
0000
0000
0010
0000
0000
0010
,
0000
0000
0000
0000
1000
0000
0000
0000
0001
0000
0000
0000
0010
0000
0000
0100
,
0000
0000
0000
0200
0000
0000
0000
0000
0000
0000
0000
2300
0000
0000
0000
0000
,
3000
0002
0000
0000
,
0000
0203
0000
0000
0000
0000
0302
0000
,
0000
2003
0000
0000
,
0000
3200
0000
0000
0000
0000
0000
0000
,
0000
0320
0000
0000
,
0000
0032
0000
0000
0000
0000
2003
0000
,
0000
3002
0000
0000
,
0000
0003
0000
0000
,
0000
0000
1000
1000
,
0000
0020
0000
0000
0000
0030
0000
0000
,
0000
2000
0000
0000
3001
0000
0010
0000
,
0000
0200
0000
0000
0000
0000
0300
1000
,
0000
1000
0001
1000
,
0000
0020
0000
0000
0000
0130
0000
0010
,
0000
2000
0M00
3002
,
0000
0023
M000
0230
,
0000
0300
1000
0001
,
0000
0020
0000
0000
0000
0031
0000
1000
,
0000
0002
0000
0000
1003
0000
0010
0000
,
0000
0200
0000
0000
0000
0300
0000
0020
,
0000
0130
0001
0100
,
0000
0020
0000
0000
0130
0000
0001
0000
,
0000
0000
2000
0000
0000
3020
0000
0000
,
0230
0000
0000
0300
,
0001
0000
2000
0000
0000
00M0
0000
0000
,
0000
3002
00M0
0000
0003
0000
0010
0000
,
0100
0000
2000
0000
0M00
3002
0000
0000
,
0023
0M00
0000
0030
,
0001
0000
2000
0000
0000
3002
0000
0000
,
0023
0000
0000
0230
0000
0000
1300
0000
,
0001
2000
00M0
0000
,
0000
3200
00M0
0000
0000
0000
0300
0000
,
0010
0002
0M00
0000
,
0000
2003
0M00
0000
0000
3000
0010
0000
,
1000
0000
0020
0000
0000
2030
0000
0000
,
0000
3002
0000
0000
0003
0000
1000
0000
,
0100
0000
200M
0000
0000
3001
00M0
0100
,
0000
0002
M000
0000
0000
1003
00M0
0200
,
0000
002M
0000
0000
0000
0000
0000
0000
,
0000
0000
0000
0000
0330
0000
0000
0000
0000
0010
0000
0001
0000
0010
0000
0000
,
0000
0001
0000
1000
,
0000
0010
0000
0100
0000
02M0
0000
0300
,
0000
0001
0000
1000
,
0000
1000
0000
0000
0010
0000
0010
0000
,
0000
0100
0000
0001
,
0000
1000
0000
0001
0000
M002
0000
0000
,
0000
0000
0003
0100
0000
0200
0000
0000
,
0300
0010
0100
0010
,
0000
1000
0000
0001
,
0000
M010
0000
010M
0000
02M0
0000
0000
,
0300
1000
0000
0001
,
0000
0001
0000
0100
0000
0002
0000
0000
,
0003
1000
0010
1000
,
0000
1000
0000
0000
0000
0002
0000
0000
,
0000
0003
1000
0002
,
0000
0023
0000
0230
,
0000
0300
0000
0000
0000
0000
0000
0000
0000
0000
0000
0000
0000
0000
0000
0000
;

//---------------dance-single - Easy----------------
#NOTES:
     dance-single:
     Ace Of Hearts (2011):
     Easy:
     3:
     0.247,0.136,0.000,0.468,0.006: // measure 1
0000
0000
0000
0000
,  // measure 2
0000
0001
0001
0002
,  // measure 3
M000
0003
0010
0010
,  // measure 4
0000
0000
0100
0000
0100
0000
0200
000M
,  // measure 5
0300
2000
0000
3000
,  // measure 6
0000
0002
0000
0000
,  // measure 7
0000
2003
0000
3020
,  // measure 8
0000
2030
0000
0000
,  // measure 9
0000
3002
0000
0000
,  // measure 10
0000
0023
0000
0000
,  // measure 11
0000
0230
0000
2300
,  // measure 12
0000
3002
0000
0000
,  // measure 13
0000
0003
0000
0000
,  // measure 14
0000
0000
0000
1000
,  // measure 15
0000
2000
0000
3000
,  // measure 16
0000
0010
0010
0010
,  // measure 17
0000
0200
0000
0300
,  // measure 18
0000
0001
0000
0001
,  // measure 19
0000
1000
1000
1000
,  // measure 20
0000
0002
0000
0023
,  // measure 21
0000
0230
0000
2300
,  // measure 22
0000
3000
0000
0001
,  // measure 23
0000
0002
0000
0003
,  // measure 24
0000
0010
0010
0010
,  // measure 25
0000
0200
0000
0300
,  // measure 26
0000
1000
0000
1000
,  // measure 27
0000
0001
0001
0001
,  // measure 28
0000
2000
0000
0000
,  // measure 29
0000
0000
0000
3000
,  // measure 30
0000
0020
0000
0000
,  // measure 31
0000
1030
0000
0001
,  // measure 32
0001
0002
0000
0000
,  // measure 33
2003
0000
0000
3000
,  // measure 34
0000
0010
0000
0010
,  // measure 35
0000
0010
0000
1000
,  // measure 36
0000
2000
0000
0000
,  // measure 37
0000
3002
0000
0003
,  // measure 38
0000
0020
0000
0000
,  // measure 39
0000
0130
0000
1000
,  // measure 40
1000
2000
0000
3001
,  // measure 41
0000
0001
0000
0010
,  // measure 42
0010
0000
M020
0000
0000
0031
0000
0001
,  // measure 43
0M00
0002
0000
0000
00M0
1003
0000
0002
,  // measure 44
0000
2M00
0000
0000
0000
0000
0000
0000
,  // measure 45
0000
0000
0000
0000
3003
0000
0000
0000
0000
0000
0000
0000
0000
0001
0000
0000
,  // measure 46
0000
0010
0000
0100
,  // measure 47
0000
1000
0000
100M
0000
2000
0000
3000
,  // measure 48
0000
0001
0000
0100
,  // measure 49
0100
0100
0000
0010
,  // measure 50
0000
1000
0000
0001
,  // measure 51
0000
0010
0000
M010
0000
0020
0000
0000
,  // measure 52
0000
0000
0000
0130
0000
0200
0000
0000
,  // measure 53
0300
1000
1000
1000
,  // measure 54
0000
0001
0000
1000
,  // measure 55
0000
0100
0000
M10M
0000
0200
0000
0000
,  // measure 56
0300
0010
0000
0001
,  // measure 57
0001
0001
0000
2000
,  // measure 58
0000
3001
0001
0002
,  // measure 59
0000
0013
0000
0200
,  // measure 60
0000
0300
1000
2000
,  // measure 61
0000
3002
0000
0203
,  // measure 62
0000
0300
0000
0000
0000
0000
0000
0000
0000
0000
0000
0000
0000
0000
0000
0000
;

//---------------dance-single - Novice----------------
#NOTES:
     dance-single:
     Ace Of Hearts (2011):
     Beginner:
     1:
     0.122,0.101,0.011,0.256,0.000: // measure 1
0000
0000
0000
0000
,  // measure 2
0000
0001
0000
0002
,  // measure 3
0000
0003
0000
0000
,  // measure 4
0000
1000
0000
1000
,  // measure 5
0000
2000
0000
3000
,  // measure 6
0000
0002
0000
0003
,  // measure 7
0000
0010
0000
0010
,  // measure 8
0000
0020
0000
0030
,  // measure 9
0000
0200
0000
0300
,  // measure 10
0000
2000
0000
3000
,  // measure 11
0000
0001
0000
0001
,  // measure 12
0000
0002
0000
0000
,  // measure 13
0000
0003
0000
0000
,  // measure 14
0000
1000
0000
0000
,  // measure 15
0000
1000
0000
0000
,  // measure 16
0000
2000
0000
0000
,  // measure 17
0000
3000
0000
0000
,  // measure 18
0000
0100
0000
0000
,  // measure 19
0000
0100
0000
0000
,  // measure 20
0000
0200
0000
0000
,  // measure 21
0000
0000
0000
0300
,  // measure 22
0000
0010
0000
0000
,  // measure 23
0000
0010
0000
0000
,  // measure 24
0000
0020
0000
0000
,  // measure 25
0000
0030
0000
0000
,  // measure 26
0000
0001
0000
0000
,  // measure 27
0000
0001
0000
0000
,  // measure 28
0000
0002
0000
0000
,  // measure 29
0000
0003
0000
0000
,  // measure 30
0000
0020
0000
0000
,  // measure 31
0000
0030
0000
0000
,  // measure 32
0000
0002
0000
0000
,  // measure 33
0000
0003
0000
0000
,  // measure 34
0000
1000
0000
0000
,  // measure 35
0000
1000
0000
0000
,  // measure 36
0000
2000
0000
0000
,  // measure 37
0000
3000
0000
0000
,  // measure 38
0000
0020
0000
0000
,  // measure 39
0000
0030
0000
0000
,  // measure 40
0000
0200
0000
0000
,  // measure 41
0000
0300
0000
0000
,  // measure 42
0000
0001
0000
0001
,  // measure 43
0000
1000
0000
1000
,  // measure 44
0000
2002
0000
0000
,  // measure 45
0000
3003
0000
0001
,  // measure 46
0000
0000
0000
0002
,  // measure 47
0000
0000
0000
0003
,  // measure 48
0000
0000
0000
0010
,  // measure 49
0000
0000
0000
0100
,  // measure 50
0000
0000
0000
0100
,  // measure 51
0000
0000
0000
0200
,  // measure 52
0000
0000
0000
0300
,  // measure 53
0000
0000
0000
1000
,  // measure 54
0000
0000
0000
2000
,  // measure 55
0000
0000
0000
0000
0000
3000
0000
0000
,  // measure 56
0000
0000
0000
0001
,  // measure 57
0000
0000
0000
0001
,  // measure 58
0000
0000
0000
0010
,  // measure 59
0000
0000
0000
0020
,  // measure 60
0000
0030
0000
0100
,  // measure 61
0000
0200
0000
1300
;
