#TITLE:We Are!;
#SUBTITLE:;
#ARTIST:TVXQ;
#TITLETRANSLIT:;
#SUBTITLETRANSLIT:;
#ARTISTTRANSLIT:;
#GENRE:J-Pop;
#CREDIT:Ace Of Hearts;
#BANNER:We Are - bn.png;
#BACKGROUND:We Are - bg.png;
#LYRICSPATH:;
#CDTITLE:Ace Of Hearts.png;
#MUSIC:We Are.ogg;
#OFFSET:0.900;
#SAMPLESTART:65.800;
#SAMPLELENGTH:12.000;
#SELECTABLE:YES;
#BPMS:0.000=168.000,36.000=84.000,37.000=168.000,251.000=84.000,257.000=168.000,397.000=84.000,404.000=168.000;
#STOPS:;
#BGCHANGES:2.750=One Piece S10 OP.avi=1.000=1=0=0=StretchNoLoop==CrossFade==,
404.000=We Are - bg.jpg=1.000=0=0=0=StretchNoLoop====,
99999=-nosongbg-=1.000=0=0=0 // don't automatically add -songbackground-
;
#KEYSOUNDS:;

//---------------dance-single - Hard----------------
#NOTES:
     dance-single:
     Ace Of Hearts (2011):
     Hard:
     9:
     0.470,0.000,0.373,0.526,0.093: // measure 1
0000
0000
0000
0000
,  // measure 2
0000
0000
0000
0000
,  // measure 3
0000
0000
0000
0000
,  // measure 4
0000
0000
0000
0000
,  // measure 5
0000
0000
0000
0000
,  // measure 6
0001
0000
1000
0010
0000
1000
1001
0000
,  // measure 7
0001
0010
0100
1000
0001
1000
0010
0100
,  // measure 8
0001
0000
1000
0010
0000
0010
0110
0000
,  // measure 9
0101
0001
1001
1000
,  // measure 10
0001
0010
0001
0000
1000
0010
0110
0100
,  // measure 11
0000
0000
0000
0000
0002
0000
0000
0000
1003
0000
0400
0040
0000
0000
0000
0000
,  // measure 12
0000
0000
0330
0000
0010
0001
1001
0000
,  // measure 13
1000
0000
0004
0400
0000
0000
0000
0000
0000
0000
0000
0000
0303
0000
0000
0000
,  // measure 14
0100
0000
0010
1000
0001
0010
0110
0100
,  // measure 15
0000
0000
2000
0000
3001
0200
0000
0300
,  // measure 16
0110
0010
1000
0001
,  // measure 17
0010
0000
0400
4000
0000
0000
0000
0000
0000
0000
0000
0000
0000
0000
0000
0000
,  // measure 18
3300
0000
1001
0101
,  // measure 19
0001
2000
0000
3200
,  // measure 20
0000
0320
0000
0000
0130
0000
1000
0001
,  // measure 21
0100
1000
0200
0000
0301
0000
4002
0000
,  // measure 22
0000
3003
0000
1000
,  // measure 23
0100
0010
0001
0402
,  // measure 24
0000
0303
0000
0100
,  // measure 25
0010
1000
0001
0000
0010
0000
0220
0000
,  // measure 26
0030
1300
0001
0020
,  // measure 27
0030
0000
0001
0010
1000
0040
0000
0000
,  // measure 28
0000
0000
0000
0000
0000
0000
0000
0000
0030
0000
0000
0000
0001
0000
0000
1000
,  // measure 29
0010
0100
0001
0000
1000
0000
2200
0000
,  // measure 30
3300
0000
0000
0000
1000
0001
0201
0000
,  // measure 31
0310
0000
0120
0000
1030
2200
0000
0000
,  // measure 32
0000
0000
3300
0000
1000
0001
0200
0000
,  // measure 33
0310
0001
0010
2000
,  // measure 34
0000
3002
0000
0000
0103
0000
1000
0000
,  // measure 35
0100
0000
0002
0000
1003
0400
0000
0000
,  // measure 36
0000
0000
0000
0300
,  // measure 37
0000
0010
0002
0000
1003
0000
1040
0000
,  // measure 38
0030
0000
0100
0002
0000
0023
0030
0000
,  // measure 39
0000
0002
0000
1003
0010
0004
0003
0000
,  // measure 40
0020
0000
0000
1030
0100
0004
0000
0000
,  // measure 41
0003
0200
0320
0034
,  // measure 42
0003
0000
0000
0000
1000
0000
0000
0020
0000
0000
0230
0000
0000
0000
0000
0000
,  // measure 43
0301
0000
1000
0100
0000
0240
0000
0000
,  // measure 44
0000
0000
0000
0000
0000
0330
0000
0010
,  // measure 45
0001
1000
0010
0001
0010
1000
1200
0000
,  // measure 46
0320
0000
0000
0000
0032
0000
0000
0000
0203
0000
0000
0300
0120
0000
0000
1030
,  // measure 47
0000
2200
0000
3300
0100
0010
0011
0001
,  // measure 48
0000
0000
0000
0000
2000
0000
0000
0000
3010
0000
0400
0004
0000
0000
0000
0000
,  // measure 49
0000
0000
0000
0000
0303
0000
0000
0000
0001
0000
1000
0000
0010
0000
0000
0100
,  // measure 50
0000
0000
0004
0040
0000
0000
0000
0000
0000
0000
0000
0000
0033
0000
0000
0000
,  // measure 51
0010
0000
0110
0100
1000
0001
0101
0100
,  // measure 52
0000
0000
0020
0000
1030
0400
0000
0000
,  // measure 53
0320
0000
0000
0000
0032
0000
0000
0000
0203
0000
0000
0300
0120
0000
0000
0000
,  // measure 54
1030
0400
0000
0000
0000
0300
0000
0000
,  // measure 55
0000
0000
0000
0010
0001
0000
0020
0000
,  // measure 56
0000
0230
0000
0000
1300
1040
0000
0000
,  // measure 57
0000
0000
0030
1000
0100
0010
0001
0010
,  // measure 58
1000
0000
0020
0000
0000
0000
0031
0000
0000
0000
4000
0040
0000
0000
0000
0000
,  // measure 59
0000
0000
3030
1000
,  // measure 60
0000
1004
0000
0000
0003
0000
0010
0000
,  // measure 61
0000
0000
0410
0000
0000
0000
0000
0000
1300
0000
0001
0000
0400
0040
0000
0000
,  // measure 62
0000
0000
0000
0330
,  // measure 63
1001
0000
0000
0000
1000
0000
1100
0100
,  // measure 64
0010
0001
1000
0010
0100
0001
1000
0100
,  // measure 65
0010
0000
0100
0000
2000
0000
0000
3001
0000
0000
0202
0000
0003
0000
0000
0000
,  // measure 66
0310
1000
1100
0100
0000
0000
0020
0000
,  // measure 67
0031
0000
4000
0040
0000
0000
0000
0000
0000
0000
3030
0000
0000
0000
0000
0000
,  // measure 68
0010
0000
0000
0000
0210
0000
0000
0302
0000
0000
0043
0400
0000
0000
0000
0000
,  // measure 69
0000
0000
0330
0000
1100
0000
0011
0001
,  // measure 70
1000
0100
0001
0200
0000
1300
0002
0000
,  // measure 71
0103
0040
0000
0000
0130
0000
1000
0000
,  // measure 72
0100
0000
0000
0000
0002
0000
0000
0000
0013
0000
0400
4000
0000
0000
0000
0000
,  // measure 73
0000
0000
0000
0000
3300
0000
0000
1000
,  // measure 74
0001
0000
0201
0000
0000
0320
0000
0000
,  // measure 75
1030
0100
0000
0000
0000
0000
0000
0010
,  // measure 76
0100
1000
0001
0100
1000
0200
0000
0310
,  // measure 77
0000
0000
4000
0004
0000
0000
0000
0000
0000
0000
0000
0000
3003
0000
0000
0000
,  // measure 78
0000
0000
0101
0000
0000
2020
0000
3030
,  // measure 79
0000
0000
1100
0000
0000
0022
0030
0000
,  // measure 80
1003
0000
0010
0000
0400
0004
0000
0000
0000
0000
0000
0000
0000
0000
0000
0000
,  // measure 81
0000
0303
0011
0000
,  // measure 82
0010
0000
0110
0000
0100
1000
0002
0000
,  // measure 83
0103
0000
0000
0000
0120
0000
0000
1030
0000
0000
0001
0010
0001
0010
0100
1000
,  // measure 84
0001
0010
0110
0100
0000
0000
2000
0000
,  // measure 85
3001
0000
0400
0040
0000
0000
0000
0000
0000
0000
0330
0000
0000
0000
0000
0000
,  // measure 86
1000
0000
0010
0000
0001
0000
0000
0010
0000
0000
4000
0400
0000
0000
0000
0000
,  // measure 87
0000
0000
3300
0000
0110
0000
0011
0001
,  // measure 88
0010
1000
0010
0001
0000
0000
2000
0000
,  // measure 89
3010
0400
0000
0000
0301
0000
0100
0000
,  // measure 90
1000
0000
0000
0000
0200
0000
0000
0000
0310
0000
4000
0004
0000
0000
0000
0000
,  // measure 91
0000
0000
3003
0000
0000
0000
0000
0001
,  // measure 92
0010
0000
0200
0000
0000
2300
0000
0000
,  // measure 93
3010
0400
0000
0000
0000
0300
0000
0001
,  // measure 94
0100
0010
1000
0010
0001
0020
0000
1030
,  // measure 95
0000
0000
0004
0040
0000
0000
0000
0000
0000
0000
0000
0000
0000
0000
0033
0000
,  // measure 96
0000
0000
0101
0000
0000
2020
0000
0000
,  // measure 97
3030
0000
1100
0000
0000
0022
0030
0000
,  // measure 98
1003
0000
0010
0000
0400
0040
0000
0000
0000
0000
0000
0000
0000
0000
0000
0000
,  // measure 99
0000
0330
1001
0000
,  // measure 100
1000
1100
0000
0000
,  // measure 101
0000
0220
0001
0330
0000
0000
0000
0000
,  // measure 102
0000
0000
1001
0000
2104
0000
0000
3003
;

//---------------dance-single - Expert----------------
#NOTES:
     dance-single:
     Ace Of Hearts (2011):
     Challenge:
     11:
     0.666,0.000,0.693,0.560,0.273: // measure 1
0000
0000
0000
0000
,  // measure 2
0000
0000
0000
0000
,  // measure 3
0000
0000
0000
0000
,  // measure 4
0000
0000
0000
0000
,  // measure 5
0000
0000
0000
0000
,  // measure 6
1010
0000
0000
0000
0010
0000
0100
0001
1000
0100
1000
0000
0001
1000
0100
0000
,  // measure 7
0010
0000
0100
0000
1000
0001
0100
0010
0100
0000
0001
0000
0010
0100
1000
0001
,  // measure 8
0100
0000
0000
0000
0010
0000
1000
0001
0010
0100
0010
0000
0001
0000
1000
0000
,  // measure 9
1010
0000
1010
0000
2002
0000
0010
3003
,  // measure 10
1001
0000
0101
0000
1010
0000
0000
0000
1000
0000
0001
0000
0010
0100
1000
0000
,  // measure 11
0001
0010
0100
0010
0001
0000
1000
0010
0100
0000
0004
0040
0000
0000
0000
0000
,  // measure 12
0000
0000
0033
0000
0010
0100
1100
0000
,  // measure 13
1010
0000
0040
0400
0000
0000
0000
0000
0000
0000
0000
0000
0330
0000
0000
0000
,  // measure 14
0101
0000
0011
0010
0110
0100
1100
0004
,  // measure 15
0003
0000
0000
0000
1000
0010
0100
0010
1000
0000
0400
0000
0000
0000
0300
0000
,  // measure 16
0120
0000
0031
1000
0002
0000
0000
0000
0203
0000
0310
1000
0002
0000
0000
0000
,  // measure 17
0013
0000
0004
0400
0000
0000
0000
0000
0000
0000
0000
0000
0000
0000
0000
0000
,  // measure 18
0303
0000
1010
1011
,  // measure 19
1001
2200
3000
0320
,  // measure 20
0000
0002
0000
0000
1000
0033
1001
1000
,  // measure 21
0010
0001
0020
0000
1030
0000
2400
0000
,  // measure 22
0000
3300
0000
0200
,  // measure 23
0020
0300
2000
0030
0002
3000
0400
0000
,  // measure 24
0003
0000
0000
0000
0310
0000
0001
0000
1000
0001
0100
0010
1000
0000
0001
0010
,  // measure 25
0100
0000
0010
0001
1000
0000
0020
0000
0200
0000
0000
0000
4000
0000
0000
0000
,  // measure 26
3330
2000
0200
0004
,  // measure 27
3303
0000
1000
0010
0100
0204
0000
0000
,  // measure 28
0000
0000
0000
0000
0000
0000
0000
0000
0303
0000
0000
0000
0021
0000
0000
0130
,  // measure 29
1000
0001
0200
0000
0310
0000
2002
3000
,  // measure 30
0103
0010
1000
0001
0010
0001
0201
0000
,  // measure 31
0310
0000
1200
0000
0310
0024
0000
0000
,  // measure 32
0000
0000
0033
0000
0001
1000
1020
0000
,  // measure 33
0130
0001
2000
0000
3100
0010
0012
1003
,  // measure 34
0010
0000
0210
0000
0000
0000
0301
0000
1000
0000
0000
0000
1100
0000
0100
0010
,  // measure 35
0001
0000
1000
0010
0100
0000
0001
0000
0010
0000
0100
0000
4000
0000
0000
0000
,  // measure 36
0000
3040
0000
0230
,  // measure 37
0000
0000
0301
0000
2001
0000
0000
0000
3100
0010
0001
0000
0402
0000
0000
0000
,  // measure 38
0303
0000
0100
0020
0030
2010
3001
0010
,  // measure 39
0100
0020
0032
0203
0020
1000
0330
0000
,  // measure 40
0102
0000
0003
2000
0200
0004
0000
0000
,  // measure 41
3303
0000
1002
0000
0103
0000
0120
1030
,  // measure 42
0001
0000
0010
0000
0200
0000
0000
0020
0000
0000
1001
0000
0000
0000
0330
0000
,  // measure 43
0011
0000
0001
1000
0000
0440
0000
0000
,  // measure 44
0000
0000
0000
0000
0000
0330
0000
1000
,  // measure 45
1001
0001
0011
0010
0110
0100
2002
3003
,  // measure 46
2020
0000
3030
0000
0202
0000
0303
0000
2200
0000
3300
0000
0220
0000
0330
0011
,  // measure 47
0000
0000
0201
0000
0310
0000
0010
0000
1000
0001
1000
0000
1000
0100
0010
0001
,  // measure 48
1000
0000
0010
1000
0001
0000
0010
0000
0100
0000
4000
0040
0000
0000
0000
0000
,  // measure 49
0000
0000
0000
0000
3030
0000
0000
0000
0010
0000
0100
0000
0101
0000
0000
0011
,  // measure 50
0000
0000
4000
0400
0000
0000
0000
0000
0000
0000
0000
0000
3300
0000
0000
0000
,  // measure 51
0110
0000
0000
0000
0011
0000
0001
0000
1000
0000
0010
0000
0100
0001
0100
0010
,  // measure 52
1000
0000
0001
0100
0010
1000
0001
0000
0010
0000
0410
0000
0000
0000
0000
0300
,  // measure 53
1100
0000
1000
0000
0001
0100
0010
0000
1000
0000
0001
0000
0201
0000
0310
0000
,  // measure 54
1000
4400
0000
0000
0000
0000
3300
0000
,  // measure 55
1100
0000
0100
0000
0110
0000
0010
0000
0001
0100
0010
0000
2010
0000
3001
0000
,  // measure 56
0010
0001
0100
0010
2000
0400
0000
0000
,  // measure 57
0000
0000
0300
3001
0100
0010
0001
0010
,  // measure 58
1000
0000
0200
0000
0000
0000
0320
0000
0000
0000
0034
0400
0000
0000
0000
0000
,  // measure 59
0000
0000
0303
0110
,  // measure 60
0000
4040
0000
0000
3030
0000
1100
0000
,  // measure 61
0000
0000
0044
0000
0000
0000
0033
0000
0001
0000
0100
0000
0040
0400
0000
0000
,  // measure 62
0000
0000
0000
0330
,  // measure 63
1011
0000
0000
0000
1000
0000
1110
1000
,  // measure 64
0001
0010
0100
0010
0001
1000
0010
0001
,  // measure 65
0010
0000
1000
0000
2200
0000
3300
1001
0000
0000
0201
0000
0010
0300
0010
0000
,  // measure 66
1000
0100
0010
0000
0001
1000
0001
0100
0010
0000
1000
0001
0010
0000
0001
0000
,  // measure 67
1000
0000
0004
0400
0000
0000
0000
0000
0000
0000
0303
0000
0000
0000
0000
0000
,  // measure 68
0010
0000
0000
0000
2010
0000
0000
0200
0000
0000
0040
0004
0000
0000
0000
0000
,  // measure 69
0000
0000
3333
0000
1001
0000
1010
0010
,  // measure 70
0001
0010
1010
4000
0000
3001
0021
0000
,  // measure 71
0130
4100
0000
0000
3020
0000
0230
0000
,  // measure 72
0301
0000
0000
0000
0021
0000
0130
0000
1000
0000
0040
0400
0000
0000
0000
0000
,  // measure 73
0000
0000
0000
0000
0330
0000
0101
0001
,  // measure 74
1000
0000
1400
0000
0000
0320
0000
0000
,  // measure 75
0031
0101
0000
0000
0100
0010
1000
0001
,  // measure 76
0010
1000
1010
0010
0001
2000
0000
3010
,  // measure 77
0000
0000
0400
0004
0000
0000
0000
0000
0000
0000
0000
0000
0303
0000
0000
0000
,  // measure 78
0010
0000
1010
0000
0000
2200
0000
0000
,  // measure 79
3300
0000
0011
0000
0000
0202
0000
0003
,  // measure 80
0310
0000
1000
0000
0004
0040
0000
0000
0000
0000
0000
0000
0000
0000
0000
0000
,  // measure 81
0000
0033
0111
0000
,  // measure 82
0110
0000
0000
0000
1100
0000
1000
0001
0100
0000
0010
0000
1000
0001
0010
0000
,  // measure 83
0100
0000
0010
0001
1000
0000
0010
0100
0001
0000
1000
0100
0010
0100
1000
0001
,  // measure 84
0100
0010
1000
0001
0010
0100
1000
0001
0100
0000
0001
1000
0100
0000
0010
0000
,  // measure 85
0001
0000
0400
0040
0000
0000
0000
0000
0000
0000
0000
0000
0330
0000
0000
0000
,  // measure 86
0010
1000
0001
1000
0100
0000
0000
0110
0000
0000
0040
0004
0000
0000
0000
0000
,  // measure 87
0000
0000
0033
0000
0101
0000
1010
1000
,  // measure 88
0001
0000
0010
0000
0100
0010
0001
0000
1000
0010
0100
0001
1000
0000
0100
0010
,  // measure 89
0001
0000
4000
0000
0000
0000
0000
0000
3010
0000
0000
0000
0100
0001
1000
0000
,  // measure 90
0100
0000
0010
0000
0110
0000
0100
0000
1000
0000
0004
0400
0000
0000
0000
0000
,  // measure 91
0000
0000
0303
0000
0110
0010
1010
1000
,  // measure 92
1000
0100
0010
0000
0100
0000
1000
0000
0001
0000
0100
0000
0010
0000
1000
0000
,  // measure 93
0001
0400
0000
0000
0000
0300
0000
0010
,  // measure 94
1000
0100
0010
1000
0010
0012
0000
1003
,  // measure 95
0000
0000
0040
0400
0000
0000
0000
0000
0000
0000
0000
0000
0000
0000
0330
0000
,  // measure 96
1001
0000
1010
0000
0000
0404
0000
0000
,  // measure 97
0303
0000
0011
0000
0000
4400
0000
0300
,  // measure 98
3001
0000
0100
0000
0040
4000
0000
0000
0000
0000
0000
0000
0000
0000
0000
0000
,  // measure 99
0000
3030
0111
0000
,  // measure 100
0001
1001
0000
0000
,  // measure 101
0000
2002
0010
3003
0000
0000
0000
0000
,  // measure 102
0000
0000
1001
0000
2412
0000
0300
3003
;

//---------------dance-single - Medium----------------
#NOTES:
     dance-single:
     Ace Of Hearts (2011):
     Medium:
     8:
     0.376,0.000,0.087,0.500,0.040: // measure 1
0000
0000
0000
0000
,  // measure 2
0000
0000
0000
0000
,  // measure 3
0000
0000
0000
0000
,  // measure 4
0000
0000
0000
0000
,  // measure 5
0000
0000
0000
0000
,  // measure 6
1000
0000
0000
1000
0000
0000
1000
0000
,  // measure 7
0000
0000
0001
0000
0010
0001
0000
0000
,  // measure 8
0100
0000
0000
0100
0000
0000
0100
0000
,  // measure 9
0001
0010
0001
1000
,  // measure 10
0010
1000
0010
0000
1000
0010
1000
0001
,  // measure 11
0000
0000
0010
0000
0100
4000
0000
0000
,  // measure 12
0000
0000
3000
0000
0001
1000
0010
0000
,  // measure 13
1000
0004
0000
0000
0000
0000
0003
0000
,  // measure 14
0000
0000
0000
0010
0001
0010
0100
1000
,  // measure 15
0000
0000
0002
0000
1003
0020
0000
0000
,  // measure 16
1030
0001
0010
0001
,  // measure 17
0000
0000
4000
0004
0000
0000
0000
0000
0000
0000
0000
0000
3003
0000
0000
0000
,  // measure 18
0000
0000
0001
0101
,  // measure 19
0100
0200
0000
0302
,  // measure 20
0000
2003
0000
0000
3000
0000
0010
1000
,  // measure 21
0010
1000
0001
0000
0010
0000
0400
0000
,  // measure 22
0000
0300
0000
0010
,  // measure 23
0001
1000
0001
0040
,  // measure 24
0000
0030
0000
0001
,  // measure 25
1000
0100
1000
0000
0001
0000
0200
0000
,  // measure 26
0300
0002
1003
0100
,  // measure 27
0000
0000
0010
0001
0010
0004
0000
0000
,  // measure 28
0000
0000
0003
1000
,  // measure 29
0010
1000
0010
0000
0100
0000
0002
0000
,  // measure 30
0003
0000
0000
0000
1000
0100
2000
0000
,  // measure 31
3001
0000
0020
0000
0130
2000
0000
0000
,  // measure 32
0000
0000
3000
0000
0001
0100
0002
0000
,  // measure 33
1003
0100
0010
0200
,  // measure 34
0000
1300
0000
0000
0001
0000
2000
0000
,  // measure 35
3010
0000
2000
0000
3001
0100
0000
0000
,  // measure 36
0000
0000
0000
0000
,  // measure 37
0000
0001
2000
0000
3010
0000
0200
0000
,  // measure 38
0300
0000
0010
2000
0000
3001
0000
0000
,  // measure 39
0000
0020
0000
0031
1000
0001
0000
0000
,  // measure 40
0020
0000
0000
0031
1000
0004
0000
0000
,  // measure 41
0003
2000
3200
0320
,  // measure 42
0030
0000
0000
0000
0002
0000
0000
1003
0000
0000
0020
0000
0000
0000
0000
0000
,  // measure 43
1030
0000
0000
0000
0001
0000
0010
0000
0000
0000
0004
4000
0000
0000
0000
0000
,  // measure 44
0000
0000
0000
0000
3003
0000
0000
1000
,  // measure 45
0010
1000
0010
0100
0001
0100
0020
0000
,  // measure 46
0230
0000
0000
0000
0302
0000
0000
0000
2003
0000
0000
0000
3002
0000
0000
0013
,  // measure 47
0000
0200
0000
0000
0310
0001
0010
0100
,  // measure 48
0000
0000
2000
0000
3001
0040
0000
0000
,  // measure 49
0000
0000
0000
0000
0030
0000
0000
0000
0001
0000
1000
0000
0010
0000
0000
1000
,  // measure 50
0000
0004
0000
0000
0000
0000
0003
0000
,  // measure 51
0000
0000
0000
1000
0100
1000
0001
0100
,  // measure 52
0000
0000
0020
0000
0130
0004
0000
0000
,  // measure 53
1003
0100
0010
0200
,  // measure 54
1300
0004
0000
0000
0000
0003
0000
0000
,  // measure 55
0000
0000
0000
1000
0100
0000
2000
0000
,  // measure 56
0000
3002
0000
0000
1003
0040
0000
0000
,  // measure 57
0000
0030
0000
1000
0001
0000
0010
0001
,  // measure 58
0010
0200
0000
1300
0000
0004
0000
0000
,  // measure 59
0000
0000
0003
1000
,  // measure 60
0000
2020
0000
0000
3030
0000
0010
0000
,  // measure 61
0000
0000
0120
0000
0000
0000
0000
0000
0130
0000
0001
0000
4000
0004
0000
0000
,  // measure 62
0000
0000
0000
3003
,  // measure 63
0000
0000
0001
0101
,  // measure 64
0100
0010
0010
1000
,  // measure 65
1000
0000
0000
0000
0002
0000
0000
0013
0000
0000
0200
0000
0000
0000
0000
0000
,  // measure 66
1300
0001
0100
0001
0000
0000
2000
0000
,  // measure 67
3100
0040
0000
0000
0000
0000
0030
0000
,  // measure 68
0200
0000
0000
0000
2300
0000
0000
3001
0000
0000
0400
0000
0000
0000
0000
0000
,  // measure 69
0000
0000
0000
0000
0300
0000
0000
0001
,  // measure 70
0100
0001
1000
0100
0000
0000
0020
0000
,  // measure 71
0130
2000
0000
0000
3001
0000
0200
0000
,  // measure 72
0301
0000
0020
0000
0031
4000
0000
0000
,  // measure 73
0000
0000
0000
0000
3000
0000
0000
0001
,  // measure 74
0100
0000
0020
0000
0000
0230
0000
0000
,  // measure 75
0301
1000
0000
0000
0000
0000
0000
0001
,  // measure 76
0100
0000
0010
0100
0001
2000
0000
3001
,  // measure 77
0000
0040
0000
0000
0000
0030
0000
0000
,  // measure 78
0000
0000
0001
0000
0000
2002
0000
0000
,  // measure 79
3003
0000
1000
0000
0000
1020
0000
0000
,  // measure 80
0130
0000
0001
0000
4000
0004
0000
0000
0000
0000
0000
0000
0000
0000
0000
0000
,  // measure 81
0000
3003
0000
0000
,  // measure 82
0001
0201
0302
2003
,  // measure 83
3200
0000
0000
0000
0320
0000
0000
0031
0000
0000
2000
0000
0000
0000
0000
0000
,  // measure 84
3010
0100
0010
1000
0000
0000
0002
0000
,  // measure 85
0103
0040
0000
0000
0000
0000
0030
0000
,  // measure 86
1000
0000
0001
0000
0010
0000
0000
0001
0000
0000
4000
0000
0000
0000
0000
0000
,  // measure 87
0000
0000
3000
0000
0000
0000
0000
0010
,  // measure 88
1000
0010
0100
0001
0000
0000
2000
0000
,  // measure 89
3001
0020
0000
0000
0230
0000
2300
0000
,  // measure 90
3001
0000
2000
0000
3001
0400
0000
0000
,  // measure 91
0000
0000
0300
0000
0000
0000
0000
0010
,  // measure 92
0100
0000
0002
0000
0000
2003
0000
0000
,  // measure 93
3001
0040
0000
0000
0000
0030
0000
0001
,  // measure 94
0010
0000
0001
1000
0010
2000
0000
3001
,  // measure 95
0000
0400
0000
0000
0000
0000
0000
0300
,  // measure 96
0000
0000
0001
0000
0000
2002
0000
0000
,  // measure 97
3003
0000
1000
0000
0000
1200
0000
0000
,  // measure 98
0310
0000
0001
0000
4000
0004
0000
0000
0000
0000
0000
0000
0000
0000
0000
0000
,  // measure 99
0000
3003
0000
0000
,  // measure 100
0001
0101
0000
0000
,  // measure 101
0000
0100
0110
0000
0000
0000
0000
0000
,  // measure 102
0000
0000
0110
0000
2002
0000
0000
3003
;

//---------------dance-single - Easy----------------
#NOTES:
     dance-single:
     Ace Of Hearts (2011):
     Easy:
     6:
     0.195,0.000,0.047,0.120,0.000: // measure 1
0000
0000
0000
0000
,  // measure 2
0000
0000
0000
0000
,  // measure 3
0000
0000
0000
0000
,  // measure 4
0000
0000
0000
0000
,  // measure 5
0000
0000
0000
0000
,  // measure 6
0001
0000
0000
0001
0000
0000
0001
0000
,  // measure 7
0000
0000
0000
0000
,  // measure 8
1000
0000
0000
1000
0000
0000
1000
0000
,  // measure 9
2000
0000
3000
0000
,  // measure 10
0020
0030
1000
1000
,  // measure 11
0000
0000
0001
0000
0000
0004
0000
0000
,  // measure 12
0000
0003
0000
1000
,  // measure 13
0000
4000
0000
0000
0000
0000
3000
0000
,  // measure 14
0000
0000
0010
0010
,  // measure 15
0000
0000
0010
0000
0000
0010
0000
0000
,  // measure 16
0000
0100
0000
0100
,  // measure 17
0000
0400
0000
0000
0000
0000
0300
0000
,  // measure 18
0000
0000
0001
0001
,  // measure 19
0000
0000
0000
0000
,  // measure 20
0000
0000
0000
1000
,  // measure 21
0001
1000
0000
0001
,  // measure 22
0000
0000
0000
0010
,  // measure 23
0001
0010
0000
0004
,  // measure 24
0000
0003
0000
1000
,  // measure 25
0010
1000
0000
0001
,  // measure 26
0000
0100
0001
0100
,  // measure 27
0000
0000
0010
0000
0000
0040
0000
0000
,  // measure 28
0000
0030
0000
1000
,  // measure 29
0001
1000
0000
0100
,  // measure 30
0000
0000
0010
0010
,  // measure 31
0000
0000
0001
0000
0000
0002
0000
0000
,  // measure 32
0000
0003
1000
1000
,  // measure 33
0000
0001
0100
0001
,  // measure 34
0000
1000
0000
0000
0000
0000
0001
0000
,  // measure 35
0010
0000
0001
0000
0000
1000
0000
0000
,  // measure 36
0000
0000
0000
0000
,  // measure 37
0000
0001
0000
0001
,  // measure 38
0000
0000
0100
0000
0000
0100
0000
0000
,  // measure 39
0000
0010
0000
0000
0000
0010
0000
0000
,  // measure 40
1000
0000
0000
0000
0000
4000
0000
0000
,  // measure 41
3000
0001
0010
0001
,  // measure 42
0000
1000
0001
1000
,  // measure 43
0000
0000
0010
0000
0000
0040
0000
0000
,  // measure 44
0000
0000
0030
0000
,  // measure 45
1000
0001
1000
0020
,  // measure 46
0000
2030
0000
3002
,  // measure 47
0000
0203
0000
0000
0301
0000
0001
0000
,  // measure 48
0000
0000
1000
0000
0000
4000
0000
0000
,  // measure 49
0000
3000
0001
0001
,  // measure 50
0000
0400
0000
0000
0000
0000
0300
0000
,  // measure 51
0000
0000
0010
0010
,  // measure 52
0000
0000
1000
0000
0000
1000
0000
0000
,  // measure 53
0000
0001
0000
0001
,  // measure 54
0000
0004
0000
0000
0000
0000
0003
0000
,  // measure 55
0000
0000
0010
0010
,  // measure 56
0000
0100
0000
0000
0000
0400
0000
0000
,  // measure 57
0300
0000
1000
1000
,  // measure 58
0000
0001
0000
0000
0000
0004
0000
0000
,  // measure 59
0000
0003
0000
1000
,  // measure 60
0000
2000
0000
0000
3000
0000
0010
0000
,  // measure 61
0000
0010
0000
0000
1000
0000
4004
0000
,  // measure 62
0000
0000
0000
3003
,  // measure 63
0000
0000
0001
0001
,  // measure 64
0000
1000
0000
0001
,  // measure 65
0000
0000
2000
0000
0000
3200
0000
0000
,  // measure 66
1300
1000
0000
0001
,  // measure 67
0000
0040
0000
0000
0000
0000
0030
0000
,  // measure 68
0000
0000
0001
0000
0000
0004
0000
0000
,  // measure 69
0000
0000
0003
0000
,  // measure 70
0010
0010
0000
0100
,  // measure 71
0000
0100
0000
0000
0000
0000
1000
0000
,  // measure 72
0000
0000
1000
0000
0000
4000
0000
0000
,  // measure 73
0000
0000
3000
0000
,  // measure 74
0010
0000
0010
0000
0000
1000
0000
0000
,  // measure 75
1000
0000
0000
0000
,  // measure 76
0010
0000
0010
0000
0000
0100
0000
0000
,  // measure 77
0000
0400
0000
0000
0000
0000
0300
0000
,  // measure 78
0000
0000
0001
0000
0000
0002
0000
0000
,  // measure 79
0003
0000
0100
0000
0000
0200
0000
0000
,  // measure 80
0310
0440
0000
0000
,  // measure 81
0000
0330
0000
0000
,  // measure 82
0010
1010
0000
0000
,  // measure 83
0000
0000
2000
0000
0000
3002
0000
0000
,  // measure 84
0013
0010
0000
0001
,  // measure 85
0000
0004
0000
0000
0000
0000
0003
0000
,  // measure 86
1000
0000
1000
0000
0000
0040
0000
0000
,  // measure 87
0000
0030
0000
0000
,  // measure 88
0100
0100
0000
0001
,  // measure 89
0000
0001
0000
0000
0000
0000
1000
0000
,  // measure 90
0000
0000
1000
0000
0000
0400
0000
0000
,  // measure 91
0000
0300
0000
0000
,  // measure 92
0010
0000
0010
0000
0000
0001
0000
0000
,  // measure 93
0000
0004
0000
0000
0003
0000
0000
0000
,  // measure 94
1000
0000
1000
0000
0000
0100
0000
0000
,  // measure 95
0000
0400
0000
0000
0000
0000
0300
0000
,  // measure 96
0000
0000
0010
0000
0000
0020
0000
0000
,  // measure 97
0030
0000
0001
0000
0000
0002
0000
0000
,  // measure 98
1003
4004
0000
0000
,  // measure 99
0000
3003
0000
0000
,  // measure 100
0001
0101
0000
0000
,  // measure 101
0000
0100
0110
0000
0000
0000
0000
0000
,  // measure 102
0000
0000
0010
0000
2002
0000
0000
3003
;

//---------------dance-single - Novice----------------
#NOTES:
     dance-single:
     Ace Of Hearts (2011):
     Beginner:
     3:
     0.131,0.000,0.000,0.060,0.000: // measure 1
0000
0000
0000
0000
,  // measure 2
0000
0000
0000
0000
,  // measure 3
0000
0000
0000
0000
,  // measure 4
0000
0000
0000
0000
,  // measure 5
0000
0000
0000
0000
,  // measure 6
2000
0000
0000
3000
,  // measure 7
0000
0000
0000
0000
,  // measure 8
0002
0000
0000
0003
,  // measure 9
1000
0000
0000
0000
,  // measure 10
1000
0000
0000
0010
,  // measure 11
0000
0010
0000
0040
,  // measure 12
0000
0030
0000
1000
,  // measure 13
0000
4000
0000
3000
,  // measure 14
0000
0000
0000
0001
,  // measure 15
0000
0001
0000
0001
,  // measure 16
0000
0000
0000
0100
,  // measure 17
0000
0400
0000
0300
,  // measure 18
0000
0000
0010
0010
,  // measure 19
0000
0000
0000
0000
,  // measure 20
0000
0000
0000
1000
,  // measure 21
0000
1000
0000
1000
,  // measure 22
0000
0000
0000
0001
,  // measure 23
0000
0001
0000
0001
,  // measure 24
0000
0000
0000
0100
,  // measure 25
0000
0100
0000
0100
,  // measure 26
0000
0000
0000
0010
,  // measure 27
0000
0010
0000
0020
,  // measure 28
0000
0030
0000
1000
,  // measure 29
0000
1000
0000
1000
,  // measure 30
0000
0000
0000
0010
,  // measure 31
0000
0010
0000
0020
,  // measure 32
0000
0030
0000
0100
,  // measure 33
0000
0100
0000
0100
,  // measure 34
0000
0000
0000
0001
,  // measure 35
0000
0001
0000
0001
,  // measure 36
0000
0000
0000
0000
,  // measure 37
0000
0000
0000
1000
,  // measure 38
0000
1000
0000
1000
,  // measure 39
0000
0000
0000
0001
,  // measure 40
0000
0002
0000
0003
,  // measure 41
0000
0100
0000
0100
,  // measure 42
0000
0000
0000
0010
,  // measure 43
0000
0010
0000
0040
,  // measure 44
0000
0000
0030
0000
,  // measure 45
0000
1000
0000
2000
,  // measure 46
0000
0000
0000
3000
,  // measure 47
0000
0000
0000
0001
,  // measure 48
0000
0001
0000
0004
,  // measure 49
0000
0003
0000
0100
,  // measure 50
0000
0400
0000
0300
,  // measure 51
0000
0000
0000
0001
,  // measure 52
0000
0001
0000
0001
,  // measure 53
0000
0000
0000
1000
,  // measure 54
0000
4000
0000
3000
,  // measure 55
0000
0000
0000
0010
,  // measure 56
0000
0010
0000
0010
,  // measure 57
0000
0000
0000
0100
,  // measure 58
0000
0100
0000
0400
,  // measure 59
0000
0300
0000
0001
,  // measure 60
0000
0001
0000
0000
0000
0000
1000
0000
,  // measure 61
0000
1000
0000
0000
0000
0000
0040
0000
,  // measure 62
0000
0000
0000
0030
,  // measure 63
0000
0000
1000
1000
,  // measure 64
0000
0001
0000
0001
,  // measure 65
0000
2000
0000
3000
,  // measure 66
0000
0010
0000
0010
,  // measure 67
0000
0040
0000
0030
,  // measure 68
0000
1000
0000
4000
,  // measure 69
0000
0000
3000
0000
,  // measure 70
0000
0001
0000
0001
,  // measure 71
0000
0001
0000
0000
,  // measure 72
0000
0100
0000
0400
,  // measure 73
0000
0000
0300
0000
,  // measure 74
0000
0001
0000
0001
,  // measure 75
0000
0001
0000
0000
,  // measure 76
0000
1000
0000
1000
,  // measure 77
0000
4000
0000
3000
,  // measure 78
0000
0000
0001
0000
0000
0001
0000
0000
,  // measure 79
0000
0000
0100
0000
0000
0100
0000
0000
,  // measure 80
0000
0040
0000
0000
,  // measure 81
0000
0030
0000
0000
,  // measure 82
1000
2000
0000
3000
,  // measure 83
0000
0002
0000
0003
,  // measure 84
0000
0100
0000
0100
,  // measure 85
0000
0400
0000
0300
,  // measure 86
0000
0001
0000
0004
,  // measure 87
0000
0003
0000
0000
,  // measure 88
0000
1000
0000
1000
,  // measure 89
0000
1000
0000
0000
,  // measure 90
0000
0100
0000
0400
,  // measure 91
0000
0300
0000
0000
,  // measure 92
0000
0010
0000
0010
,  // measure 93
0000
0010
0000
0000
,  // measure 94
0000
0001
0000
0001
,  // measure 95
0000
0004
0000
0003
,  // measure 96
0000
0000
1000
0000
0000
1000
0000
0000
,  // measure 97
0000
0000
0001
0000
0000
0001
0000
0000
,  // measure 98
0000
0040
0000
0000
,  // measure 99
0000
0030
0000
0000
,  // measure 100
0001
0001
0000
0000
,  // measure 101
0000
1000
1000
0000
0000
0000
0000
0000
,  // measure 102
0000
0100
0100
0000
;
