#TITLE:The Power of Love;
#SUBTITLE:;
#ARTIST:Jennifer Cihi;
#TITLETRANSLIT:;
#SUBTITLETRANSLIT:;
#ARTISTTRANSLIT:;
#GENRE:;
#CREDIT:Ace Of Hearts;
#BANNER:The Power of Love - bn.png;
#BACKGROUND:The Power of Love - bg.png;
#LYRICSPATH:The Power of Love Lyrics.lrc;
#CDTITLE:Ace Of Hearts.png;
#MUSIC:The Power of Love.ogg;
#OFFSET:-0.450;
#SAMPLESTART:85.220;
#SAMPLELENGTH:14.000;
#SELECTABLE:YES;
#BPMS:0.000=134.000,264.000=67.000,280.000=134.000;
#STOPS:;
#BGCHANGES:;
#FGCHANGES:;
#KEYSOUNDS:;

//---------------dance-single - Expert----------------
#NOTES:
     dance-single:
     Ace Of Hearts (2011):
     Challenge:
     11:
     0.784,0.000,0.108,0.623,0.993: // measure 1
0000
0000
0000
0000
,  // measure 2
0000
0000
0000
0000
,  // measure 3
0000
0000
0000
0000
,  // measure 4
0000
0000
0000
0000
,  // measure 5
0001
0100
0000
0010
0000
0010
0000
1000
0001
0000
0020
0000
0031
0000
1000
0000
,  // measure 6
0010
0100
0000
0001
0000
0001
0000
1000
0100
0000
0020
0000
0130
0000
1000
0000
,  // measure 7
0001
0100
0000
0010
0000
0010
0000
1000
0001
0000
0200
0000
0310
0000
1000
0000
,  // measure 8
0001
0010
0001
0010
0100
1000
0100
1000
0001
0100
0001
0100
0010
1000
0010
0100
,  // measure 9
0001
0000
1000
0100
0010
0000
0010
0001
1000
0000
1000
0010
0100
0000
0100
0001
,  // measure 10
1000
0000
1000
0100
0010
0000
0010
0001
1000
0000
1000
0010
0100
0000
0100
0001
,  // measure 11
1000
0000
1000
0100
0010
0000
0010
0001
1000
0000
1000
0010
0100
0000
0100
0001
,  // measure 12
2000
0000
0100
0000
0000
0000
3002
0000
0000
0000
1003
0010
0100
0000
0100
0001
,  // measure 13
2000
0000
3100
0010
0001
0000
0001
1000
0010
0000
0010
0100
0001
0000
0001
1000
,  // measure 14
0100
0000
0100
0010
0001
0000
0001
1000
0010
0000
0010
0100
0001
0000
0001
1000
,  // measure 15
0100
0000
0100
0010
0000
0010
0001
0000
1001
0000
1000
0010
0000
0010
0100
0001
,  // measure 16
2000
0010
0000
3002
0000
0100
0103
0100
,  // measure 17
0010
0000
1000
0001
0010
0000
0010
0100
1000
0000
1000
0001
0100
0000
0100
0010
,  // measure 18
1000
0000
1000
0001
0010
0000
0010
0001
1000
0000
1000
0010
0100
0000
0100
0001
,  // measure 19
1000
0000
1000
0100
0010
0000
0010
0100
2000
0000
3001
0000
0100
0000
0020
0000
,  // measure 20
0000
1030
0002
0000
0023
0000
0230
1300
,  // measure 21
0001
0000
0100
0010
1000
0000
1000
0001
0010
0000
0010
0100
1000
0000
1000
0001
,  // measure 22
0100
0000
0100
0010
1000
0000
1000
0001
0010
0000
0010
0100
1000
0000
1000
0001
,  // measure 23
0100
0000
0100
0010
1000
0000
1000
0001
0010
0000
0110
0000
1100
0000
1000
0001
,  // measure 24
0100
0000
0000
0000
0110
0000
0010
0100
0001
0000
1000
0100
0010
0001
0010
0100
,  // measure 25
1000
0001
0000
0020
0000
0031
1000
0010
0100
0001
0000
0200
0000
0310
1000
0010
,  // measure 26
0100
0001
0000
2000
0000
3100
0010
0100
1000
0001
0000
0200
0000
0310
0100
0001
,  // measure 27
1000
0001
0000
0020
0000
0031
1000
0010
1000
0001
0000
2000
0000
3010
0100
0010
,  // measure 28
1000
0001
0000
0020
0000
0130
0010
0001
0010
0100
0000
2000
0000
3001
0100
0010
,  // measure 29
0100
0001
0000
0200
0000
0310
1000
0010
0100
0001
0000
2000
0000
3001
0010
0100
,  // measure 30
0010
0001
0000
2000
0000
3010
0100
0010
1000
0001
0000
0020
0000
0130
1000
0001
,  // measure 31
1000
0100
0000
2000
0000
3001
0100
0010
0100
0001
0000
0200
0000
0310
1000
0010
,  // measure 32
0100
0001
0000
2000
0000
3001
0010
0001
1000
0010
0100
0000
0100
0000
0001
0000
,  // measure 33
1001
0000
1000
0100
0010
0000
0010
0100
1000
0000
1000
0001
0100
0000
0100
0010
,  // measure 34
1000
0000
1000
0001
0010
0000
0010
0001
1000
0010
1000
0001
0010
0000
0010
0100
,  // measure 35
1000
0000
1000
0001
0100
0000
0100
0010
1000
0000
1000
0001
0010
0000
0010
0001
,  // measure 36
2000
0000
0010
0000
0000
0000
3002
0000
0000
0000
0013
0000
0010
0000
0100
1000
,  // measure 37
0001
0000
0001
0100
0010
0000
0010
1000
0001
0000
0001
0010
0100
0000
0100
0010
,  // measure 38
0001
0000
0001
1000
0010
0000
0010
0100
0001
1000
0001
0100
0010
0000
0010
1000
,  // measure 39
0001
0000
0001
0010
0000
0010
0100
0000
1100
0000
1000
0001
0000
0001
0100
0000
,  // measure 40
0020
1000
0000
0230
0000
0301
0001
0000
,  // measure 41
2001
0000
3100
0010
0001
0000
0001
1000
0010
0000
0010
0100
0001
0000
0001
1000
,  // measure 42
0100
0000
0100
0010
0001
0000
0001
1000
0010
0000
0010
0100
0001
0000
0001
1000
,  // measure 43
0010
0000
0010
0100
0001
0000
0001
1000
0100
0000
0010
0000
0001
0000
2000
0000
,  // measure 44
0000
3010
0200
0000
0302
0000
2003
3010
,  // measure 45
0100
0000
0001
0100
0010
0000
0010
1000
0001
0000
0001
0010
0100
0000
0100
1000
,  // measure 46
0001
0000
0001
0010
0100
0000
0100
1000
0001
0000
0001
0100
0010
0000
0010
1000
,  // measure 47
0001
0000
0000
0000
1000
0000
0100
0000
0010
0000
0001
0000
1000
0100
0010
0100
,  // measure 48
1000
0000
0000
0000
1001
0000
0001
0100
0010
1000
0010
0100
0001
1000
0100
0010
,  // measure 49
0001
1000
0000
0020
0000
0130
0010
1000
0001
1000
0000
0002
0000
0013
0100
0010
,  // measure 50
0001
1000
0000
0020
0000
0130
0001
0100
0010
1000
0000
0002
0000
0013
0001
0010
,  // measure 51
0100
1000
0000
0200
0000
0310
0100
1000
0100
0010
0000
0002
0000
1003
0010
0100
,  // measure 52
0010
1000
0000
0020
0000
0130
0001
1000
0001
0100
0000
0002
0000
1003
0100
0010
,  // measure 53
0100
1000
0000
0200
0000
0310
0001
1000
0001
0100
0000
0020
0000
0130
0001
0100
,  // measure 54
0010
1000
0000
0002
0000
1003
0010
0100
0010
1000
0000
0020
0000
1030
0001
0010
,  // measure 55
0002
0000
0000
2003
0000
3010
0000
0410
,  // measure 56
0000
0000
0300
0000
0000
0000
0000
0000
0100
0000
0200
0000
0000
0000
0301
1000
,  // measure 57
0001
1000
0010
0100
0010
0100
0001
0100
0001
1000
0100
1000
0100
0010
0002
0000
,  // measure 58
0000
0000
0103
0000
0000
0000
0010
1000
0010
1000
0001
0100
0001
1000
0002
0000
,  // measure 59
0000
0013
0100
1000
0002
0200
0000
1000
,  // measure 60
0000
0000
0303
0000
1001
0000
0001
0010
0100
0000
0100
1000
0001
0000
0200
0000
,  // measure 61
0000
0000
0000
0340
0000
1030
0001
0202
,  // measure 62
0000
0000
0003
0000
0310
0000
1000
0000
0001
0000
0010
0000
0100
0000
1000
0001
,  // measure 63
0200
0000
0310
1000
0001
0001
0010
0210
,  // measure 64
0000
0000
1300
0000
1001
0000
0001
0000
0201
0000
0310
1000
0002
0000
2003
0000
,  // measure 65
3400
0000
0000
0000
0000
0000
0310
0000
0012
0000
0000
2003
0000
0000
3010
0000
,  // measure 66
0400
0000
0000
0300
,  // measure 67
0002
0000
2003
3200
,  // measure 68
2300
0000
0000
0000
3020
0000
0000
0230
0000
0000
0000
0000
0000
0000
0300
0000
,  // measure 69
0000
0020
0000
0000
0000
0000
0000
0000
0000
0000
0000
0000
0000
0000
0000
0000
,  // measure 70
0230
0000
0000
0000
0000
0000
0000
0000
0000
0000
0000
0000
0000
0000
0300
0000
0102
0000
1003
0000
0100
0000
0110
0000
0010
0001
0010
0001
1000
0100
1000
0100
,  // measure 71
0020
0000
0000
0030
,  // measure 72
0002
0000
0000
0000
0000
0000
0000
0000
2003
0000
0000
0000
0000
0000
3001
0100
,  // measure 73
0020
0000
0000
0000
0000
0000
1030
0010
0100
0010
1000
0001
0010
0000
0002
0000
,  // measure 74
0000
0000
0403
0000
0000
0000
0000
0000
0000
0000
0000
0000
0302
0000
1003
0100
,  // measure 75
0010
0000
0100
1000
0001
1000
0001
0020
0000
0230
0000
1300
0100
0010
0001
0010
,  // measure 76
0100
1000
0001
0100
0001
1000
0100
1000
0001
0100
0010
0100
0001
1000
0100
0010
,  // measure 77
0002
0000
0000
0000
0000
0000
0000
0000
0023
0000
0000
0230
0000
0000
1300
0001
,  // measure 78
0100
0010
0100
0010
1000
0010
1000
0010
0100
0001
0100
0001
1000
0100
1000
0100
,  // measure 79
0010
0001
0000
2000
0000
3001
0100
0010
0100
0001
0000
2000
0000
3001
0010
0100
,  // measure 80
0010
0001
0000
0020
0000
0130
1000
0001
1000
0100
0000
2000
0000
3001
0100
0010
,  // measure 81
0100
0001
0000
0200
0000
0310
1000
0001
1000
0010
0000
2000
0000
3001
0010
0100
,  // measure 82
0010
0001
0000
0020
0000
0130
1000
0001
1000
0100
0000
2000
0000
3001
0100
0010
,  // measure 83
0100
0001
0000
0200
0000
0310
0100
0001
0100
0010
0000
2000
0000
3001
0010
0100
,  // measure 84
0010
0001
0000
0020
0000
0031
1000
0010
1000
0001
0000
0200
0000
0310
0100
0001
,  // measure 85
0200
0000
0000
0302
0000
1003
0000
1400
,  // measure 86
0000
0000
0300
0000
0000
0000
0000
0000
0100
0000
0200
0000
0000
0000
0310
0001
,  // measure 87
0010
0001
1000
0010
1000
0010
0100
0001
0100
0001
1000
0001
1000
0001
0020
0000
,  // measure 88
0000
0000
0130
0000
0000
0000
1000
0100
0010
0001
0010
0100
1000
0001
0020
0000
,  // measure 89
0000
0000
0031
1000
0200
2000
0000
0001
,  // measure 90
0000
0000
3300
0000
1001
0000
0001
0100
0010
0000
0010
1000
0001
0000
0200
0000
,  // measure 91
0000
0000
0000
0340
0000
1030
0001
0200
,  // measure 92
0000
0000
0000
0000
0310
0000
1000
0000
0001
0000
0100
0000
0010
0000
1000
0001
,  // measure 93
0010
0100
0000
0020
0000
0000
0031
0000
1000
0010
0000
0200
0000
0000
0301
0000
,  // measure 94
1000
0100
0000
0010
0001
0000
1000
0000
0020
0000
0000
0230
0000
0000
0301
0000
,  // measure 95
1000
0001
0000
0020
0000
0000
0130
0000
1000
0001
0000
0200
0000
0000
0310
0000
,  // measure 96
1000
0001
0000
0010
0100
0000
1000
0000
0001
0000
0100
0000
0010
0000
1000
0001
,  // measure 97
2002
0000
0000
0000
,  // measure 98
0000
0000
0000
0000
0000
0000
0000
3003
;

//---------------dance-single - Hard----------------
#NOTES:
     dance-single:
     Ace Of Hearts (2011):
     Hard:
     9:
     0.442,0.000,0.103,0.698,0.149: // measure 1
0000
0000
0000
0000
,  // measure 2
0000
0000
0000
0000
,  // measure 3
0000
0000
0000
0000
,  // measure 4
0000
0000
0000
0000
,  // measure 5
1000
0010
0000
0100
0000
0100
0000
0001
1000
0000
0002
0000
0000
0000
0013
0000
,  // measure 6
0100
1000
0000
0001
0000
0001
0000
0100
0010
0000
2000
0000
0000
0000
3001
0000
,  // measure 7
0100
0010
0000
1000
0000
1000
0000
0001
0010
0000
0200
0000
0000
0000
0310
0000
,  // measure 8
0004
4000
0000
0000
0000
0000
0000
0000
0000
0000
0000
0000
0000
0000
0000
0000
,  // measure 9
3003
0000
1000
0000
0020
0000
0130
0002
,  // measure 10
0000
0003
0000
0000
0000
0000
1000
0100
,  // measure 11
0020
0000
0030
0001
0010
0100
1000
0002
,  // measure 12
0000
0100
0000
2003
0000
0000
3000
0000
,  // measure 13
0020
0000
0130
0001
2000
0000
3001
0200
,  // measure 14
0000
0320
0000
0030
0000
0000
0000
0000
,  // measure 15
0200
0000
0000
0301
0000
0000
1000
0000
0200
0000
0000
0310
0000
0000
0100
0000
,  // measure 16
1000
0001
0000
0200
0000
0310
0010
1000
,  // measure 17
0001
0000
0000
0010
0000
0000
0100
0000
4000
0000
0000
0000
3000
0000
0000
0000
,  // measure 18
0020
0000
0000
1030
0000
0000
0001
0000
0200
0000
0000
0000
0300
0000
0010
0000
,  // measure 19
2000
0000
3000
0001
0010
0001
1000
0200
,  // measure 20
0000
0310
0002
0000
0023
0000
0230
1300
,  // measure 21
0002
0000
0000
0103
0000
0000
0010
0000
0400
0000
0000
0000
0300
0000
0001
0000
,  // measure 22
2000
0000
0000
3100
0000
0000
0010
0000
0002
0000
0000
0000
0003
0000
1000
0000
,  // measure 23
0020
0000
0130
0010
1000
0001
0010
0100
,  // measure 24
1100
0000
1001
0001
0100
0010
1000
0002
,  // measure 25
0000
0000
0000
0040
0000
0000
0003
0030
,  // measure 26
0000
0000
0002
1003
,  // measure 27
1020
0000
0000
0230
0000
0301
0000
2002
,  // measure 28
0000
3003
0000
1000
0100
0010
0100
2000
,  // measure 29
0000
0000
0000
0004
0000
0000
3000
0003
,  // measure 30
0000
0000
2000
3100
,  // measure 31
0120
0000
0000
0032
0000
1003
0000
2200
,  // measure 32
0000
3300
0000
1000
0001
0100
0001
1001
,  // measure 33
0000
0000
1000
0000
0200
0000
0310
0002
,  // measure 34
0000
0103
0000
0000
0000
0000
0010
1000
,  // measure 35
0001
0000
0000
1000
0010
0100
0001
2000
,  // measure 36
0000
0010
0000
3002
0000
0000
0003
0000
,  // measure 37
0020
0000
0130
1000
0002
0000
1003
0200
,  // measure 38
0000
0310
0000
0000
0000
0000
0000
0001
,  // measure 39
2000
0000
0000
3010
0000
0000
0100
0000
0002
0000
0000
1003
0000
0000
0100
0000
,  // measure 40
0010
0001
0000
2000
0000
3010
0010
0000
,  // measure 41
0200
0000
0000
0301
0000
0000
1000
0000
0002
0000
0000
0000
0003
0000
0010
0000
,  // measure 42
0001
0000
0000
0010
0000
0000
0100
0000
2000
0000
0000
0000
3000
0000
0001
0000
,  // measure 43
0100
0001
0000
1000
0100
0010
0100
2000
,  // measure 44
0000
3001
0200
0000
0320
0000
2030
3001
,  // measure 45
0020
0000
0000
0130
0000
0000
1000
0000
0004
0000
0000
0000
0003
0000
1000
0000
,  // measure 46
0020
0000
0000
0130
0000
0000
0001
0000
2000
0000
0000
0000
3000
0000
0001
0000
,  // measure 47
0010
0000
0001
1000
0010
0100
0001
2002
,  // measure 48
0000
3003
0000
0001
0100
0010
1000
0002
,  // measure 49
0000
0000
0000
0043
0000
0130
1000
0002
,  // measure 50
0000
0003
2000
3010
,  // measure 51
0210
0000
0000
0302
0000
1003
0000
2200
,  // measure 52
0000
0000
3300
0100
0010
0001
1000
0200
,  // measure 53
0000
0000
0000
0340
0000
0031
1000
0002
,  // measure 54
0000
0003
2000
3100
,  // measure 55
0120
0000
0000
0032
0000
1003
0000
1400
,  // measure 56
0000
0300
0000
0000
0010
0200
0000
0010
,  // measure 57
0000
0001
0000
1000
0000
0001
0000
0320
,  // measure 58
0000
0031
0000
0010
0100
2000
3000
2002
,  // measure 59
0000
3003
0000
0001
0100
0010
0000
0200
,  // measure 60
0000
0300
0000
0001
1000
0100
0010
0200
,  // measure 61
0000
0000
0000
4300
0000
3001
0010
0200
,  // measure 62
0000
0000
0000
0000
0310
0000
0001
0000
1000
0000
0010
0000
1000
0000
0001
0010
,  // measure 63
0200
0000
0000
1300
0001
0100
0010
2000
,  // measure 64
0000
0000
0000
0000
3000
0000
0001
0000
0020
0000
0000
0130
0000
0000
1000
0000
,  // measure 65
0004
0000
0000
0000
0000
0000
1003
0000
0020
0000
0000
0130
0000
0000
0001
0000
,  // measure 66
4000
0000
0000
3000
,  // measure 67
0002
0000
0023
0230
,  // measure 68
2300
0000
0000
0000
3002
0000
0000
0203
0000
0000
0000
0000
0000
0000
0300
0000
,  // measure 69
0000
0020
0000
0000
0000
0000
0000
0000
0000
0000
0000
0000
0000
0000
0000
0000
,  // measure 70
0230
0000
0000
0000
0000
0000
0000
0000
0301
0000
0000
1001
0000
1100
0000
0100
,  // measure 71
0020
0000
0000
0030
,  // measure 72
0002
0000
0000
0000
0000
0000
0000
0000
2003
0000
0000
0000
0000
0000
3001
0100
,  // measure 73
0002
0000
0000
0000
0000
0000
1003
0100
0010
0000
0001
0000
1000
0000
0020
0000
,  // measure 74
0000
0000
0230
0000
0000
0000
0000
0000
0000
0000
0000
0000
0300
0000
0001
0100
,  // measure 75
0001
0000
1000
0000
0001
0010
0000
0100
0000
0010
0000
0001
1000
0000
0001
0000
,  // measure 76
1000
0000
0001
0100
0001
0000
1000
0000
0100
0000
0010
0000
0001
0000
1000
0000
,  // measure 77
0020
0000
0000
0000
0000
0000
0000
0000
0230
0000
0000
0302
0000
0000
1003
0000
,  // measure 78
0020
0000
0000
1030
0001
0010
0100
2000
,  // measure 79
0000
0000
0000
3004
0000
0103
0010
0200
,  // measure 80
0000
0300
0020
1030
,  // measure 81
1002
0000
0000
0203
0000
0310
0000
2020
,  // measure 82
0000
3030
0000
1000
0001
0010
0100
0020
,  // measure 83
0000
0000
0000
0032
0000
1003
0010
0200
,  // measure 84
0000
0300
0020
1030
,  // measure 85
1002
0000
0000
0023
0000
0130
0000
4100
,  // measure 86
0000
3000
0000
0000
0001
0200
0000
0010
,  // measure 87
0000
1000
0000
0001
0000
1000
0000
0320
,  // measure 88
0000
1030
0000
0001
1000
0100
0000
0020
,  // measure 89
0000
0030
0000
0100
1000
0001
0000
0200
,  // measure 90
0000
0300
0000
0010
1000
0001
0010
0200
,  // measure 91
0000
0000
0000
4300
0000
3001
0010
0002
,  // measure 92
0000
0000
0000
0000
1003
0000
0010
0000
0100
0000
0010
0000
1000
0000
0001
0010
,  // measure 93
0001
0010
0000
0200
0000
0000
1300
0000
0001
0100
0000
0020
0000
0000
0130
0000
,  // measure 94
0001
1000
0000
0000
0001
0000
0010
0000
0200
0000
0000
2300
0000
0000
3001
0000
,  // measure 95
0010
0100
0000
2000
0000
0000
3001
0000
1000
0100
0000
0020
0000
0000
0130
0000
,  // measure 96
0010
0001
0000
0000
1000
0000
0010
0000
0100
0000
0001
0000
1000
0000
0010
2000
,  // measure 97
0002
0000
0000
0000
,  // measure 98
0000
0000
0000
0000
0000
0000
0000
3003
;

//---------------dance-single - Medium----------------
#NOTES:
     dance-single:
     Ace Of Hearts (2011):
     Medium:
     7:
     0.326,0.000,0.000,0.493,0.057:
0000
0000
0000
0000
,
0000
0000
0000
0000
,
0000
0000
0000
0000
,
0000
0000
0000
0000
,
0001
0000
0001
0000
1000
1000
0000
0000
,
0010
0000
0010
0000
0100
0100
0000
0000
,
0001
0000
0001
0000
0100
0100
0000
0000
,
0040
0000
0000
0000
,
0030
0000
1000
0000
0020
0000
1030
0002
,
0000
0003
0000
0000
0000
0000
1000
0100
,
1000
0000
0000
0001
0010
0100
0010
0002
,
0000
0003
0000
0000
,
0000
0000
1000
0001
2000
0000
3001
0200
,
0000
0300
0000
0000
0000
0000
0000
0000
,
0001
0000
0000
0010
0000
0000
0001
0000
1000
0000
0000
0100
0000
0000
1000
0000
,
0002
0000
0003
0000
0000
0000
0000
1000
,
0100
0000
0000
0020
0000
0000
0130
0000
2000
0000
0000
0000
3000
0000
0000
0000
,
0002
0000
0000
0013
0000
0000
0100
0000
2000
0000
0000
0000
3000
0000
0001
0000
,
0020
0000
0030
0001
1000
0001
1000
0200
,
0000
0300
0000
0000
0000
0000
0000
1000
,
0001
0000
0000
0100
0000
0000
0001
0000
2000
0000
0000
0000
3000
0000
0001
0000
,
0200
0000
0000
0301
0000
0000
1000
0000
0002
0000
0000
0000
0003
0000
1000
0000
,
0200
0000
0310
0001
0010
0001
1000
0001
,
0000
0000
0000
1000
0010
1000
0001
2000
,
0000
0000
0000
3000
0000
0000
0000
0000
,
0000
0000
0002
1003
,
0020
0000
0000
2030
0000
3001
0000
0100
,
0000
0000
0000
0001
0100
0001
0100
0020
,
0000
0000
0000
0030
0000
0000
0000
0000
,
0000
0000
2000
3010
,
0200
0000
0000
0320
0000
1030
0000
0001
,
0000
0000
0000
0010
0001
0010
0100
1000
,
0000
0000
0001
0000
2000
0000
3001
0020
,
0000
0130
0000
0000
0000
0000
0010
0001
,
0010
0000
0000
0001
1000
0001
0100
0020
,
0000
0030
0000
0000
0000
0000
0000
0000
,
0000
0000
1000
0001
2000
0000
3001
0200
,
0000
0310
0000
0000
0000
0000
0000
1000
,
0010
0000
0000
0010
0000
0000
0010
0000
1000
0000
0000
1000
0000
0000
1000
0000
,
0002
0003
0000
0000
,
1000
0000
0000
0100
0000
0000
0010
0000
0002
0000
0000
0000
0003
0000
1000
0000
,
0001
0000
0000
0010
0000
0000
0100
0000
2000
0000
0000
0000
3000
0000
0001
0000
,
0100
0001
0000
1000
0010
1000
0010
0200
,
0000
0300
0000
0000
0000
0000
0000
0010
,
2000
0000
0000
3010
0000
0000
1000
0000
0002
0000
0000
0000
0003
0000
1000
0000
,
0002
0000
0000
1003
0000
0000
0001
0000
0200
0000
0000
0000
0300
0000
0001
0000
,
1000
0000
0001
0010
0100
0010
0001
1000
,
0000
0000
0000
0001
0010
0001
0010
0200
,
0000
0000
0000
0300
0000
1000
0001
1000
,
0000
0000
0020
1030
,
0002
0000
0000
2003
0000
3100
0000
0010
,
0000
0000
0000
0001
1000
0001
1000
0020
,
0000
0000
0000
0030
0000
0100
0001
0100
,
0000
0000
0020
1030
,
0002
0000
0000
0023
0000
0130
0000
1000
,
0000
0000
0000
0000
0001
0200
0000
0310
,
0000
0010
0000
1000
0000
1000
0000
0002
,
0000
0103
0000
0010
1000
0010
0000
0200
,
0000
0300
0000
0001
0100
0001
0000
2000
,
0000
3000
0000
0010
1000
0010
1000
0002
,
0000
0000
0000
0003
0000
1000
0001
1000
,
0000
0000
0010
1000
0010
1000
0001
0020
,
0000
0000
0000
0000
0000
0030
0000
0000
,
0000
0000
0000
0000
0000
0000
0001
0000
2000
0000
0000
3010
0000
0000
0100
0000
,
0002
0000
0000
0000
,
0003
0000
0000
0000
,
2000
0000
3002
0203
,
0302
0000
0000
0000
2003
0000
0000
3200
0000
0000
0000
0000
0000
0000
0300
0000
,
0000
0020
0000
0000
0000
0000
0000
0000
0000
0000
0000
0000
0000
0000
0000
0000
,
0032
0000
0000
0000
0000
0000
0000
0000
1003
0000
0000
0010
0000
0010
0000
1000
,
0002
0000
0000
0003
,
2000
0000
0000
0000
3200
0000
0000
1300
,
0002
0000
0000
1003
0010
1000
0001
0020
,
0000
0230
0000
0000
0000
0000
0300
0010
,
0001
1000
0001
1000
0001
0000
0100
0000
,
0004
4000
0000
0000
0000
0000
0000
0000
0000
0000
0000
0000
3003
0000
0000
0000
,
0002
0000
0000
0000
0000
0000
0000
0000
2003
0000
0000
3020
0000
0000
1030
0000
,
0002
0000
0000
1003
0010
1000
0010
0200
,
0000
0000
0000
0300
0000
0001
1000
0001
,
0000
0000
2000
3010
,
2000
0000
0000
3002
0000
0103
0000
0010
,
0000
0000
0000
1000
0001
0100
0001
2000
,
0000
0000
0000
3000
0000
0010
1000
0010
,
0000
0000
2000
3002
,
0023
0000
0000
0230
0000
1300
0000
0001
,
0000
0000
0000
0000
1000
0020
0000
1030
,
0000
1000
0000
0001
0000
0001
0000
0020
,
0000
0130
0000
1000
0001
1000
0000
0020
,
0000
0030
0000
1000
0010
1000
0000
0002
,
0000
0003
0000
1000
0100
1000
0001
2000
,
0000
0000
0000
3000
0000
0001
0100
0001
,
0000
0000
1000
0001
0010
0001
1000
0002
,
0000
0000
0000
0003
,
0000
0000
0000
0000
1000
0000
0100
0000
2000
0000
0000
3002
0000
0000
0013
0000
,
0200
0000
0000
0300
,
0000
0000
1000
0001
1000
0010
2000
0002
,
0000
0000
0000
0000
,
0000
0000
0000
0000
0000
0000
0000
3003
;

//---------------dance-single - Easy----------------
#NOTES:
     dance-single:
     Ace Of Hearts (2011):
     Easy:
     5:
     0.185,0.000,0.000,0.200,0.000: // measure 1
0000
0000
0000
0000
,  // measure 2
0000
0000
0000
0000
,  // measure 3
0000
0000
0000
0000
,  // measure 4
0000
0000
0000
0000
,  // measure 5
1000
1000
1000
0000
,  // measure 6
0010
0010
0010
0000
,  // measure 7
0100
0100
0100
0000
,  // measure 8
0002
0000
0000
0000
,  // measure 9
0003
0000
1000
0000
1000
0000
0000
1000
,  // measure 10
0000
0000
0000
0010
,  // measure 11
0010
0000
0000
0000
0010
0000
0000
0010
,  // measure 12
0000
0000
0000
0000
,  // measure 13
0000
0000
0100
0000
0100
0000
0000
0100
,  // measure 14
0000
0000
0000
0000
,  // measure 15
0001
0001
0001
1000
,  // measure 16
1000
0000
0000
0000
,  // measure 17
0010
0010
0010
0000
,  // measure 18
0100
0100
0100
0000
,  // measure 19
0001
0000
1000
1000
,  // measure 20
1000
0000
0000
0000
,  // measure 21
0100
0100
0100
0000
,  // measure 22
0010
0010
0010
0000
,  // measure 23
0001
0001
1000
1000
,  // measure 24
1000
0000
0010
0010
,  // measure 25
0020
0000
0000
0030
0000
0000
0000
0000
,  // measure 26
0000
0000
1000
1000
,  // measure 27
2000
0000
0000
3001
0000
0001
0000
0001
,  // measure 28
0000
0000
0010
0010
,  // measure 29
0020
0000
0000
0030
0000
0000
0000
0000
,  // measure 30
0000
0000
0001
0001
,  // measure 31
0002
0000
0000
1003
0000
1000
0000
1000
,  // measure 32
0000
0000
0000
0000
0020
0000
0000
0030
,  // measure 33
0000
0000
1000
0000
1000
0000
0000
1000
,  // measure 34
0000
0000
0000
0001
,  // measure 35
0001
0000
0010
0010
,  // measure 36
0010
0000
0000
0000
,  // measure 37
0000
0000
0001
0000
0001
0000
0000
0001
,  // measure 38
0000
0000
0000
0000
,  // measure 39
1000
1000
1000
0010
,  // measure 40
0010
0000
0000
0000
,  // measure 41
0100
0100
0100
0000
,  // measure 42
0001
0001
0001
0000
,  // measure 43
1000
0000
0100
0100
,  // measure 44
0100
0000
0000
0000
,  // measure 45
0010
0010
0010
0000
,  // measure 46
0001
0001
0001
0000
,  // measure 47
1000
1000
0010
0010
,  // measure 48
0010
0000
1000
1000
,  // measure 49
2000
0000
0000
3000
0000
0000
0000
0000
,  // measure 50
0000
0000
0100
0100
,  // measure 51
0200
0000
0000
0310
0000
0010
0000
0010
,  // measure 52
0000
0000
0001
0001
,  // measure 53
0002
0000
0000
0003
0000
0000
0000
0000
,  // measure 54
0000
0000
0010
0010
,  // measure 55
0020
0000
0000
0130
0000
0100
0000
0100
,  // measure 56
0000
0000
0000
0000
1000
0000
0000
0001
,  // measure 57
0000
0001
0000
0010
0000
0010
0000
0020
,  // measure 58
0000
0030
0000
0000
0001
0000
0000
0001
,  // measure 59
0000
0000
0000
0000
1000
0000
0000
1000
,  // measure 60
0000
0000
0010
0010
,  // measure 61
0020
0000
0000
0030
0000
0000
0000
0000
,  // measure 62
0000
0000
1000
0000
1000
0000
0000
2000
,  // measure 63
0000
0000
0000
0000
0000
3000
0000
0000
,  // measure 64
0000
0000
0001
0001
,  // measure 65
0002
0000
0000
0000
,  // measure 66
0003
0000
0000
0000
,  // measure 67
2000
0000
3002
0000
,  // measure 68
0023
0000
0230
0000
,  // measure 69
0320
0000
0000
0000
,  // measure 70
0032
0000
2003
0000
,  // measure 71
3020
0000
0000
0000
,  // measure 72
2030
0000
3002
0000
,  // measure 73
0023
0000
0130
0100
,  // measure 74
0200
0000
0300
0000
,  // measure 75
1000
1000
1000
0000
,  // measure 76
0004
0000
0000
0000
,  // measure 77
0003
0000
0010
0010
,  // measure 78
0020
0000
0031
0001
,  // measure 79
0002
0000
0000
0003
0000
0000
0000
0000
,  // measure 80
0000
0000
1000
1000
,  // measure 81
2000
0000
0000
3010
0000
0010
0000
0010
,  // measure 82
0000
0000
1000
1000
,  // measure 83
2000
0000
0000
3000
0000
0000
0000
0000
,  // measure 84
0000
0000
0001
0001
,  // measure 85
0002
0000
0000
0103
0000
0100
0000
0100
,  // measure 86
0000
0000
0000
0000
0010
0000
0000
1000
,  // measure 87
0000
1000
0000
0001
0000
0001
0000
0002
,  // measure 88
0000
0003
0000
0000
1000
0000
0000
1000
,  // measure 89
0000
0000
0000
0000
0100
0000
0000
0100
,  // measure 90
0000
0000
1000
1000
,  // measure 91
2000
0000
0000
3000
0000
0000
0000
0000
,  // measure 92
0000
0000
0001
0000
0001
0000
0000
0002
,  // measure 93
0000
0000
0000
0003
,  // measure 94
0000
0010
0010
0001
,  // measure 95
0002
0000
0000
0003
,  // measure 96
0000
1000
2000
0001
,  // measure 97
0002
0000
0000
0000
,  // measure 98
0000
0000
0000
0000
0000
0000
0000
3003
;

//---------------dance-single - Novice----------------
#NOTES:
     dance-single:
     Ace Of Hearts (2011):
     Beginner:
     2:
     0.107,0.000,0.000,0.206,0.000: // measure 1
0000
0000
0000
0000
,  // measure 2
0000
0000
0000
0000
,  // measure 3
0000
0000
0000
0000
,  // measure 4
0000
0000
0000
0000
,  // measure 5
0001
0000
0000
0000
,  // measure 6
0001
0000
0000
0000
,  // measure 7
0010
0000
0000
0000
,  // measure 8
0020
0000
0030
0000
,  // measure 9
0000
0000
0001
0000
,  // measure 10
0001
0000
0000
0000
,  // measure 11
1000
0000
1000
0000
,  // measure 12
1000
0000
0000
0000
,  // measure 13
0000
0000
0010
0000
,  // measure 14
0010
0000
0000
0000
,  // measure 15
0100
0000
0100
0000
,  // measure 16
0100
0000
0000
0000
,  // measure 17
0001
0000
0000
0000
,  // measure 18
0001
0000
0000
0000
,  // measure 19
0002
0000
0000
0000
,  // measure 20
0003
0000
0000
0000
,  // measure 21
0100
0000
0000
0000
,  // measure 22
0100
0000
0000
0000
,  // measure 23
0200
0000
0000
0000
,  // measure 24
0300
0000
0010
0000
,  // measure 25
0020
0000
0030
0000
,  // measure 26
0000
0000
1000
0000
,  // measure 27
2000
0000
0000
0000
,  // measure 28
3000
0000
0001
0000
,  // measure 29
0002
0000
0003
0000
,  // measure 30
0000
0000
0010
0000
,  // measure 31
0020
0000
0000
0000
,  // measure 32
0030
0000
0002
0000
,  // measure 33
0003
0000
1000
0000
,  // measure 34
1000
0000
0000
0000
,  // measure 35
0100
0000
0100
0000
,  // measure 36
0100
0000
0000
0000
,  // measure 37
0000
0000
0010
0000
,  // measure 38
0010
0000
0000
0000
,  // measure 39
0001
0000
0001
0000
,  // measure 40
0001
0000
0000
0000
,  // measure 41
2000
0000
3000
0000
,  // measure 42
0002
0000
0003
0000
,  // measure 43
0100
0000
0100
0000
,  // measure 44
0100
0000
0000
0000
,  // measure 45
0002
0000
0003
0000
,  // measure 46
2000
0000
3000
0000
,  // measure 47
0010
0000
0010
0000
,  // measure 48
0010
0000
1000
0000
,  // measure 49
2000
0000
3000
0000
,  // measure 50
0000
0000
0001
0000
,  // measure 51
0002
0000
0000
0000
,  // measure 52
0003
0000
1000
0000
,  // measure 53
2000
0000
3000
0000
,  // measure 54
0000
0000
0100
0000
,  // measure 55
0200
0000
0000
0000
,  // measure 56
0300
0000
0010
0000
,  // measure 57
0020
0000
0000
0000
,  // measure 58
0030
0000
0100
0000
,  // measure 59
0200
0000
0000
0000
,  // measure 60
0300
0000
1000
0000
,  // measure 61
2000
0000
3000
0000
,  // measure 62
0000
0000
0001
0000
,  // measure 63
0002
0000
0000
0000
,  // measure 64
0003
0000
0100
0000
,  // measure 65
0200
0000
0000
0000
,  // measure 66
0300
0000
0000
0000
,  // measure 67
0020
0000
0030
0000
,  // measure 68
2000
0000
3000
0000
,  // measure 69
0020
0000
0030
0000
,  // measure 70
0200
0000
0300
0000
,  // measure 71
0002
0000
0003
0000
,  // measure 72
1000
0000
1000
0000
,  // measure 73
1000
0000
2000
0000
,  // measure 74
3000
0000
0000
0000
,  // measure 75
0010
0000
0010
0000
,  // measure 76
4000
0000
0000
0000
,  // measure 77
3000
0000
0010
0000
,  // measure 78
0010
0000
1000
0000
,  // measure 79
2000
0000
3000
0000
,  // measure 80
0000
0000
0001
0000
,  // measure 81
0002
0000
0000
0000
,  // measure 82
0003
0000
0010
0000
,  // measure 83
0020
0000
0030
0000
,  // measure 84
0000
0000
0100
0000
,  // measure 85
0200
0000
0000
0000
,  // measure 86
0300
0000
1000
0000
,  // measure 87
2000
0000
0000
0000
,  // measure 88
3000
0000
0001
0000
,  // measure 89
0002
0000
0000
0000
,  // measure 90
0003
0000
0100
0000
,  // measure 91
0200
0000
0300
0000
,  // measure 92
0000
0000
0001
0000
,  // measure 93
0002
0000
0000
0003
,  // measure 94
0000
0000
0100
0000
,  // measure 95
0200
0000
0000
0300
,  // measure 96
0000
0000
0002
0000
,  // measure 97
2000
0000
0000
0000
,  // measure 98
0000
0000
0000
0000
0000
0000
0000
3003
;
