#TITLE:Sweet Dream;
#SUBTITLE:;
#ARTIST:Lin-G;
#TITLETRANSLIT:;
#SUBTITLETRANSLIT:;
#ARTISTTRANSLIT:;
#GENRE:House;
#CREDIT:Ace Of Hearts;
#BANNER:Sweet Dream - bn.png;
#BACKGROUND:Sweet Dream - bg.png;
#LYRICSPATH:;
#CDTITLE:Ace Of Hearts.png;
#MUSIC:Sweet Dream.ogg;
#OFFSET:1.440;
#SAMPLESTART:34.500;
#SAMPLELENGTH:12.000;
#SELECTABLE:YES;
#BPMS:0.000=140.000,148.000=70.000,164.000=140.000;
#STOPS:;
#BGCHANGES:3.500=Sweet Dream Music Video.avi=1.000=1=0=0=StretchNoLoop==CrossFade==,
99999=-nosongbg-=1.000=0=0=0 // don't automatically add -songbackground-
;
#KEYSOUNDS:;

//---------------dance-single - Hard----------------
#NOTES:
     dance-single:
     Ace Of Hearts (2011):
     Hard:
     8:
     0.522,0.000,0.294,0.705,0.103: // measure 1
0000
0000
0000
0000
,  // measure 2
0000
0000
0000
0000
,  // measure 3
0000
0000
0000
0000
,  // measure 4
0000
0000
0000
0000
,  // measure 5
0000
0000
0000
0000
,  // measure 6
0000
0001
0010
0200
0000
2300
0000
3000
,  // measure 7
0000
0001
1000
0020
0000
0230
0000
0300
,  // measure 8
0000
0001
1000
0020
0000
1030
0001
0020
,  // measure 9
0000
0000
0000
0200
0000
0000
0330
0000
,  // measure 10
0000
0000
0010
0000
0001
0000
1000
0100
0000
0000
0020
0000
0000
0000
0030
0000
,  // measure 11
0000
0100
1000
0002
0000
1003
0100
0010
,  // measure 12
0000
0100
0010
0001
0000
0010
0100
2000
,  // measure 13
0000
3001
0010
0001
1000
0010
0110
0000
,  // measure 14
0100
0001
1000
0200
0000
0310
0001
2000
,  // measure 15
0000
3010
0100
0002
0000
1003
1000
0000
,  // measure 16
0000
0000
0001
0000
1000
0100
2000
0000
0000
0000
3002
0000
0000
0000
0003
0000
,  // measure 17
0000
0000
1000
0000
0001
0010
0002
0000
0000
0000
1003
0000
0200
0000
0000
0000
,  // measure 18
0310
0100
1000
0002
0000
1003
0010
0200
,  // measure 19
0000
0310
1000
0002
0000
0200
0000
0000
,  // measure 20
0000
0000
0000
0000
0000
0003
0000
0020
,  // measure 21
0000
0000
0000
0330
,  // measure 22
1010
0000
1000
0000
1002
0000
0013
0100
,  // measure 23
0000
1000
0000
1002
0000
0013
0010
0001
,  // measure 24
1001
0000
1000
0000
1020
0000
0130
0002
,  // measure 25
0000
2003
0000
3200
0000
0310
0100
1000
,  // measure 26
1001
0000
0001
0000
0201
0000
0310
1000
,  // measure 27
0000
0001
0100
0010
0000
1000
0000
2200
,  // measure 28
0000
0300
0000
0002
0000
0003
0000
0200
,  // measure 29
3000
0310
0010
0100
1000
1000
0001
0001
,  // measure 30
0101
0000
0100
0000
0120
0000
1030
0001
,  // measure 31
0000
0010
0000
0210
0000
1300
1000
0000
,  // measure 32
1001
0000
0001
0000
0201
0000
0310
1000
,  // measure 33
0000
0001
0000
0201
0000
0310
1000
0001
,  // measure 34
0101
0000
0100
0000
0120
0000
1030
0001
,  // measure 35
0000
0010
0100
0010
0000
0001
0000
0202
,  // measure 36
0000
0300
0000
2000
0000
3000
0000
0200
,  // measure 37
0003
0310
0010
1000
1000
0001
0001
1000
,  // measure 38
0001
0010
0001
0020
0000
0130
1000
0200
0000
0310
0001
0020
0000
0000
0000
0000
,  // measure 39
0000
0030
0000
0000
,  // measure 40
0001
1000
0001
2000
0000
3010
0100
0020
0000
0130
0001
2000
0000
3002
0000
0000
,  // measure 41
1003
0000
1000
0000
1000
0000
1000
0000
0001
0100
0001
0100
0010
0000
1000
0000
,  // measure 42
0001
0000
0100
0000
0020
0000
1030
0001
,  // measure 43
0000
0000
0010
0000
0000
0000
0100
0000
4000
0004
0000
0000
0000
0000
3003
0000
,  // measure 44
1000
0000
0001
0000
0200
0000
0310
2000
,  // measure 45
0000
3020
0000
0230
0000
0301
1000
0001
,  // measure 46
0011
0000
0010
0000
0210
0000
1300
0001
,  // measure 47
0000
1000
0010
1000
0000
0001
0000
0022
,  // measure 48
0000
0003
0000
0200
0000
0300
0000
0002
,  // measure 49
0030
0000
1003
0000
0010
0000
1000
0000
0001
0010
0001
0000
1000
0000
0001
0010
,  // measure 50
0001
0000
1000
0000
1020
0000
0130
0001
,  // measure 51
0000
1000
0000
1200
0000
0310
0010
0000
,  // measure 52
0011
0000
0001
0000
2001
0000
3010
0200
,  // measure 53
0000
0301
0000
2001
0000
3100
0010
0001
,  // measure 54
2001
0000
3010
0000
0210
0000
0301
1000
,  // measure 55
0000
0100
1000
0001
0000
1000
0000
2002
,  // measure 56
0000
0003
0000
0020
0000
0030
0000
0002
,  // measure 57
3000
0103
0100
0010
0010
1000
1000
0001
,  // measure 58
0000
0010
0001
1000
0000
0001
0000
2002
,  // measure 59
0003
3010
0100
0001
1000
0100
0010
0001
;

//---------------dance-single - Expert----------------
#NOTES:
     dance-single:
     Ace Of Hearts (2011):
     Challenge:
     10:
     0.873,0.000,0.255,0.411,0.808: // measure 1
0000
0000
0000
0000
,  // measure 2
0000
0000
0000
0000
,  // measure 3
0000
0000
0000
0000
,  // measure 4
0000
0000
0000
0000
,  // measure 5
0000
0000
0000
0000
,  // measure 6
1000
0001
0100
0020
0000
0130
0001
0000
,  // measure 7
1001
1000
0100
0020
0000
0130
1000
0000
,  // measure 8
1001
0001
0100
0020
0000
1030
0001
0020
,  // measure 9
0000
0000
0000
0000
0000
0000
0031
0000
0000
0010
0000
0000
0100
0000
0000
0000
0000
0000
2000
0000
0000
0000
0000
0000
0000
0000
0000
0000
0000
0000
3001
0000
0000
0000
0000
0000
0010
0000
0001
0000
0010
0000
0001
0000
0000
1000
0000
0000
,  // measure 10
0001
0000
1000
0000
0010
0000
0100
0001
0000
0000
2000
0000
3100
0000
0010
0000
,  // measure 11
0011
0001
1000
0200
0000
0310
0001
0201
,  // measure 12
0000
0310
1000
1200
0000
0310
0001
0201
,  // measure 13
0000
0000
0310
0000
1010
0000
1000
0000
0001
0010
0100
0000
1100
0000
1000
0100
,  // measure 14
0010
0001
1000
0020
0000
0130
0001
2000
,  // measure 15
0000
0000
3001
0000
0010
0000
0100
0000
1000
0100
0010
0000
0011
0000
0001
0000
,  // measure 16
1000
0000
0010
0000
0100
0001
2000
0000
0000
0000
3100
0000
0010
0100
1000
0000
,  // measure 17
1001
0000
0001
0000
1000
0010
0200
0000
0000
0000
0301
0000
1000
0100
0010
0000
,  // measure 18
0011
0001
1000
1020
0000
0130
0001
2001
,  // measure 19
0000
0000
3100
0000
0110
0000
0010
0000
0001
1000
0010
0000
0010
0100
0001
0000
,  // measure 20
0010
0001
1000
0000
1010
0000
0010
0100
0001
0100
0010
0000
1000
0000
2002
0000
,  // measure 21
0000
0000
0000
0000
0000
0000
0000
0000
0000
0000
0000
0000
0000
0000
0000
0003
0004
0000
0000
0000
0000
0000
0000
0000
3000
0000
0000
0000
0000
0000
0000
0000
1003
0000
0000
0000
0010
0000
0000
0000
0100
0000
0000
0000
0000
0000
0000
0000
0010
0000
0000
0000
1000
0000
0000
0000
0010
0000
0000
0000
1000
0000
0000
0000
,  // measure 22
0001
0010
0001
0000
1000
0000
0010
0100
0001
1000
0100
0000
0010
0000
0011
0000
,  // measure 23
0000
0000
0001
0000
1000
0000
0200
0000
0310
0100
1000
0000
1001
0000
0001
0100
,  // measure 24
0020
0000
1030
0001
0100
0000
0010
1000
0001
0010
0001
0000
1000
0000
1020
0000
,  // measure 25
0000
0000
1030
0001
0010
0000
0110
0000
0100
1000
0100
1000
0001
0100
0001
0100
,  // measure 26
0010
1000
0010
0000
0100
0000
0001
1000
0100
0010
0001
0000
1000
0000
0010
0100
,  // measure 27
0001
0000
0100
0000
0010
0000
1000
0001
0010
0001
1000
0000
0010
0000
0100
0001
,  // measure 28
0200
0010
0001
0320
1000
0100
1000
0230
,  // measure 29
0001
0000
0010
0000
1000
0000
0310
0000
1000
0001
0010
0000
0100
1000
0100
1000
,  // measure 30
0001
0100
0001
0000
1000
0000
0010
1000
0001
0000
0010
0000
0100
0000
1000
0000
,  // measure 31
0001
0100
0010
0000
1000
0000
0001
0010
0100
0010
0001
0000
1000
0000
0001
0100
,  // measure 32
0010
0100
0001
0000
1000
0000
0010
1000
0001
0000
0010
0000
0100
1000
0001
1000
,  // measure 33
0100
0000
0010
0001
0010
0000
0100
1000
0001
0010
0001
0010
0100
1000
0100
1000
,  // measure 34
0001
0100
0001
0000
1000
0000
0100
0010
0100
0000
1000
0000
0001
0000
0100
0010
,  // measure 35
1000
0000
0001
0000
0010
0000
0100
0000
1000
0001
0100
0000
0001
0000
1000
0100
,  // measure 36
0020
0100
0001
0230
1000
0001
1000
0320
,  // measure 37
0001
0000
0100
0000
0001
0000
0130
0000
1000
0001
0100
0000
0010
0100
0001
0100
,  // measure 38
0010
0000
1000
0000
0001
0000
0200
0000
0000
0000
0310
0000
1000
0000
0001
0000
0101
0000
0100
0000
0010
0000
2000
0000
0000
3000
1001
0000
0000
0000
0001
0010
,  // measure 39
0002
0000
0000
0000
0000
0000
0000
0000
0000
0000
0000
0000
1003
0010
1000
0000
1100
0000
0200
0000
0000
0000
0320
0000
0000
0000
0031
0000
0000
1000
0100
1000
,  // measure 40
0100
0000
0010
0000
0100
0000
2000
0000
0000
0000
3001
0000
0100
0000
0020
0000
0000
0000
0130
0000
0001
0000
1000
0000
0000
0000
0100
0000
0010
0001
0010
0000
,  // measure 41
0100
1000
0100
0000
0010
0001
0010
0001
4000
0400
0000
0000
0000
0000
0000
0000
0000
0000
0000
0000
0000
0000
0000
0000
0000
0000
0000
0000
0000
0000
3300
0000
,  // measure 42
0100
0010
0001
1000
0001
0100
0010
0100
0001
0000
1000
0000
0100
0000
0010
0000
,  // measure 43
0100
1000
0001
0100
0010
0100
0001
1000
0001
0010
0100
1000
0100
0010
0001
0000
,  // measure 44
1000
0100
0010
0001
0010
0100
1000
0001
0100
0010
0100
0001
1000
0001
0010
0100
,  // measure 45
0010
0001
1000
0001
0100
0010
0100
0001
1000
0010
1000
0010
0100
0001
0100
0001
,  // measure 46
1000
0100
0010
0000
0100
0000
1000
0001
0100
0000
0010
0000
0100
0000
0001
1000
,  // measure 47
0100
0000
0010
0001
1000
0001
0010
0100
1000
0000
0001
0100
0010
0000
1000
0000
,  // measure 48
0002
0010
0100
2003
0100
0001
0010
3002
,  // measure 49
0100
0000
1000
0000
0010
0000
1003
0000
0001
0100
0001
0000
0001
0000
0001
1000
,  // measure 50
0001
0100
0010
0000
1000
0000
0001
0010
0100
0000
0010
0000
0001
0000
0101
0000
,  // measure 51
0100
0000
0010
1000
0001
0000
0010
0001
1000
0010
0100
0010
1000
0001
0010
0100
,  // measure 52
1000
0001
0100
0000
0010
0000
0100
0001
1000
0000
0100
0000
0010
0000
0001
1000
,  // measure 53
0010
0000
1000
0001
0010
0100
0010
0000
0100
1000
0100
0010
0001
1000
0010
0100
,  // measure 54
0010
1000
0001
0000
0010
0000
0100
0010
0001
0000
1000
0000
0010
0000
0100
0001
,  // measure 55
1000
0000
0001
0010
0100
0000
0010
0000
0001
0000
1000
0010
0100
0000
0001
1000
,  // measure 56
0002
0100
0010
2003
0100
0001
0010
3002
,  // measure 57
0100
0000
1000
0000
0010
0000
1003
0000
0100
1000
0100
0000
0010
0000
0001
0010
,  // measure 58
0100
1000
0001
0101
0000
0010
1000
1002
,  // measure 59
0000
0000
0013
0000
0100
1000
0100
0000
1000
0001
1000
0001
0010
0100
0020
0001
,  // measure 60
0000
0000
0000
0030
0000
0000
0000
0000
;

//---------------dance-single - Medium----------------
#NOTES:
     dance-single:
     Ace Of Hearts (2011):
     Medium:
     6:
     0.343,0.000,0.020,0.519,0.034: // measure 1
0000
0000
0000
0000
,  // measure 2
0000
0000
0000
0000
,  // measure 3
0000
0000
0000
0000
,  // measure 4
0000
0000
0000
0000
,  // measure 5
0000
0000
0000
0000
,  // measure 6
0000
1000
0010
1000
0000
0002
0000
0003
,  // measure 7
0000
0010
0001
0010
0000
0200
0000
0300
,  // measure 8
0000
1000
0001
1000
0000
0001
0000
0020
,  // measure 9
0000
0000
0000
0200
0000
0000
0330
0000
,  // measure 10
0000
1000
0001
1000
0000
0020
0000
0030
,  // measure 11
0000
1000
0010
1000
0000
0001
0000
0001
,  // measure 12
0000
0010
0000
0010
0000
0001
1000
0002
,  // measure 13
0000
0000
1003
0010
1000
0000
0000
0000
,  // measure 14
0001
0000
1000
0200
0000
0000
1300
0002
,  // measure 15
0000
0000
1003
0200
0000
0000
0000
0000
,  // measure 16
0000
1300
0001
2000
0000
3020
0000
0030
,  // measure 17
0000
1000
0001
1000
0000
0001
0100
0000
,  // measure 18
0002
0000
1003
0020
0000
0000
0130
0002
,  // measure 19
0000
1003
0000
0010
0000
0200
0000
0000
,  // measure 20
0000
0000
0000
0000
0000
0000
0000
0002
,  // measure 21
0000
0000
0000
0303
,  // measure 22
0100
0000
0010
0000
2000
0000
3001
0010
,  // measure 23
0000
0001
0000
2000
0000
0000
3000
0000
,  // measure 24
0001
0000
0010
0000
0200
0000
0310
0001
,  // measure 25
0000
1000
0000
0010
0000
1000
0001
0000
,  // measure 26
0010
0000
0001
0000
2000
0000
3001
0010
,  // measure 27
0000
0001
1000
0001
0000
2000
0000
0200
,  // measure 28
0000
0000
0000
0000
,  // measure 29
3300
0000
0000
0000
,  // measure 30
1000
0000
0001
0000
0200
0000
0301
1000
,  // measure 31
0000
0001
0000
0020
0000
0030
0000
0000
,  // measure 32
0001
0000
1000
0000
0020
0000
1030
0001
,  // measure 33
0000
0100
0000
0002
0000
1003
0100
0000
,  // measure 34
0010
0000
0100
0000
2000
0000
3001
0100
,  // measure 35
0000
0001
1000
0001
0000
0200
0000
0020
,  // measure 36
0000
0000
0000
0000
,  // measure 37
0330
0000
0000
0000
,  // measure 38
2000
0000
0000
3002
0000
0000
0000
0023
0000
0000
0000
0230
0000
0000
0000
0000
,  // measure 39
0000
0000
0000
0300
0000
0000
0000
0000
,  // measure 40
0020
0000
0000
0032
0000
0000
0000
2003
0000
0000
0000
3001
0000
0200
0000
0000
,  // measure 41
0310
0010
0010
0000
1000
1000
1000
0000
,  // measure 42
0001
0000
0010
0000
0002
0000
1003
0010
,  // measure 43
0000
1000
0000
0002
0000
0000
0003
0000
,  // measure 44
2000
0000
3100
0000
0020
0000
0130
1000
,  // measure 45
0000
0001
0000
0100
0000
0010
0100
0000
,  // measure 46
0001
0000
1000
0000
0200
0000
0310
0001
,  // measure 47
0000
1000
0010
1000
0000
0001
0000
2001
,  // measure 48
0000
0000
0000
3020
0000
0000
0000
2030
,  // measure 49
0000
3001
0010
0000
0001
1000
0001
0000
,  // measure 50
1000
0000
0010
0000
0200
0000
0301
1000
,  // measure 51
0000
0001
0000
0200
0000
0000
0300
0000
,  // measure 52
0001
0000
1000
0000
0200
0000
0310
0001
,  // measure 53
0000
1000
0000
0010
0000
1000
0001
0000
,  // measure 54
0010
0000
0100
0000
2000
0000
3001
0100
,  // measure 55
0000
0001
0010
0001
0000
2000
0000
0200
,  // measure 56
0000
0000
0000
0000
,  // measure 57
3300
0000
0000
0000
0000
1000
0001
1000
,  // measure 58
0000
0001
0010
0001
0000
1000
0000
2002
,  // measure 59
0000
0000
0000
0000
0000
0000
0000
3003
;

//---------------dance-single - Easy----------------
#NOTES:
     dance-single:
     Ace Of Hearts (2011):
     Easy:
     4:
     0.222,0.000,0.049,0.186,0.000: // measure 1
0000
0000
0000
0000
,  // measure 2
0000
0000
0000
0000
,  // measure 3
0000
0000
0000
0000
,  // measure 4
0000
0000
0000
0000
,  // measure 5
0000
0000
0000
0000
,  // measure 6
0000
0001
0000
0001
0000
0001
0000
0000
,  // measure 7
0000
1000
0000
1000
0000
1000
0000
0000
,  // measure 8
0000
0010
0000
0010
0000
0000
0000
2002
,  // measure 9
0000
0000
0000
3003
0000
0000
0000
0000
,  // measure 10
0000
0001
0000
0001
0000
0000
0000
0000
,  // measure 11
0000
0010
0000
0010
0000
0001
0000
0001
,  // measure 12
0000
1000
0000
1000
0000
0010
0000
0020
,  // measure 13
0000
1030
1000
0000
,  // measure 14
0001
0001
0001
0100
,  // measure 15
0100
0010
0020
0000
,  // measure 16
0030
1000
1000
0000
,  // measure 17
0000
0000
0001
0001
,  // measure 18
1000
1000
1000
0001
,  // measure 19
0001
0010
0020
0000
,  // measure 20
0000
0000
0000
0000
0000
0000
0000
0032
,  // measure 21
0000
0000
0000
0003
,  // measure 22
1000
0000
1000
0000
1000
0000
0000
0100
,  // measure 23
0000
0100
0000
0100
0000
0000
0000
0000
,  // measure 24
1000
0000
1000
0000
1000
0000
0000
0001
,  // measure 25
0000
0001
0000
0001
0000
0000
0000
0000
,  // measure 26
0010
0000
0010
0000
0010
0000
0000
0001
,  // measure 27
0000
0001
0000
0001
0000
0000
0000
2002
,  // measure 28
0000
0000
0000
0000
,  // measure 29
3003
0000
0000
0000
,  // measure 30
1000
0000
1000
0000
1000
0000
0000
0010
,  // measure 31
0000
0010
0000
0010
0000
0000
0000
0000
,  // measure 32
0100
0000
0100
0000
0100
0000
0000
0001
,  // measure 33
0000
0001
0000
0001
0000
0000
0000
0000
,  // measure 34
1000
0000
1000
0000
1000
0000
0000
0100
,  // measure 35
0000
0100
0000
0100
0000
0000
0000
0220
,  // measure 36
0000
0000
0000
0000
,  // measure 37
0330
0000
0000
0000
,  // measure 38
0010
0010
0001
0002
,  // measure 39
0000
0000
0000
0003
0000
0000
0000
0000
,  // measure 40
1000
1000
0010
0020
,  // measure 41
0000
0030
4000
3000
,  // measure 42
0001
0000
0001
0000
0001
0000
0000
0100
,  // measure 43
0000
0100
0000
0100
0000
0000
0000
0000
,  // measure 44
0010
0000
0010
0000
0010
0000
0000
1000
,  // measure 45
0000
1000
0000
1000
0000
0000
0000
0000
,  // measure 46
0001
0000
0001
0000
0001
0000
0000
0100
,  // measure 47
0000
0100
0000
0100
0000
0000
0000
0020
,  // measure 48
0000
0000
0000
2030
0000
0000
0000
3002
,  // measure 49
0000
0000
0013
0000
0001
1000
0001
0000
,  // measure 50
1000
0000
1000
0000
1000
0000
0000
0010
,  // measure 51
0000
0010
0000
0010
0000
0000
0000
0000
,  // measure 52
0100
0000
0100
0000
0100
0000
0000
0001
,  // measure 53
0000
0001
0000
0001
0000
0000
0000
0000
,  // measure 54
1000
0000
1000
0000
1000
0000
0000
0100
,  // measure 55
0000
0100
0000
0100
0000
0000
0000
0220
,  // measure 56
0000
0000
0000
0000
,  // measure 57
0330
0000
0000
0000
0000
0000
0000
0010
,  // measure 58
0000
0010
0000
0001
0000
0000
0000
2002
,  // measure 59
0000
0000
0000
0000
0000
0000
0000
3003
;

//---------------dance-single - Novice----------------
#NOTES:
     dance-single:
     Ace Of Hearts (2011):
     Beginner:
     2:
     0.157,0.000,0.049,0.274,0.000: // measure 1
0000
0000
0000
0000
,  // measure 2
0000
0000
0000
0000
,  // measure 3
0000
0000
0000
0000
,  // measure 4
0000
0000
0000
0000
,  // measure 5
0000
0000
0000
0000
,  // measure 6
2000
0000
3000
0000
,  // measure 7
0002
0000
0003
0000
,  // measure 8
0010
0000
0010
0000
,  // measure 9
0020
0000
0030
0000
,  // measure 10
0002
0000
0003
0000
,  // measure 11
2000
0000
3000
0000
,  // measure 12
0100
0000
0100
0000
,  // measure 13
0200
0000
0300
0000
,  // measure 14
0010
0000
0010
0000
,  // measure 15
0010
0000
0020
0000
,  // measure 16
0030
0001
0001
0000
,  // measure 17
0000
1000
1000
0000
,  // measure 18
0010
0000
0010
0000
,  // measure 19
0010
0000
0020
0000
,  // measure 20
0000
0000
0000
0000
,  // measure 21
0030
0000
0000
0000
,  // measure 22
1000
0000
1000
0000
,  // measure 23
0002
0000
0003
0000
,  // measure 24
0010
0000
0010
0000
,  // measure 25
0200
0000
0300
0000
,  // measure 26
0010
0000
0010
0000
,  // measure 27
0001
0000
0001
0000
,  // measure 28
2002
0000
0000
0000
,  // measure 29
3003
0000
0000
0000
,  // measure 30
1000
0000
1000
0000
,  // measure 31
0020
0000
0030
0000
,  // measure 32
0100
0000
0100
0000
,  // measure 33
0002
0000
0003
0000
,  // measure 34
1000
0000
1000
0000
,  // measure 35
0010
0000
0010
0000
,  // measure 36
0220
0000
0000
0000
,  // measure 37
0330
0000
0000
0000
,  // measure 38
0010
0000
0020
0000
,  // measure 39
0000
0030
0000
0000
,  // measure 40
1000
0000
2000
0000
,  // measure 41
0000
3000
0000
0000
,  // measure 42
0001
0000
0001
0000
,  // measure 43
0200
0000
0300
0000
,  // measure 44
0001
0000
0001
0000
,  // measure 45
2000
0000
3000
0000
,  // measure 46
0001
0000
0001
0000
,  // measure 47
1000
0000
1000
0000
,  // measure 48
2002
0000
0000
0000
0000
0000
0000
3003
,  // measure 49
0000
0001
0001
0001
,  // measure 50
0010
0010
0010
0000
,  // measure 51
0002
0000
0003
0000
,  // measure 52
1000
1000
1000
0000
,  // measure 53
0020
0000
0030
0000
,  // measure 54
0100
0100
0100
0000
,  // measure 55
0001
0000
0001
0000
,  // measure 56
2002
0000
0000
0000
,  // measure 57
3003
0000
0000
0000
,  // measure 58
0001
0000
0001
0000
,  // measure 59
2002
0000
0000
0000
0000
0000
0000
3003
;
