#TITLE:Rabucchu Chireiden;
#SUBTITLE:;
#ARTIST:Innocent Key;
#TITLETRANSLIT:;
#SUBTITLETRANSLIT:;
#ARTISTTRANSLIT:;
#GENRE:Silly J-Pop;
#CREDIT:Ace Of Hearts;
#BANNER:Rabucchu Chireiden - bn.png;
#BACKGROUND:Rabucchu Chireiden - bg.png;
#LYRICSPATH:;
#CDTITLE:Ace Of Hearts.png;
#MUSIC:Rabucchu Chireiden.ogg;
#OFFSET:0.400;
#SAMPLESTART:91.000;
#SAMPLELENGTH:18.000;
#SELECTABLE:YES;
#BPMS:0.000=160.000,532.000=80.000,536.000=160.000;
#STOPS:;
#BGCHANGES:;
#KEYSOUNDS:;

//---------------dance-single - Lunatic----------------
#NOTES:
     dance-single:
     Ace Of Hearts (2011):
     Challenge:
     10:
     0.639,0.000,0.277,0.750,0.250: // measure 1
0000
0000
0000
0000
,  // measure 2
0000
0000
0000
0000
,  // measure 3
0000
0000
0000
0000
,  // measure 4
0000
0000
0000
0000
,  // measure 5
0000
0000
0000
0000
,  // measure 6
0000
0000
0000
0000
,  // measure 7
0000
0000
0000
0000
,  // measure 8
0000
0000
0000
0000
,  // measure 9
0000
0000
0000
0000
,  // measure 10
1002
0000
0000
0000
0000
0000
0013
0100
1000
0000
0001
0000
0100
0000
0010
0000
,  // measure 11
0100
0001
1000
0100
0020
0000
0030
0200
,  // measure 12
0000
0000
1300
0000
0001
0000
0100
0000
0020
0000
0000
1030
0000
0000
0001
0000
,  // measure 13
0200
0000
0000
0000
0300
0000
0001
1000
0100
0000
0100
1000
0001
0000
0000
0000
,  // measure 14
2000
0000
0000
0000
3010
0000
0100
0001
2000
0000
0000
3100
0000
0000
0010
0000
,  // measure 15
0100
1000
0001
0100
0002
0000
0003
1000
,  // measure 16
0010
0000
0100
0000
0001
0000
1000
0000
0100
0000
0010
0100
1000
0100
0010
0001
,  // measure 17
2000
0000
0000
0000
3000
0000
0010
1000
0010
0100
0001
0000
0000
0000
1000
0000
,  // measure 18
1020
0000
0000
0000
0030
0000
0100
0001
1000
0000
0100
0000
0010
0000
0100
0000
,  // measure 19
1000
0001
0100
0010
2000
0000
3000
1200
,  // measure 20
0000
0000
0310
0000
0100
0000
1000
0000
0002
0000
0000
0103
0000
0000
0010
0000
,  // measure 21
2000
0000
0000
0000
3000
0000
0001
0010
0100
0000
0100
0010
0001
0000
0000
0000
,  // measure 22
0200
0000
0000
0000
0310
0000
1000
0001
0020
0000
0000
0130
0000
0000
1000
0000
,  // measure 23
0001
0100
0010
1000
0002
0000
0003
0010
,  // measure 24
0100
0000
1000
0000
0001
0000
0100
0000
0010
0000
1000
0001
0100
0001
1000
0001
,  // measure 25
0020
0000
0000
0000
0030
0000
0100
1000
0001
0100
0001
0000
0000
0000
1000
0000
,  // measure 26
2002
0000
0000
0000
,  // measure 27
0000
0000
0000
0000
0000
0000
0000
3003
,  // measure 28
0000
0000
0000
0000
,  // measure 29
4000
0040
0000
0000
0000
0000
0000
0000
0000
0000
0000
0000
3030
0000
0000
0000
0000
0000
0000
0000
0000
0000
0000
0000
,  // measure 30
0020
0030
0100
0001
,  // measure 31
2000
0000
0000
0000
3000
0000
0001
0100
,  // measure 32
0020
0000
1030
0001
2000
0000
3200
0000
,  // measure 33
0320
0000
0000
0130
2000
0000
3000
0001
,  // measure 34
0200
0000
0310
2000
0000
0000
3002
0000
,  // measure 35
0023
0000
0130
2000
0000
0000
3020
0000
,  // measure 36
0230
0000
0301
2000
0000
0000
3100
0000
,  // measure 37
0120
0000
0032
0003
,  // measure 38
0200
0000
0320
0030
,  // measure 39
2000
0000
0000
0000
3000
0000
0001
0100
,  // measure 40
0020
0000
1030
0001
0200
0000
0302
0000
,  // measure 41
2003
0000
0000
0000
3200
0000
0300
0010
,  // measure 42
0200
0000
1300
0002
0000
0000
0023
0000
,  // measure 43
0230
0000
1300
0002
0000
0000
2003
0000
,  // measure 44
3020
0000
0130
0002
0000
0000
1003
0000
,  // measure 45
1020
0000
0230
0300
,  // measure 46
0102
0000
2003
0000
3010
0100
0001
0020
,  // measure 47
0000
0130
1000
0001
0000
0100
0010
1000
,  // measure 48
0001
0000
0010
0100
2000
0000
3001
0020
,  // measure 49
0000
0430
0000
0300
0000
0000
0000
0000
,  // measure 50
0000
0000
1000
0001
0100
0010
1000
0002
,  // measure 51
0000
0013
0001
1000
0000
0010
0100
0001
,  // measure 52
1001
1001
0000
1000
1100
1100
0000
0100
,  // measure 53
0110
0110
0011
0011
1001
1001
1010
1010
,  // measure 54
0102
0000
0000
0000
0003
0000
1000
0100
0010
0000
0100
0000
1000
0000
0001
0000
,  // measure 55
0100
0010
1000
0001
0020
0000
0130
2000
,  // measure 56
0000
0000
3001
0000
0100
0000
0010
0000
2000
0000
0000
3001
0000
0000
0010
0000
,  // measure 57
0200
0000
0000
0000
0300
0000
0010
0001
1000
0000
1000
0001
0100
0000
0000
0000
,  // measure 58
0020
0000
0000
0000
1030
0000
0001
0100
0010
0000
0000
2000
0000
0000
3001
0000
,  // measure 59
0010
0100
0010
0001
1000
0000
0000
0010
,  // measure 60
0100
0000
0001
0000
1000
0000
0100
0000
0010
0000
0100
0000
1000
0001
0100
0000
,  // measure 61
0020
0000
0000
0000
0030
0000
1000
0001
0010
0001
1000
0000
0000
0000
0010
0000
,  // measure 62
0210
0000
0000
0000
0300
0000
0001
1000
0100
0000
0010
0000
0100
0000
1000
0000
,  // measure 63
0001
0100
0010
1000
0002
0000
0013
0200
,  // measure 64
0000
0000
1300
0000
0001
0000
0100
0000
0020
0000
0000
1030
0000
0000
0001
0000
,  // measure 65
0200
0000
0000
0000
0300
0000
0010
1000
0001
0000
0001
1000
0100
0000
0000
0000
,  // measure 66
0020
0000
0000
0000
0130
0000
1000
0001
0100
0000
0000
0020
0000
0000
0130
0000
,  // measure 67
0001
1000
0100
0010
0200
0000
0300
1000
,  // measure 68
0100
0000
0010
0000
0001
0000
1000
0000
0010
0000
0100
0000
0001
1000
0100
1000
,  // measure 69
0002
0000
0000
0000
0003
0000
1000
0010
0100
0010
1000
0000
0000
0000
0001
0200
,  // measure 70
0020
0000
0000
0000
,  // measure 71
0000
0000
0330
0000
,  // measure 72
2001
3000
0010
0100
,  // measure 73
0002
0000
0000
0000
0003
0000
1000
0100
,  // measure 74
0020
0000
0130
1000
0002
0000
0203
0000
,  // measure 75
0320
0000
0000
0030
1010
0000
0000
1000
,  // measure 76
0002
0000
0013
0200
0000
0000
1300
0000
,  // measure 77
0002
0000
0103
0020
0000
0000
1030
0000
,  // measure 78
0002
0000
0103
0020
0000
0000
1030
0000
,  // measure 79
1002
0000
0203
0300
,  // measure 80
0120
0000
2030
0000
,  // measure 81
3002
0000
0000
0000
0003
0000
1000
0100
,  // measure 82
0020
0000
0130
1000
0002
0000
0203
0000
,  // measure 83
0320
0000
0000
0000
0130
0000
0000
0001
,  // measure 84
2000
0000
3100
0020
0000
0000
0130
0000
,  // measure 85
2100
0000
3001
0200
0000
0000
0310
0000
,  // measure 86
2000
0000
3001
0200
0000
0000
0310
0000
,  // measure 87
2010
0000
3200
0300
,  // measure 88
0010
0000
0200
0000
1300
0001
0100
0020
,  // measure 89
0000
0130
0001
1000
0000
0001
0010
0100
,  // measure 90
1000
0000
0001
0100
0020
0000
1030
0002
,  // measure 91
0000
0043
0000
0030
0000
0000
0000
0000
,  // measure 92
0000
0000
0001
1000
0010
0100
0002
0000
,  // measure 93
0000
1003
0010
0100
0000
0001
0100
0010
,  // measure 94
1010
1000
0000
0001
0101
0100
0000
0100
,  // measure 95
0110
0110
1010
1010
1001
1001
0011
0011
,  // measure 96
0210
0000
0000
0000
0300
0000
1000
0001
0100
0000
0010
0000
1000
0000
0001
0000
,  // measure 97
0010
0100
1000
0001
0200
0000
0310
2000
,  // measure 98
0000
0000
0000
0000
3001
0000
0010
0000
0002
0000
0000
1003
0000
0000
0010
0000
,  // measure 99
0200
0000
0000
0000
0300
0000
0001
0100
0010
0000
0010
1000
0001
0000
0000
0000
,  // measure 100
0020
0000
0000
0000
0130
0000
1000
0001
0200
0000
0000
0310
0000
0000
1000
0000
,  // measure 101
0001
0010
0100
1000
0001
0000
0000
1000
,  // measure 102
0010
0000
1000
0000
0001
0000
0010
0000
0100
0000
0010
0001
1000
0010
0100
0000
,  // measure 103
0002
0000
0000
0000
0003
0000
0010
0100
1000
0100
0020
0000
0000
0000
0031
0000
,  // measure 104
2001
0000
0000
0000
0000
0000
3010
0100
0001
0000
1000
0000
0100
0000
0010
0000
,  // measure 105
0100
1000
0001
0100
0020
0000
1030
1002
,  // measure 106
0000
0000
0013
0000
0100
0000
1000
0000
0002
0000
0000
0103
0000
0000
0010
0000
,  // measure 107
0200
0000
0000
0000
0300
0000
0001
1000
0100
0000
0100
0010
0001
0000
0000
0000
,  // measure 108
2000
0000
0000
0000
3010
0000
0100
0001
1000
0000
0000
0200
0000
0000
0310
0000
,  // measure 109
0100
1000
0001
0010
0200
0000
0300
1000
,  // measure 110
0001
0000
0100
0000
0010
0000
1000
0000
0001
0010
0100
0000
0010
0001
0010
0100
,  // measure 111
2000
0000
0000
0000
3000
0000
0001
0100
0010
0100
0001
0000
0000
0000
1000
0200
,  // measure 112
0020
0000
0000
0000
,  // measure 113
0000
0000
0000
0330
,  // measure 114
0010
0100
1000
0100
0010
0000
0001
0000
2000
0000
0000
0000
0000
0000
0000
0000
,  // measure 115
3000
0200
0320
0032
,  // measure 116
1003
0000
0010
0100
0010
1000
0001
0000
0200
0000
0000
0000
0300
0000
0001
0000
,  // measure 117
1000
0100
2000
0000
0000
0000
0000
0000
3000
0000
0001
0000
0010
0000
0100
0000
,  // measure 118
1000
0001
0010
0000
0001
0000
1000
0000
0100
0000
1000
0000
0001
0000
0100
0000
,  // measure 119
0001
1000
0200
0000
0000
0000
0000
0000
0000
0000
0000
0000
0300
0000
0000
0000
,  // measure 120
0010
0000
0001
0000
1000
0000
0010
0000
0100
0001
0100
0000
0010
0000
1000
0000
,  // measure 121
0001
0010
0200
0000
0000
0000
1300
0000
0002
0000
0000
0000
0003
0000
0000
0000
,  // measure 122
0010
0001
0010
0100
1000
0000
0001
0000
1000
0010
0200
0000
0000
0000
0000
0000
,  // measure 123
0300
0002
0203
0320
,  // measure 124
2030
0000
3001
0010
0100
0000
0010
0000
0002
0000
0000
0000
0003
0000
1000
0000
,  // measure 125
0010
0100
0002
0000
0000
0000
0000
0000
0003
0000
0010
0000
0100
0000
0010
0000
,  // measure 126
0001
1000
0010
0100
0001
1000
0100
0010
,  // measure 127
0200
0000
0000
0000
0300
0000
0000
1000
,  // measure 128
0001
0000
0100
0000
0010
0000
1000
0000
0001
0000
0010
0100
1000
0000
0001
0000
,  // measure 129
0400
0040
0000
0000
0000
0000
0000
0000
0000
0000
0000
0000
0330
0000
0000
0000
,  // measure 130
1010
1000
0000
0001
0011
0010
0100
1100
,  // measure 131
1001
1001
0101
0101
0110
0110
1010
1010
,  // measure 132
1001
0000
0001
0000
0000
0000
0001
0000
0101
0000
0000
0200
0000
0000
0310
0000
,  // measure 133
1010
1010
1001
1001
0101
0101
1010
1010
,  // measure 134
2000
0000
0000
0000
0000
0000
3001
0010
0001
0000
1000
0000
0001
0000
0010
0000
0100
0000
1000
0000
0100
0000
0010
0000
0002
0000
0000
0000
0003
0000
2001
0000
,  // measure 135
0000
0000
0000
0000
3010
0000
0100
0000
0002
0000
0000
1003
0000
0000
0100
0000
,  // measure 136
0020
0000
0000
0000
0030
0000
0100
1000
0001
0000
0001
0100
0010
0000
0000
0000
,  // measure 137
0200
0000
0000
0000
0301
0000
1000
0100
0010
0000
0000
0200
0000
0000
1300
0000
,  // measure 138
0001
0100
0010
1000
0002
0000
0003
0010
,  // measure 139
0100
0000
1000
0000
0001
0000
0100
0000
0010
0000
0100
0001
1000
0100
0010
0100
,  // measure 140
2000
0000
0000
0000
3000
0000
0001
0100
0010
1000
0001
0000
0000
0000
0010
0000
,  // measure 141
0210
0000
0000
0000
0300
0000
1000
0001
0100
0000
0010
0000
1000
0000
0001
0000
,  // measure 142
0010
0001
1000
0010
0200
0000
0301
2000
,  // measure 143
0000
0000
0000
0000
3001
0000
0100
0000
0020
0000
0000
0130
0000
0000
0001
0000
,  // measure 144
2000
0000
0000
0000
0000
0000
3001
0010
0100
0000
0100
0010
0001
0000
0000
0000
,  // measure 145
2001
0000
0000
0000
3010
0000
0100
0000
0002
0000
0000
1003
0000
0000
0100
0000
,  // measure 146
0010
0100
1000
0001
0200
0000
0300
0010
,  // measure 147
1000
0000
0001
0000
0010
0000
0100
0000
0010
0000
0001
1000
0001
0010
0100
0010
,  // measure 148
0002
0000
0000
0000
0003
0000
1000
0010
0100
0010
2000
0000
0000
0000
3001
0000
,  // measure 149
0022
0000
0000
0000
0003
0000
0130
1000
0001
0000
0100
0000
0010
0000
1000
0000
,  // measure 150
0001
0010
0001
1000
0020
0000
0130
0002
,  // measure 151
0000
0000
0000
0000
1003
0000
0100
0000
0020
0000
0000
0130
0000
0000
1000
0000
,  // measure 152
0002
0000
0000
0000
0003
0000
1000
0100
0010
0000
0010
0100
1000
0000
0000
0000
,  // measure 153
1002
0000
0000
0000
0103
0000
0010
1000
0001
0000
0000
0020
0000
0000
0130
0000
,  // measure 154
1000
0001
1000
0010
0200
0000
0300
0001
,  // measure 155
1000
0000
0100
0000
0010
0000
0100
0000
1000
0000
0001
0100
0001
0000
1000
0100
,  // measure 156
0020
0000
0000
0000
0030
0000
0100
1000
0001
0100
0002
0000
0000
0000
1003
0000
,  // measure 157
1020
0000
0000
0000
0030
0000
0100
0001
1000
0000
0100
0000
0010
0000
0100
0000
,  // measure 158
1000
0010
0100
0001
2000
0000
3100
0120
,  // measure 159
0000
0000
0000
0000
0031
0000
1000
0000
0020
0000
0000
0130
0000
0000
0001
0000
,  // measure 160
2000
0000
0000
0000
3000
0000
0010
0100
0001
0000
0001
1000
0100
0000
0000
0000
,  // measure 161
0120
0000
0000
0000
0031
0000
1000
0010
0200
0000
0000
0301
0000
0000
0100
0000
,  // measure 162
0010
1000
0001
0010
0200
0000
0300
1000
,  // measure 163
0001
0000
0100
0000
0010
0000
0100
0000
0001
0000
1000
0100
0010
0001
0010
0100
,  // measure 164
2000
0000
0000
0000
3000
0000
0001
0100
0010
0100
0002
0000
0000
0000
1003
0000
,  // measure 165
2020
0000
0000
0000
3000
0000
0130
0001
1000
0000
0100
0000
0000
0000
1000
0000
,  // measure 166
2002
0000
0000
0000
,  // measure 167
0000
0000
0000
3003
,  // measure 168
0000
0000
0000
0000
,  // measure 169
4000
0400
0000
0000
0000
0000
0000
0000
0000
0000
0000
0000
3300
0000
0000
0000
0000
0000
0110
0000
0000
0000
0000
0000
,  // measure 170
0220
0000
0000
0000
,  // measure 171
0000
0000
0000
0000
,  // measure 172
0330
0000
0000
0000
;

//---------------dance-single - Hard----------------
#NOTES:
     dance-single:
     Ace Of Hearts (2011):
     Hard:
     8:
     0.531,0.000,0.038,0.675,0.051: // measure 1
0000
0000
0000
0000
,  // measure 2
0000
0000
0000
0000
,  // measure 3
0000
0000
0000
0000
,  // measure 4
0000
0000
0000
0000
,  // measure 5
0000
0000
0000
0000
,  // measure 6
0000
0000
0000
0000
,  // measure 7
0000
0000
0000
0000
,  // measure 8
0000
0000
0000
0000
,  // measure 9
0000
0000
0000
0000
,  // measure 10
2000
0000
0000
3010
0100
0010
1000
0001
,  // measure 11
0010
0100
1000
0001
0100
0000
0000
0020
,  // measure 12
0000
0000
0000
0000
1030
0000
0001
0000
0020
0000
0000
0130
0000
0000
1000
0000
,  // measure 13
0001
0000
0000
1000
0010
1000
0001
0000
,  // measure 14
0100
0000
0000
0000
0001
0000
1000
0000
0100
0000
0000
0020
0000
0000
0130
0000
,  // measure 15
1000
0001
1000
0010
0100
0000
0000
0010
,  // measure 16
1000
0001
0010
0100
1000
0100
0010
0001
,  // measure 17
2000
0000
3000
0010
0100
0001
0000
1000
,  // measure 18
0200
0000
0300
0010
0100
1000
0001
0100
,  // measure 19
0010
0100
0001
1000
0002
0000
0003
0020
,  // measure 20
0000
0000
0000
0000
0031
0000
1000
0000
0020
0000
0000
0130
0000
0000
0010
0000
,  // measure 21
2000
0000
3000
0001
0100
0001
1000
0000
,  // measure 22
0002
0000
0000
0000
0013
0000
0100
0000
2000
0000
0000
3001
0000
0000
1000
0000
,  // measure 23
0010
0100
0010
1000
0001
0000
0000
0010
,  // measure 24
0100
1000
0001
0100
0010
1000
0001
0010
,  // measure 25
0002
0000
0003
1000
0010
0100
0000
0001
,  // measure 26
2002
0000
0000
0000
,  // measure 27
0000
0000
0000
0000
0000
0000
0000
3003
,  // measure 28
0000
0000
0000
0000
,  // measure 29
4000
0000
3000
0000
,  // measure 30
0020
0000
1030
0001
,  // measure 31
0020
0000
0000
0000
0030
0000
0100
1000
,  // measure 32
0002
0000
1003
0010
0200
0000
0301
0000
,  // measure 33
2000
0000
0000
3001
0100
0000
0000
0010
,  // measure 34
2000
0000
3001
0020
0000
0000
0130
0000
,  // measure 35
2000
0000
3001
0020
0000
0000
0031
0000
,  // measure 36
2000
0000
3001
0200
0000
0000
0310
0000
,  // measure 37
2000
0000
3002
0003
,  // measure 38
0020
0000
0032
0000
,  // measure 39
2003
0000
0000
0000
3000
0000
0010
0100
,  // measure 40
0002
0000
1003
0010
0200
0000
0301
0000
,  // measure 41
2000
0000
0000
0000
3100
0000
0000
0010
,  // measure 42
0002
0000
1003
0020
0000
0000
0130
0000
,  // measure 43
0002
0000
1003
0200
0000
0000
0310
0000
,  // measure 44
0200
0000
1300
0002
0000
0000
0103
0000
,  // measure 45
0020
0000
0230
0300
,  // measure 46
0001
0000
2000
0000
3001
0010
0100
2000
,  // measure 47
0000
3001
0010
0100
0000
0010
0001
1000
,  // measure 48
0010
0000
1000
0001
0200
0000
0301
2000
,  // measure 49
0000
3004
0000
0003
0000
0000
0000
0000
,  // measure 50
0000
0000
1000
0010
0100
0010
1000
0002
,  // measure 51
0000
0013
0001
1000
0000
0010
0100
0001
,  // measure 52
1000
1000
0000
0100
0010
0020
0000
0031
,  // measure 53
1000
1000
0100
0100
0010
0010
0001
0001
,  // measure 54
2000
0000
0000
3010
0100
0001
1000
0100
,  // measure 55
0010
0100
1000
0001
0200
0000
0300
0020
,  // measure 56
0000
0000
0000
0000
0130
0000
0001
0000
2000
0000
0000
3100
0000
0000
0010
0000
,  // measure 57
0200
0000
0300
1000
0001
0100
0010
0000
,  // measure 58
0200
0000
0000
0000
0301
0000
1000
0000
0100
0000
0000
0020
0000
0000
0130
0000
,  // measure 59
1000
0001
1000
0010
0100
0000
0000
0001
,  // measure 60
0100
0010
1000
0001
0010
0100
1000
0001
,  // measure 61
0200
0000
0300
0010
1000
0002
0000
0103
,  // measure 62
0020
0000
0000
1030
0001
0010
0100
0010
,  // measure 63
0001
1000
0010
0100
0002
0000
0003
2000
,  // measure 64
0000
0000
0000
0000
3100
0000
0010
0000
0002
0000
0000
1003
0000
0000
0010
0000
,  // measure 65
0200
0000
0300
0001
0100
0010
0100
0000
,  // measure 66
0002
0000
0000
0000
1003
0000
0100
0000
0020
0000
0000
0130
0000
0000
1000
0000
,  // measure 67
0100
0010
0001
0010
0200
0000
0300
1000
,  // measure 68
0001
0100
0010
1000
0010
0100
0001
1000
,  // measure 69
0020
0000
0030
1000
0001
0100
0000
0001
,  // measure 70
0022
0000
0000
0000
,  // measure 71
0000
0000
0033
0000
,  // measure 72
0002
0000
1003
0010
,  // measure 73
0200
0000
0000
0000
0300
0000
0001
1000
,  // measure 74
0020
0000
0130
0001
2000
0000
3200
0000
,  // measure 75
0320
0000
0000
0000
0130
0000
0000
1000
,  // measure 76
0002
0000
1003
0020
0000
0000
0130
0000
,  // measure 77
0002
0000
1003
0200
0000
0000
0310
0000
,  // measure 78
0200
0000
1300
0002
0000
0000
1003
0000
,  // measure 79
0020
0000
0230
0000
,  // measure 80
0302
0000
2003
0000
,  // measure 81
3200
0000
0000
0000
0300
0000
0010
0100
,  // measure 82
2000
0000
3001
0010
0200
0000
0310
0000
,  // measure 83
0002
0000
0000
0000
1003
0000
0000
0010
,  // measure 84
0200
0000
0301
2000
0000
0000
3001
0000
,  // measure 85
0020
0000
0130
2000
0000
0000
3001
0000
,  // measure 86
0200
0000
0310
2000
0000
0000
3001
0000
,  // measure 87
0020
0000
0230
0300
,  // measure 88
2000
0000
3002
0000
0103
0010
1000
0002
,  // measure 89
0000
0103
0010
1000
0000
0001
0010
0100
,  // measure 90
1000
0000
0100
0010
0001
1000
0100
0020
,  // measure 91
0000
0034
0000
0003
0000
0000
0000
0000
,  // measure 92
0000
0000
1000
0010
0100
0010
2000
0000
,  // measure 93
0000
3001
0100
0010
0000
1000
0001
0010
,  // measure 94
0100
0100
0000
0010
0001
0001
0000
1000
,  // measure 95
0010
0010
0100
0100
0001
0001
1000
1000
,  // measure 96
0020
0000
0030
1000
0001
0010
0100
0010
,  // measure 97
0001
1000
0010
0100
0002
0000
0003
2000
,  // measure 98
0000
0000
0000
0000
3100
0000
0010
0000
0200
0000
0000
0310
0000
0000
0001
0000
,  // measure 99
2000
0000
3000
0010
0100
0010
1000
0000
,  // measure 100
0002
0000
0000
0000
0013
0000
0100
0000
2000
0000
0000
3001
0000
0000
0100
0000
,  // measure 101
0010
0100
0001
1000
0200
0000
0300
0010
,  // measure 102
0100
1000
0001
0100
0010
0100
0001
1000
,  // measure 103
0020
0000
0030
1000
0001
0100
0000
0010
,  // measure 104
2010
0000
0000
3001
0010
0001
1000
0010
,  // measure 105
0100
0001
1000
0010
0200
0000
0300
0002
,  // measure 106
0000
0000
0000
0000
0103
0000
0010
0000
2000
0000
0000
3001
0000
0000
0010
0000
,  // measure 107
0200
0000
0300
0010
0001
0010
0100
0000
,  // measure 108
2000
0000
0000
0000
3001
0000
0100
0000
0001
0000
0000
1000
0000
0000
0100
0000
,  // measure 109
0010
0100
1000
0001
0200
0000
0300
0001
,  // measure 110
1000
0100
0010
0100
1000
0001
1000
0100
,  // measure 111
0020
0000
0030
0100
1000
0001
0000
1000
,  // measure 112
2020
0000
0000
0000
,  // measure 113
0000
0000
0000
3030
,  // measure 114
0010
0100
0001
1000
0200
0000
0000
0000
,  // measure 115
0300
2000
3002
0023
,  // measure 116
0031
1000
0010
0100
0002
0000
0000
1003
,  // measure 117
0010
0200
0000
0000
0300
0001
1000
0010
,  // measure 118
1000
0001
0010
0100
0010
0001
1000
0010
,  // measure 119
0100
0002
0000
0000
0000
0000
0003
0000
,  // measure 120
0010
0100
1000
0100
0010
0001
1000
0010
,  // measure 121
1000
0002
0000
1003
0020
0000
0030
0000
,  // measure 122
1000
0001
0010
0100
0010
0002
0000
0000
,  // measure 123
0003
2000
3200
0320
,  // measure 124
0130
1000
0001
1000
0020
0000
0030
1000
,  // measure 125
0001
0200
0000
0000
0300
0001
1000
0100
,  // measure 126
0010
0100
1000
0001
0100
0010
1000
0001
,  // measure 127
2000
0000
0000
0000
3000
0000
0000
0001
,  // measure 128
0010
0100
1000
0001
0010
0001
1000
0010
,  // measure 129
0400
0000
0000
0300
,  // measure 130
0001
0001
0000
1000
0010
0010
1000
0001
,  // measure 131
0010
0010
0001
0001
1000
1000
0020
0000
,  // measure 132
0130
0000
0100
0000
0000
0000
0001
0000
1000
0000
0000
2000
0000
0000
3001
0000
,  // measure 133
0100
0100
0010
0010
1000
1000
0001
0001
,  // measure 134
0020
0000
0000
0031
1000
0001
1000
0010
1000
0001
0010
0100
2000
0000
0000
3002
,  // measure 135
0000
0000
0000
0000
1003
0000
0010
0000
0200
0000
0000
0301
0000
0000
1000
0000
,  // measure 136
0200
0000
0300
0010
0100
0010
0001
0000
,  // measure 137
2000
0000
0000
0000
3010
0000
0100
0000
0001
0000
0000
2000
0000
0000
3001
0000
,  // measure 138
0010
0001
1000
0010
0200
0000
0300
0001
,  // measure 139
0100
0010
1000
0001
0010
0100
0010
0001
,  // measure 140
2000
0000
3000
0010
0100
0001
0000
1000
,  // measure 141
1200
0000
0000
0310
0100
1000
0001
0100
,  // measure 142
0010
0100
0001
1000
0200
0000
0300
0020
,  // measure 143
0000
0000
0030
0000
0100
0000
1000
0000
0002
0000
0000
0103
0000
0000
0010
0000
,  // measure 144
0100
0000
0000
0001
1000
0001
0100
0000
,  // measure 145
0020
0000
0000
0000
1030
0000
0001
0000
0010
0000
0000
0200
0000
0000
1300
0000
,  // measure 146
0001
0100
0010
0100
0002
0000
0003
1000
,  // measure 147
0100
0010
0001
0010
0100
1000
0001
0100
,  // measure 148
0020
0000
0030
1000
0001
1000
0000
0001
,  // measure 149
0022
0000
0003
0130
1000
0001
0100
0010
,  // measure 150
1000
0001
0010
0100
2000
0000
3000
0002
,  // measure 151
0000
0000
0000
0000
0103
0000
0010
0000
2000
0000
0000
3001
0000
0000
0010
0000
,  // measure 152
0100
0000
0000
0010
0001
0010
0100
0000
,  // measure 153
2000
0000
0000
0000
3001
0000
0100
0000
0010
0000
0000
2000
0000
0000
3001
0000
,  // measure 154
0010
0001
1000
0010
0200
0000
0300
0001
,  // measure 155
1000
0100
0010
0100
1000
0001
0100
0010
,  // measure 156
2000
0000
3000
0001
0010
0100
0000
1000
,  // measure 157
1002
0000
0003
0100
0010
1000
0001
0010
,  // measure 158
0100
0010
0001
1000
0100
0000
0000
2000
,  // measure 159
0000
0000
0000
0000
3001
0000
0100
0000
0010
0000
0000
2000
0000
0000
3001
0000
,  // measure 160
0200
0000
0300
0010
1000
0010
0100
0000
,  // measure 161
0002
0000
0000
0000
1003
0000
0100
0000
0010
0000
0000
0200
0000
0000
1300
0000
,  // measure 162
0001
1000
0010
0100
0002
0000
0003
0100
,  // measure 163
0010
1000
0001
0010
0001
1000
0010
0100
,  // measure 164
0002
0000
0003
1000
0010
0100
0000
0010
,  // measure 165
2020
0000
0030
3001
0010
0100
0000
1000
,  // measure 166
2002
0000
0000
0000
,  // measure 167
0000
0000
0000
3003
,  // measure 168
0000
0000
0000
0000
,  // measure 169
0004
0000
0003
1000
,  // measure 170
2200
0000
0000
0000
,  // measure 171
0000
0000
0000
0000
,  // measure 172
3300
0000
0000
0000
;

//---------------dance-single - Normal----------------
#NOTES:
     dance-single:
     Ace Of Hearts (2011):
     Medium:
     6:
     0.371,0.000,0.023,0.383,0.000:
0000
0000
0000
0000
,
0000
0000
0000
0000
,
0000
0000
0000
0000
,
0000
0000
0000
0000
,
0000
0000
0000
0000
,
0000
0000
0000
0000
,
0000
0000
0000
0000
,
0000
0000
0000
0000
,
0000
0000
0000
0000
,
0002
0000
0000
1003
0010
0000
1000
0000
,
0001
0000
0010
0000
0100
0000
0000
0020
,
0000
0031
1000
0001
,
0100
0000
0000
0000
0010
1000
0010
0000
,
1000
0000
0001
0010
0001
0000
1000
0000
,
0010
1000
0001
0000
,
0010
0001
0010
0000
0001
1000
0001
0000
,
2000
0000
3000
0000
0001
0100
0000
0000
,
0002
0000
0000
1003
0100
0000
0010
0000
,
0100
0000
1000
0000
0001
0000
0000
2000
,
0000
3010
1000
0001
,
0010
0000
0000
0000
0001
1000
0001
0000
,
2000
3010
1000
0001
,
0010
0000
0001
1000
0001
0000
0000
0000
,
1000
0001
1000
0000
0001
0100
0001
0000
,
2000
0000
3000
0000
0010
1000
0000
0000
,
2002
0000
0000
0000
,
0000
0000
0000
0000
0000
0000
0000
3003
,
0000
0000
0000
0000
,
0004
0000
0003
0000
,
2000
3000
0001
0100
,
0002
0000
0003
1000
,
0010
0000
1000
0001
1000
0000
0010
0000
,
2000
0000
3001
0000
,
0020
0000
0000
0031
0000
0000
1000
0000
,
0020
0000
0000
1030
0000
0000
0001
0000
,
0020
0000
0000
0130
0000
0000
1000
0000
,
0002
0000
0103
0000
,
0002
0000
2003
0000
,
3200
0000
0300
1000
,
0001
0000
0010
0001
0010
0000
0001
0000
,
2000
0000
3100
0000
,
0020
0000
0000
0031
0000
0000
1000
0000
,
0020
0000
0000
0130
0000
0000
0001
0000
,
2000
0000
0000
3100
0000
0000
0010
0000
,
0002
0000
1003
0000
,
0010
0000
1000
0000
0001
0000
1000
0200
,
0000
0000
1300
0001
0000
1000
0010
0000
,
1000
0000
0010
0000
0100
0000
0001
2000
,
0000
3000
0000
0000
,
0000
0000
0001
0100
0001
0000
2000
0000
,
0000
0000
3001
0100
0000
0001
1000
0000
,
0001
0001
0000
0000
0010
0010
0000
0000
,
0001
0010
0001
0000
1000
0010
1000
0000
,
0002
0000
0000
0013
0100
0000
0010
0000
,
0001
0000
1000
0000
0010
0000
0000
2000
,
0000
3001
0010
0001
,
1000
0000
0000
0000
0010
1000
0010
0000
,
1000
0001
0010
0001
,
1000
0100
1000
0000
0001
0000
0000
0000
,
1000
0010
1000
0000
0001
0100
0001
0000
,
2000
0000
3000
0000
0010
1000
0000
0000
,
0002
0000
0000
1003
0010
0000
1000
0000
,
0001
0000
0010
0000
0100
0000
0000
0020
,
0000
0031
1000
0001
,
1000
0000
0000
0000
0001
0100
0001
0000
,
2000
3010
0100
0001
,
1000
0001
1000
0000
0100
0000
0000
0000
,
0010
0001
0010
0000
0100
1000
0100
0000
,
0020
0000
0030
0000
0001
1000
0000
0000
,
2020
0000
0000
0000
,
0000
0000
3030
0000
,
0020
0000
0130
0001
,
2000
0000
0000
0000
3000
0000
0001
0100
,
0002
1003
0010
1000
,
0002
0000
0103
0000
,
0020
0000
0000
0130
0000
0000
0001
0000
,
2000
0000
0000
3100
0000
0000
0010
0000
,
0002
0000
0000
1003
0000
0000
0100
0000
,
0020
0000
0031
0000
,
2000
0000
3020
0000
,
0230
0000
0000
0000
0300
0000
0001
1000
,
0001
0010
0001
1000
,
0002
0000
0103
0000
,
0020
0000
0000
0130
0000
0000
0001
0000
,
2000
0000
0000
3100
0000
0000
0010
0000
,
0002
0000
0000
1003
0000
0000
0001
0000
,
0020
0000
0130
0000
,
1000
0000
0001
0000
0010
0000
0001
2000
,
0000
0000
3001
0100
0000
0001
1000
0000
,
0001
0000
0010
0000
0001
0000
1000
0020
,
0000
0030
0000
0000
,
0000
0000
1000
0000
0001
0010
0002
0000
,
0000
0000
1003
0100
0000
1000
0001
0000
,
1000
1000
0000
0000
0010
0010
0000
1000
,
0001
1000
0000
0001
0100
0001
0000
0000
,
2000
0000
0000
3001
0010
0000
0001
0000
,
1000
0000
0001
1000
0001
0000
0000
0020
,
0000
0130
0010
0001
,
1000
0000
0000
0000
0010
1000
0010
0000
,
2000
3001
0010
0001
,
1000
0010
1000
0000
0001
0000
0000
0010
,
0001
0000
1000
0000
0001
0000
1000
0010
,
2000
0000
3000
0001
0010
0001
0000
1000
,
0020
0000
0000
1030
0001
0000
1000
0000
,
0010
0000
1000
0000
0010
0000
0000
2000
,
0000
3001
0010
0000
0001
0000
1000
0000
,
0100
0000
0000
0000
1000
0001
1000
0000
,
0002
1003
0010
1000
,
0001
0010
0001
0000
1000
0000
0000
0000
,
0010
1000
0010
0000
1000
0001
1000
0000
,
0002
0000
0003
1000
0100
1000
0000
0001
,
0022
0000
0000
0000
,
0000
0000
0000
0033
,
0001
1000
0001
0000
0200
0000
0000
0000
,
0300
0002
2003
3020
,
2030
0000
3001
0010
0002
0000
0000
1003
,
0200
0000
0000
0000
0000
0310
0001
0000
,
1000
0010
1000
0000
0001
0000
0010
0000
,
0200
0000
0300
0000
,
1000
0000
0001
0000
0010
0001
0010
0000
,
0200
0000
0000
1300
0002
0000
0000
0000
,
1003
0010
1000
0000
0002
0000
0000
0000
,
0003
2000
3200
0320
,
0031
1000
0001
0000
2000
0000
0000
3001
,
0200
0000
0000
0000
0300
0001
1000
0000
,
0001
0000
0010
0000
0001
1000
0001
0000
,
0200
0000
0000
0000
0300
0000
0000
0001
,
1000
0000
0001
0000
0010
0001
0010
0000
,
0400
0000
0000
0300
,
1000
1000
0000
0000
0001
0001
0000
1000
,
0010
1000
0000
0001
0010
0001
0000
0000
,
1000
1000
0000
0000
0010
0000
0000
1000
,
0001
1000
0000
0001
0010
0001
0000
0000
,
2000
0000
3001
0010
0001
1000
0100
0000
,
0010
0100
1000
0001
,
1000
0000
0000
0000
0001
0010
0001
0000
,
2000
3010
1000
0001
,
0010
0000
0001
1000
0001
0000
0000
0010
,
0001
0000
1000
0000
0010
0000
0100
0001
,
2000
0000
3000
0001
0010
0001
0000
1000
,
0200
0000
0000
1300
0001
0000
1000
0000
,
0010
0000
0100
0001
0100
0000
0000
0020
,
0000
1030
0001
1000
,
0100
0000
0000
0000
0010
0001
0010
0000
,
0200
0310
0001
1000
,
0010
0000
1000
0001
1000
0000
0000
0001
,
0010
0000
0100
0000
0010
0000
0001
1000
,
0020
0000
0030
1000
0001
0100
0000
0010
,
2000
0000
0000
3001
0010
0000
0100
0000
,
0010
0000
0001
1000
0001
0000
0000
2000
,
0000
3010
0100
0001
,
1000
0000
0000
0000
0001
0100
0001
0000
,
1000
0100
0010
0001
,
1000
0010
1000
0000
0001
0000
0000
0010
,
0001
0000
1000
0000
0010
0000
1000
0001
,
0020
0000
0030
0100
1000
0100
0000
0010
,
0200
0000
0300
1000
0001
0000
1000
0000
,
0010
0000
0100
0001
0100
0000
0000
0020
,
0000
1030
0001
0010
,
0001
0000
0000
0000
1000
0010
1000
0000
,
0002
0013
0001
1000
,
0010
0000
0100
0001
0100
0000
0000
0010
,
0100
0000
0001
0000
1000
0000
0001
0100
,
0020
0000
0030
1000
0001
0100
0000
0001
,
2000
0000
3000
0001
0010
0100
0000
1000
,
2002
0000
0000
0000
,
0000
0000
0000
3003
,
0000
0000
0000
0000
,
0004
0000
0003
0101
,
0202
0000
0000
0000
,
0000
0000
0000
0000
,
0303
0000
0000
0000
;

//---------------dance-single - Easy----------------
#NOTES:
     dance-single:
     Ace Of Hearts (2011):
     Easy:
     3:
     0.201,0.000,0.015,0.125,0.000:
0000
0000
0000
0000
,
0000
0000
0000
0000
,
0000
0000
0000
0000
,
0000
0000
0000
0000
,
0000
0000
0000
0000
,
0000
0000
0000
0000
,
0000
0000
0000
0000
,
0000
0000
0000
0000
,
0000
0000
0000
0000
,
1000
0000
1000
0000
,
0010
0010
0010
0000
,
1000
0000
1000
0000
,
1000
0000
0001
0001
,
0001
0000
0010
0000
,
0010
0010
0010
0000
,
0100
0100
0100
0000
,
1000
0000
1000
0000
,
0001
0000
0001
0000
,
0100
0100
0100
0000
,
0010
0000
0010
0000
,
0010
0000
1000
1000
,
1000
0000
0001
0000
,
0010
0010
0010
0000
,
0001
0001
0001
0000
,
1000
0000
1000
0000
,
2002
0000
0000
0000
,
0000
0000
0000
0000
0000
0000
0000
3003
,
0000
0000
0000
0000
,
0000
0000
0000
0000
,
0001
0000
0001
0000
,
0002
0000
0003
0000
,
0010
0010
0010
0000
,
0020
0000
0030
0000
,
0100
0000
0100
0000
,
1000
0000
1000
0000
,
0001
0000
0001
0000
,
0200
0000
0300
0000
,
0010
0000
0010
0000
,
0020
0000
0030
0000
,
1000
1000
1000
0000
,
2000
0000
3000
0000
,
0001
0000
0001
0000
,
0010
0000
0010
0000
,
0001
0000
0001
0000
,
0002
0000
0003
0000
,
1000
0000
1000
0000
,
2000
0000
3000
0000
,
0010
0000
0010
0000
,
0020
0000
0030
0000
,
0000
0000
1000
0000
,
2000
0000
3000
0000
,
0001
0000
0001
0000
,
0100
0100
0100
0000
,
0010
0000
0010
0000
,
1000
1000
1000
0000
,
0001
0000
0001
0000
,
0001
0000
0100
0100
,
0100
0000
0010
0000
,
0010
0010
0010
0000
,
1000
1000
1000
0000
,
0001
0000
0001
0000
,
0010
0000
0010
0000
,
0100
0100
0100
0000
,
1000
0000
1000
0000
,
1000
0000
0001
0001
,
0001
0000
0100
0000
,
0100
0100
0100
0000
,
0010
0010
0010
0000
,
1000
0000
1000
0000
,
2002
0000
0000
0000
,
0000
0000
3003
0000
,
0001
0000
0001
0000
,
0002
0000
0003
0000
,
0100
0100
0100
0000
,
0200
0000
0300
0000
,
0010
0000
0010
0000
,
1000
0000
1000
0000
,
0001
0000
0001
0000
,
0002
0000
0003
0000
,
1000
0000
1000
0000
,
2000
0000
3000
0000
,
0010
0010
0010
0000
,
0020
0000
0030
0000
,
0100
0000
0100
0000
,
0001
0000
0001
0000
,
1000
0000
1000
0000
,
2000
0000
3000
0000
,
0100
0000
0100
0000
,
0010
0000
0010
0000
,
0001
0001
0002
0000
,
0003
0000
0000
0000
,
0000
0000
1000
0000
,
1000
0000
1000
0000
,
0010
0000
0010
0000
,
1000
1000
1000
0000
,
0001
0000
0001
0000
,
0010
0010
0010
0000
,
0100
0000
0100
0000
,
0100
0000
1000
1000
,
1000
0000
0001
0000
,
0001
0001
0001
0000
,
0100
0100
0100
0000
,
0010
0000
0010
0000
,
1000
0000
1000
0000
,
0001
0001
0001
0000
,
0010
0000
0010
0000
,
0010
0000
0100
0100
,
0100
0000
1000
0000
,
1000
1000
1000
0000
,
0001
0001
0001
0000
,
0001
0000
1000
0000
,
2002
0000
0000
0000
,
0000
0000
0000
3003
,
0001
0001
0002
0000
,
0003
0000
1000
0000
,
0100
0100
0100
0000
,
0100
0000
0000
0000
,
0010
0010
0010
0000
,
0002
0000
0003
0000
,
1000
1000
1000
0000
,
0001
0000
0001
0000
,
0100
0100
0100
0000
,
0000
0000
0010
0000
,
0010
0010
0010
0000
,
1000
0000
0000
0000
,
0001
0001
0001
0000
,
0002
0000
0003
0000
,
0010
0010
0010
0000
,
0020
0000
0030
0000
,
0100
0000
0100
0000
,
1000
1000
1000
0000
,
0001
0000
0001
0000
,
1000
1000
1000
0000
,
0020
0030
1000
1000
,
0001
0000
0001
0000
,
0001
0000
0100
0100
,
0100
0000
0010
0000
,
0010
0010
0010
0000
,
1000
1000
1000
0000
,
0001
0000
0001
0000
,
0100
0000
0100
0000
,
0010
0010
0010
0000
,
1000
0000
1000
0000
,
0001
0000
0001
0001
,
0001
0000
1000
0000
,
1000
1000
1000
0000
,
0010
0010
0010
0000
,
1000
0000
1000
0000
,
0001
0000
0001
0000
,
0010
0010
0010
0000
,
0001
0000
0001
0000
,
0001
0000
0100
0100
,
0100
0000
0010
0000
,
0010
0010
0010
0000
,
1000
1000
1000
0000
,
0001
0000
0010
0000
,
0001
0000
1000
0000
,
1000
1000
1000
0000
,
0010
0000
0010
0000
,
0010
0000
0100
0100
,
0100
0000
0001
0000
,
0001
0001
0001
0000
,
0100
0100
0100
0000
,
0020
0000
0130
0000
,
0002
0000
1003
0000
,
2002
0000
0000
0000
,
0000
0000
0000
3003
,
0000
0000
0000
0000
,
2000
0000
3000
0001
,
0002
0000
0000
0000
,
0000
0000
0000
0000
,
0003
0000
0000
0000
;

//---------------dance-single - Moedan----------------
#NOTES:
     dance-single:
     Ace Of Hearts (2011):
     Beginner:
     1:
     0.131,0.000,0.015,0.072,0.000: // measure 1
0000
0000
0000
0000
,  // measure 2
0000
0000
0000
0000
,  // measure 3
0000
0000
0000
0000
,  // measure 4
0000
0000
0000
0000
,  // measure 5
0000
0000
0000
0000
,  // measure 6
0000
0000
0000
0000
,  // measure 7
0000
0000
0000
0000
,  // measure 8
0000
0000
0000
0000
,  // measure 9
0000
0000
0000
0000
,  // measure 10
0001
0000
0001
0000
,  // measure 11
0001
0000
0000
0000
,  // measure 12
1000
0000
1000
0000
,  // measure 13
1000
0000
0000
0000
,  // measure 14
0010
0000
0010
0000
,  // measure 15
0010
0000
0000
0000
,  // measure 16
1000
0000
1000
0000
,  // measure 17
1000
0000
0000
0000
,  // measure 18
0001
0000
0001
0000
,  // measure 19
0001
0000
0000
0000
,  // measure 20
0100
0000
0100
0000
,  // measure 21
0100
0000
0000
0000
,  // measure 22
0010
0000
0010
0000
,  // measure 23
0010
0000
0000
0000
,  // measure 24
1000
0000
1000
0000
,  // measure 25
1000
0000
0001
0000
,  // measure 26
2002
0000
0000
0000
,  // measure 27
0000
0000
0000
0000
0000
0000
0000
3003
,  // measure 28
0000
0000
0000
0000
,  // measure 29
0000
0000
0000
0000
,  // measure 30
1000
0000
0000
0000
,  // measure 31
1000
0000
0000
0000
,  // measure 32
0100
0000
0100
0000
,  // measure 33
0100
0000
0000
0000
,  // measure 34
1000
0000
0000
0000
,  // measure 35
1000
0000
0000
0000
,  // measure 36
0001
0000
0001
0000
,  // measure 37
0001
0000
0000
0000
,  // measure 38
0100
0000
0100
0000
,  // measure 39
0100
0000
0000
0000
,  // measure 40
0001
0000
0001
0000
,  // measure 41
0001
0000
0000
0000
,  // measure 42
1000
0000
0000
0000
,  // measure 43
1000
0000
0000
0000
,  // measure 44
0100
0000
0100
0000
,  // measure 45
0100
0000
0000
0000
,  // measure 46
0010
0000
0010
0000
,  // measure 47
0010
0000
0000
0000
,  // measure 48
0001
0000
0000
0000
,  // measure 49
0001
0000
0000
0000
,  // measure 50
0000
0000
0000
0000
,  // measure 51
1000
0000
0000
0000
,  // measure 52
0010
0000
0010
0000
,  // measure 53
0020
0000
0030
0000
,  // measure 54
1000
0000
1000
0000
,  // measure 55
1000
0000
0000
0000
,  // measure 56
0010
0000
0010
0000
,  // measure 57
0010
0000
0000
0000
,  // measure 58
0100
0000
0100
0000
,  // measure 59
0100
0000
0000
0000
,  // measure 60
0001
0000
0001
0000
,  // measure 61
0001
0000
0000
0000
,  // measure 62
0100
0000
0100
0000
,  // measure 63
0100
0000
0000
0000
,  // measure 64
0010
0000
0010
0000
,  // measure 65
0010
0000
0000
0000
,  // measure 66
1000
0000
1000
0000
,  // measure 67
1000
0000
0000
0000
,  // measure 68
0100
0000
0100
0000
,  // measure 69
0100
0000
0010
0000
,  // measure 70
0220
0000
0000
0000
,  // measure 71
0000
0000
0330
0000
,  // measure 72
0010
0000
0000
0000
,  // measure 73
0010
0000
0000
0000
,  // measure 74
0001
0000
0001
0000
,  // measure 75
0001
0000
0000
0000
,  // measure 76
1000
0000
0000
0000
,  // measure 77
1000
0000
0000
0000
,  // measure 78
0010
0000
0010
0000
,  // measure 79
0010
0000
0000
0000
,  // measure 80
1000
0000
1000
0000
,  // measure 81
1000
0000
0000
0000
,  // measure 82
0010
0000
0010
0000
,  // measure 83
0010
0000
0000
0000
,  // measure 84
0100
0000
0000
0000
,  // measure 85
0100
0000
0000
0000
,  // measure 86
0001
0000
0001
0000
,  // measure 87
0001
0000
0000
0000
,  // measure 88
1000
0000
1000
0000
,  // measure 89
1000
0000
0000
0000
,  // measure 90
0100
0000
0000
0000
,  // measure 91
0100
0000
0000
0000
,  // measure 92
0000
0000
0000
0000
,  // measure 93
0010
0000
0000
0000
,  // measure 94
0001
0000
0001
0000
,  // measure 95
0002
0000
0003
0000
,  // measure 96
0100
0000
0100
0000
,  // measure 97
0100
0000
0000
0000
,  // measure 98
0010
0000
0010
0000
,  // measure 99
0010
0000
0000
0000
,  // measure 100
1000
0000
1000
0000
,  // measure 101
1000
0000
0000
0000
,  // measure 102
0001
0000
0001
0000
,  // measure 103
0001
0000
0000
0000
,  // measure 104
0010
0000
0010
0000
,  // measure 105
0010
0000
0000
0000
,  // measure 106
0100
0000
0100
0000
,  // measure 107
0100
0000
0000
0000
,  // measure 108
1000
0000
1000
0000
,  // measure 109
1000
0000
0000
0000
,  // measure 110
0001
0000
0001
0000
,  // measure 111
0001
0000
1000
0000
,  // measure 112
2002
0000
0000
0000
,  // measure 113
0000
0000
0000
3003
,  // measure 114
0000
0000
0000
0000
,  // measure 115
0000
0000
0000
0000
,  // measure 116
0001
0000
0001
0000
,  // measure 117
0001
0000
0000
0000
,  // measure 118
0100
0000
0100
0000
,  // measure 119
0100
0000
0000
0000
,  // measure 120
0010
0000
0010
0000
,  // measure 121
0010
0000
0000
0000
,  // measure 122
2000
0000
3000
0000
,  // measure 123
0000
0000
0000
0000
,  // measure 124
0002
0000
0003
0000
,  // measure 125
0000
0000
0000
0000
,  // measure 126
0100
0000
0100
0000
,  // measure 127
0100
0000
0000
0000
,  // measure 128
0001
0000
0001
0000
,  // measure 129
0001
0000
0000
0000
,  // measure 130
1000
0000
1000
0000
,  // measure 131
2000
0000
3000
0000
,  // measure 132
0010
0000
0010
0000
,  // measure 133
0020
0000
0030
0000
,  // measure 134
2000
0000
3000
0000
,  // measure 135
0001
0000
0001
0000
,  // measure 136
0001
0000
0000
0000
,  // measure 137
0100
0000
0100
0000
,  // measure 138
0100
0000
0000
0000
,  // measure 139
0010
0010
0010
0000
,  // measure 140
0020
0000
0030
0000
,  // measure 141
1000
0000
1000
0000
,  // measure 142
1000
0000
0000
0000
,  // measure 143
0001
0000
0001
0000
,  // measure 144
0001
0000
0000
0000
,  // measure 145
0100
0000
0100
0000
,  // measure 146
0100
0000
0000
0000
,  // measure 147
0001
0001
0001
0000
,  // measure 148
0001
0000
0001
0000
,  // measure 149
0010
0000
0010
0000
,  // measure 150
0010
0000
0000
0000
,  // measure 151
0001
0000
0001
0000
,  // measure 152
0001
0000
0000
0000
,  // measure 153
1000
0000
1000
0000
,  // measure 154
1000
0000
0000
0000
,  // measure 155
0100
0100
0100
0000
,  // measure 156
0200
0000
0300
0000
,  // measure 157
0010
0000
0010
0000
,  // measure 158
0010
0000
0000
0000
,  // measure 159
0001
0000
0001
0000
,  // measure 160
0001
0000
0000
0000
,  // measure 161
0100
0000
0100
0000
,  // measure 162
0100
0000
0000
0000
,  // measure 163
0010
0010
0010
0000
,  // measure 164
0020
0030
0010
0000
,  // measure 165
2000
3000
1000
0000
,  // measure 166
2002
0000
0000
0000
,  // measure 167
0000
0000
0000
3003
,  // measure 168
0000
0000
0000
0000
,  // measure 169
0000
0000
0001
0001
,  // measure 170
0001
0000
0000
0000
;
