#TITLE:Pina Colada Boy;
#SUBTITLE:(Nightcore Mix);
#ARTIST:Baby Alice;
#TITLETRANSLIT:;
#SUBTITLETRANSLIT:;
#ARTISTTRANSLIT:;
#GENRE:Nightcore Pop;
#CREDIT:Ace Of Hearts;
#BANNER:Pina Colada Boy - bn.png;
#BACKGROUND:Pina Colada Boy - bg.png;
#LYRICSPATH:;
#CDTITLE:Ace Of Hearts.png;
#MUSIC:Pina Colada Boy (Nightcore Mix).ogg;
#OFFSET:0.760;
#SAMPLESTART:30.800;
#SAMPLELENGTH:12.000;
#SELECTABLE:YES;
#BPMS:0.000=141.250,244.000=70.625,252.000=141.250;
#STOPS:268.000=1.274
;
#BGCHANGES:;
#KEYSOUNDS:;

//---------------dance-single - Hard----------------
#NOTES:
     dance-single:
     Ace Of Hearts (2011):
     Hard:
     9:
     0.665,0.000,0.296,0.766,0.393: // measure 1
0000
0000
0000
0000
,  // measure 2
0000
0000
0000
0000
,  // measure 3
0000
0000
0000
0000
,  // measure 4
0000
0000
0000
0000
,  // measure 5
0000
0000
0000
0000
,  // measure 6
0000
0000
0000
0000
,  // measure 7
0000
0000
0000
0000
,  // measure 8
0000
0000
0000
0000
,  // measure 9
0000
0000
0000
0000
,  // measure 10
0000
0000
1000
0010
2000
0000
3001
0000
0010
0000
0100
0000
2000
0000
0000
0000
,  // measure 11
3000
0000
0001
0100
0001
0000
1000
0000
0100
0000
0010
0000
0002
0000
0000
0000
,  // measure 12
0003
1000
0010
0000
0100
0000
0010
0000
1000
0000
0001
0000
0020
0000
0000
0031
,  // measure 13
1000
0000
0010
0000
0200
0000
0000
0310
1000
0000
0001
0000
0020
0000
0000
0000
,  // measure 14
0030
0000
0001
1000
0001
0000
0100
0000
0010
0000
0100
0000
0002
0000
0000
0000
,  // measure 15
0003
1000
0100
1000
0001
0100
0020
0000
,  // measure 16
0030
0000
1000
0010
1000
0000
0001
0000
0010
0000
0100
0000
2000
0000
0000
3001
,  // measure 17
0100
0000
0010
0000
2000
0000
0000
3010
0000
0000
0100
0000
0002
0000
0000
0000
,  // measure 18
0003
0000
0000
0000
0000
0000
1000
0100
0000
0010
0000
0000
0000
0000
0001
0010
,  // measure 19
0001
0000
0000
1000
0000
0100
0000
0010
0000
0000
0000
0000
0000
0000
0000
0002
0000
0000
1003
0000
0000
0010
0000
0000
,  // measure 20
0210
0000
0000
0301
0000
0000
2002
0000
0003
0000
3010
0000
0100
0000
0001
0000
,  // measure 21
0021
0000
0000
0130
0000
0000
2200
0000
0300
0000
3001
0000
0100
0000
0010
0000
,  // measure 22
1010
0000
0000
1000
0000
0000
1200
0000
0000
0000
0310
0000
0001
0000
1000
0000
,  // measure 23
0020
0000
0000
0032
0000
0000
0203
0000
0000
0000
1300
0000
0001
0000
1000
0000
,  // measure 24
1020
0000
0000
0130
0000
0000
0202
0000
0300
0000
1003
0000
0100
0000
0010
0000
,  // measure 25
0011
0000
0000
0001
0000
0000
0202
0000
0003
0000
0310
0000
1000
0000
0100
0000
,  // measure 26
0110
0000
0000
0010
0000
0000
0012
0000
0000
0000
1003
0000
1000
0000
0010
0000
,  // measure 27
0110
0000
0000
0100
0000
0000
0102
0000
0000
0000
1003
0100
1000
0100
1000
0000
,  // measure 28
0002
0000
0000
0000
0013
0000
0100
1000
0000
1000
0001
0000
0100
0000
0010
0000
,  // measure 29
0200
0000
0000
0000
0301
0000
1000
0100
0000
0100
0010
0000
0001
0000
1000
0000
,  // measure 30
0020
0000
0000
0000
0130
0000
0001
1000
0000
1000
0010
0000
0100
0000
0001
0000
,  // measure 31
2000
0000
0000
0000
3100
0000
0010
0001
0000
0001
1000
0000
0100
0000
0010
0000
,  // measure 32
0200
0000
0000
0000
1300
0000
0001
0100
0000
0100
0010
0000
1000
0000
0001
0000
,  // measure 33
0020
0000
0000
0000
0130
0000
0010
0001
0000
0001
1000
0000
0010
0000
0100
0000
,  // measure 34
0002
0000
0000
0000
0013
0000
0100
1000
0000
1000
0001
0000
0100
0000
0010
0000
,  // measure 35
2000
0000
0000
0000
3001
0000
0100
0010
0000
0010
1000
0000
0001
0000
0010
0000
,  // measure 36
0000
0001
1000
0010
0100
0001
2000
0000
,  // measure 37
3000
0001
0010
0001
0010
0000
0100
0000
0010
0000
0001
0000
2000
0000
0000
0000
,  // measure 38
3000
0010
1000
0010
1000
0000
0001
0000
0010
0000
0100
0000
2000
0000
0000
0000
,  // measure 39
3001
0000
0100
0000
0020
0000
0000
0130
0001
0000
1000
0000
0200
0000
0000
0000
,  // measure 40
0300
0000
0010
0001
0010
0000
0100
0000
1000
0000
0001
0000
0200
0000
0000
0000
,  // measure 41
0300
0000
0010
1000
0010
0000
0100
0000
0001
0000
1000
0000
0020
0000
0000
0000
,  // measure 42
0030
0000
1000
0000
0001
0000
0010
0100
0010
0000
0001
0000
2000
0000
0000
3010
,  // measure 43
0100
0000
0010
0000
2000
0000
0000
3001
0010
0000
0100
0000
2000
0000
0000
0000
,  // measure 44
3000
0000
0000
0000
0000
0000
0001
0000
0100
0001
0200
0000
0000
0000
0300
0000
,  // measure 45
0010
0000
1000
0001
1000
0000
0000
0000
0000
0000
0020
0000
0130
0000
0001
0000
,  // measure 46
2001
0000
0000
3100
0000
0000
0220
0000
0300
0000
0031
0000
1000
0000
0010
0000
,  // measure 47
0210
0000
0000
0301
0000
0000
0022
0000
0003
0000
0130
0000
1000
0000
0001
0000
,  // measure 48
2001
0000
0000
3010
0000
0000
0210
0000
0000
0000
0301
0000
1000
0000
0010
0000
,  // measure 49
2000
0000
0000
3200
0000
0000
0302
0000
0000
0000
0013
0000
1000
0000
0100
0000
,  // measure 50
0120
0000
0000
0031
0000
0000
0202
0000
0003
0000
0310
0000
1000
0000
0001
0000
,  // measure 51
0021
0000
0000
0130
0000
0000
2200
0000
0300
0000
3001
0000
0100
0000
0001
0000
,  // measure 52
1001
0000
0000
1000
0000
0000
1020
0000
0000
0000
0130
0000
0100
0000
0001
0000
,  // measure 53
2001
0000
0000
3100
0000
0000
0200
0000
0000
0000
0310
0001
0010
0001
0010
0000
,  // measure 54
0200
0000
0000
0000
1300
0000
0001
0100
0000
0100
0010
0000
1000
0000
0001
0000
,  // measure 55
0020
0000
0000
0000
0130
0000
1000
0001
0000
0001
0100
0000
0010
0000
1000
0000
,  // measure 56
0002
0000
0000
0000
0013
0000
0100
1000
0000
1000
0001
0000
0100
0000
0010
0000
,  // measure 57
2000
0000
0000
0000
3001
0000
0010
0001
0000
0001
0100
0000
0010
0000
1000
0000
,  // measure 58
0002
0000
0000
0000
0013
0000
0100
1000
0000
1000
0001
0000
0100
0000
0010
0000
,  // measure 59
0200
0000
0000
0000
0301
0000
1000
0100
0000
0100
0010
0000
0001
0000
1000
0000
,  // measure 60
0020
0000
0000
0000
0130
0000
0001
0100
0000
0100
0010
0000
1000
0000
0001
0000
,  // measure 61
0020
0000
0000
0000
0130
0000
1000
0001
0000
0001
1000
0000
0100
0000
0010
0000
,  // measure 62
0000
0000
0000
0000
0000
0000
0001
0000
0010
0000
0001
0000
1000
0000
0010
0000
2000
0000
0000
0000
3000
0000
0001
0010
0001
0000
1000
0000
0010
0000
0100
0000
,  // measure 63
0002
0000
0003
1000
0010
1000
0001
0010
0200
0000
0300
0010
0001
1000
0010
0100
,  // measure 64
0002
0000
0003
1000
0100
0010
0100
1000
,  // measure 65
0002
0000
0003
1000
0010
0100
0010
1000
,  // measure 66
0002
0000
0003
0010
0100
0010
0001
1000
,  // measure 67
0200
0000
0300
1000
0001
0100
0010
1000
,  // measure 68
1001
0000
0000
0000
0201
0000
0000
0300
0120
0000
0000
0030
2010
0000
3001
0000
,  // measure 69
0010
0000
0100
0000
2100
0000
0000
3001
0000
0000
0202
0000
0003
0000
0310
0000
,  // measure 70
1000
0000
0100
0000
0120
0000
0000
0031
0000
0000
2002
0000
0003
0000
3010
0000
,  // measure 71
0100
0000
0001
0000
0021
0000
0000
0130
0000
0000
2100
0000
0000
0000
3001
0000
,  // measure 72
0100
0000
0010
0000
2000
0000
0000
3020
0000
0000
0032
0000
0000
0000
0103
0000
,  // measure 73
1000
0000
0001
0000
0201
0000
0000
0310
0000
0000
2010
0000
0000
0000
3001
0000
,  // measure 74
0100
0000
0010
0000
2010
0000
0000
3001
0000
0000
0021
0000
0000
0000
0130
0000
,  // measure 75
1000
0000
0001
0000
0201
0000
0000
0310
0000
0000
2010
0000
0000
0000
3001
0000
,  // measure 76
0001
0000
0010
0000
0210
0000
0000
1300
0000
0000
2000
0000
0000
0000
3001
0100
,  // measure 77
0001
0100
0001
0000
2000
0000
0000
0000
3100
0000
0010
0001
0000
0001
1000
0000
,  // measure 78
0010
0000
0100
0000
0002
0000
0000
0000
0013
0000
0100
1000
0000
1000
0001
0000
,  // measure 79
0100
0000
0010
0000
2000
0000
0000
0000
3100
0000
0010
0001
0000
0001
0100
0000
,  // measure 80
0010
0000
1000
0000
0002
0000
0000
0000
0013
0000
0100
1000
0000
1000
0001
0000
,  // measure 81
0100
0000
0010
0000
0200
0000
0000
0000
0301
0000
1000
0100
0000
0100
0010
0000
,  // measure 82
0100
0000
1000
0000
0002
0000
0000
0000
0103
0000
0010
0100
0000
0100
0001
0000
,  // measure 83
1000
0000
0100
0000
0020
0000
0000
0000
0031
0000
1000
0010
0000
0010
0100
0000
,  // measure 84
0001
0000
1000
0000
0200
0000
0000
0000
0310
0000
0100
1000
0000
1000
0001
0000
,  // measure 85
0100
0010
0000
0000
0000
0000
0000
0000
;

//---------------dance-single - Expert----------------
#NOTES:
     dance-single:
     Ace Of Hearts (2011):
     Challenge:
     11:
     0.841,0.000,0.491,0.874,0.598: // measure 1
0000
0000
0000
0000
,  // measure 2
0000
0000
0000
0000
,  // measure 3
0000
0000
0000
0000
,  // measure 4
0000
0000
0000
0000
,  // measure 5
0000
0000
0000
0000
,  // measure 6
0000
0000
0000
0000
,  // measure 7
0000
0000
0000
0000
,  // measure 8
0000
0000
0000
0000
,  // measure 9
0000
0000
0000
0000
,  // measure 10
0000
0000
0001
0010
0100
0000
0010
0000
0012
0000
1003
0000
1010
0000
0010
0000
,  // measure 11
0100
0000
0001
1000
0100
0000
1000
0000
1002
0000
0103
0000
0110
0000
0010
0000
,  // measure 12
1000
0001
0010
0000
0100
0000
0010
0000
0012
0000
1003
0000
0200
0000
0310
0001
,  // measure 13
1000
0000
0010
0000
0210
0000
0301
1000
1100
0000
0100
0000
0120
0000
0031
0000
,  // measure 14
1001
0000
1000
0010
0100
0000
0001
0000
0021
0000
0130
0000
1000
0000
0001
0000
,  // measure 15
0101
0100
0110
0010
1000
0001
0100
0010
,  // measure 16
1010
0000
1000
0001
0010
0000
0100
0000
0010
0000
0001
0000
1000
0000
0010
0100
,  // measure 17
0001
0000
1000
0000
0200
0000
0300
0110
0000
0000
0010
0000
0022
0000
0033
0000
,  // measure 18
1001
0000
0000
0000
0000
0000
1000
0010
0000
0100
0000
0000
0000
0000
0001
1000
,  // measure 19
0100
0000
0000
0000
0000
0000
0010
0000
0000
0000
0100
0000
0000
0000
1000
0000
0000
0000
0000
0000
0000
0000
0000
0000
0000
0000
0000
0000
0000
0000
0001
0000
0000
0100
0000
0000
0001
0000
0000
0000
0000
0000
1000
0000
0000
0000
0000
0000
,  // measure 20
1200
0000
0310
0001
0000
0000
2001
0000
0000
0000
3010
0100
0001
0000
1000
0000
,  // measure 21
1200
0000
0310
0001
0000
0000
0201
0000
0000
0000
0310
1000
0001
0000
0010
0000
,  // measure 22
0210
0000
1300
0001
0000
0000
0201
0000
0000
0000
0320
0000
0032
0000
0203
0000
,  // measure 23
2300
0000
0000
3002
0000
0000
0203
0000
0000
0000
0310
1000
0001
0000
0010
0000
,  // measure 24
0210
0000
1300
0001
0000
0000
0201
0000
0000
0000
0310
1000
0001
0000
0010
0000
,  // measure 25
0210
0000
1300
0001
0000
0000
0201
0000
0000
0000
0310
0000
1000
0000
0001
0000
,  // measure 26
0021
0000
0130
1000
0001
0000
0021
0000
0000
0000
0130
1000
0001
0000
0100
0000
,  // measure 27
0120
0000
0000
0000
0000
0000
1030
0000
0000
0001
0000
0000
0000
0000
0000
0000
0000
0000
0201
0000
0000
0000
0000
0000
0310
0000
1000
0000
0010
0000
1000
0000
0000
0001
0000
0000
0010
0000
0000
0001
0000
0000
1000
0000
0000
0000
0000
0000
,  // measure 28
0020
0000
0130
0000
0001
0000
1000
0100
0000
0100
1000
0001
0100
0000
0010
0000
,  // measure 29
2000
0000
3001
0000
0100
0000
0010
0100
0000
0100
0001
1000
0100
0000
0010
0000
,  // measure 30
0200
0000
1300
0000
0001
0000
0100
0010
0000
0010
1000
0001
0010
0000
0200
0000
,  // measure 31
0000
0000
0000
0000
1300
0000
0001
0100
0000
0100
0010
0000
1000
0000
0001
0000
,  // measure 32
0020
0000
0130
0000
1000
0000
0001
0100
0000
0100
0010
1000
0002
0000
1003
0000
,  // measure 33
0020
0000
0130
0000
0001
0000
1000
0100
0000
0100
0010
0100
2000
0000
3001
0000
,  // measure 34
0200
0000
0310
0000
1000
0000
0001
0010
0000
0010
0001
1000
0020
0000
0130
0000
,  // measure 35
0002
0000
1003
0000
0100
0000
0010
0001
0000
0001
1000
0000
0200
0000
0310
0000
,  // measure 36
0011
0001
1000
0010
0110
0100
0001
1000
,  // measure 37
0100
0010
0001
0010
0100
0000
1000
0000
1001
0000
0001
0000
0100
0000
0010
1000
,  // measure 38
0001
0010
0001
1000
0010
0000
0100
0001
1000
0000
0100
0000
0110
0000
0010
0001
,  // measure 39
1000
0000
0010
0000
0200
0000
0301
1000
0100
0000
1000
0000
0001
0000
0100
0010
,  // measure 40
1000
0000
0001
0010
0100
0000
0010
0001
1000
0000
0010
0000
0110
0000
0100
0000
,  // measure 41
0001
0000
1000
0100
0010
0000
0100
1000
0001
0000
0100
0000
0110
0000
0010
1000
,  // measure 42
0001
0000
0010
0000
0001
0000
1000
0100
0020
0000
0130
0000
2100
0000
0000
3001
,  // measure 43
0100
0000
0010
0000
2000
0000
0000
3001
0010
0000
0100
0000
2200
0000
0000
0000
,  // measure 44
3300
0000
0000
0000
0000
0000
1000
0000
0001
0100
0020
0000
0000
0000
0030
0000
,  // measure 45
0100
0000
0001
1000
0002
0000
0000
0000
0003
0000
0010
0100
1000
0000
0001
0000
,  // measure 46
1002
0000
0103
0010
0000
0000
2010
0000
0000
0000
3001
0010
0100
0000
1000
0000
,  // measure 47
1020
0000
0130
0001
0000
0000
2001
0000
0000
0000
3100
0010
0001
0000
1000
0000
,  // measure 48
1200
0000
0310
0001
0000
0000
0201
0000
0000
0000
0320
0000
2030
0000
3200
0000
,  // measure 49
0302
0000
0000
0023
0000
0000
0230
0000
0000
0000
0301
1000
0100
0000
0010
0000
,  // measure 50
0012
0000
1003
0010
0000
0000
0210
0000
0000
0000
0301
0010
0100
0000
1000
0000
,  // measure 51
1002
0000
0103
0010
0000
0000
2010
0000
0000
0000
3001
0010
0001
0000
1000
0000
,  // measure 52
1020
0000
0130
0001
0000
0000
0021
0000
0000
0000
0130
1000
0001
0000
0100
0000
,  // measure 53
0120
0000
0000
0000
0000
0000
1030
0000
0000
0001
0000
0000
0000
0000
0000
0000
0000
0000
0021
0000
0000
0000
0000
0000
0130
0000
1000
0000
0100
0000
1000
0000
0000
0001
0000
0000
0100
0000
0000
0010
0000
0000
1000
0000
0000
0000
0000
0000
,  // measure 54
0002
0000
0103
0000
0010
0000
1000
0001
0000
0001
0010
0100
2000
0000
3001
0000
,  // measure 55
0200
0000
0310
0000
1000
0000
0001
0010
0000
0010
0001
1000
0020
0000
0130
0000
,  // measure 56
0002
0000
1003
0000
0100
0000
1000
0001
0000
0001
0100
0010
0200
0000
0302
0000
,  // measure 57
0000
0000
0000
0000
1003
0000
0010
0100
0000
0100
0001
0000
2000
0000
3010
0000
,  // measure 58
0200
0000
0301
0000
1000
0000
0001
0100
0000
0100
0010
1000
0002
0000
0013
0000
,  // measure 59
0200
0000
1300
0000
0001
0000
0100
0010
0000
0010
1000
0001
0020
0000
0130
0000
,  // measure 60
2000
0000
3001
0000
0100
0000
0001
1000
0000
1000
0100
0010
0200
0000
1300
0000
,  // measure 61
0002
0000
1003
0000
0010
0000
1000
0001
0000
0001
0010
0100
0020
0000
0031
0000
,  // measure 62
0000
0000
0000
0000
0000
0000
1000
0000
0010
0000
1000
0000
0001
0000
0010
0000
0002
0000
0000
0000
0000
0000
1003
0100
1000
0000
0001
0000
0100
0000
0010
0000
,  // measure 63
0200
0000
0300
0001
1000
0100
0010
0100
2000
0000
3000
0001
0100
0010
1000
0010
,  // measure 64
0200
0000
0301
1000
0100
0000
0010
0000
0001
0000
1000
0010
0100
0000
0001
0000
,  // measure 65
2001
0000
3100
0010
0001
0000
1000
0000
0010
0000
0100
0010
1000
0000
0001
0000
,  // measure 66
0201
0000
0310
0100
0001
0000
1000
0000
0100
0000
0010
0100
1000
0000
0001
0000
,  // measure 67
0201
0000
0310
1000
0001
0000
0010
0000
0100
0000
1000
0001
0100
0000
0010
0000
,  // measure 68
2020
0000
0000
3030
1001
0000
0000
0000
1110
0000
0000
0000
0111
0000
0001
0010
,  // measure 69
0100
0000
1000
0000
1002
0000
0103
0010
0000
0000
2010
0000
0000
0000
3001
0010
,  // measure 70
0100
0000
0010
0000
0012
0000
1003
0010
0000
0000
0210
0000
0000
0000
0301
1000
,  // measure 71
0100
0000
0010
0000
0012
0000
1003
0010
0000
0000
0210
0000
0000
0000
0302
0000
,  // measure 72
0023
0000
2030
0000
3200
0000
0000
0302
0000
0000
2003
0000
0000
0000
3100
0010
,  // measure 73
0001
0000
1000
0000
1020
0000
0130
0001
0000
0000
0021
0000
0000
0000
0130
1000
,  // measure 74
0001
0000
0100
0000
0120
0000
1030
0001
0000
0000
0201
0000
0000
0000
0310
1000
,  // measure 75
0001
0000
0010
0000
0210
0000
1300
0001
0000
0000
0021
0000
0000
0000
0130
1000
,  // measure 76
0001
0000
0000
0000
0000
0000
0100
0000
0000
0000
0000
0000
0120
0000
0000
0000
0000
0000
1030
0000
0000
0001
0000
0000
0000
0000
0000
0000
0000
0000
2001
0000
0000
0000
0000
0000
3010
0000
0100
0000
0010
0000
0100
0000
0000
0001
0000
0000
,  // measure 77
1000
0100
0010
0000
0200
0000
1300
0000
0001
0000
1000
0010
0000
0010
0100
0001
,  // measure 78
2000
0000
3100
0000
0020
0000
0130
0000
1000
0000
0001
0100
0000
0100
0010
1000
,  // measure 79
0002
0000
0103
0000
0020
0000
1030
0000
0001
0000
1000
0100
0000
0100
0010
0001
,  // measure 80
2000
0000
3200
0000
0000
0000
0000
0000
0310
0000
0001
1000
0000
1000
0010
0100
,  // measure 81
0001
0000
1000
0000
0200
0000
0310
0000
0001
0000
1000
0010
0000
0010
0100
0001
,  // measure 82
2000
0000
3100
0000
0020
0000
0130
0000
1000
0000
0001
0100
0000
0100
0010
1000
,  // measure 83
0002
0000
0013
0000
0200
0000
0310
0000
0001
0000
1000
0010
0000
0010
0100
0010
,  // measure 84
2000
0000
3002
0000
0000
0000
0000
0000
0013
0000
0100
1000
0000
1000
0001
0000
,  // measure 85
0200
0310
0000
0000
0000
0000
0000
0000
;

//---------------dance-single - Medium----------------
#NOTES:
     dance-single:
     Ace Of Hearts (2011):
     Medium:
     7:
     0.492,0.000,0.034,0.544,0.175: // measure 1
0000
0000
0000
0000
,  // measure 2
0000
0000
0000
0000
,  // measure 3
0000
0000
0000
0000
,  // measure 4
0000
0000
0000
0000
,  // measure 5
0000
0000
0000
0000
,  // measure 6
0000
0000
0000
0000
,  // measure 7
0000
0000
0000
0000
,  // measure 8
0000
0000
0000
0000
,  // measure 9
0000
0000
0000
0000
,  // measure 10
0000
0001
0010
0001
1000
0001
2000
0000
,  // measure 11
3000
0010
1000
0010
1000
0001
2000
0000
,  // measure 12
3000
0001
0010
0001
0010
0100
2000
0000
,  // measure 13
3001
0100
0002
0000
1003
0010
1000
0000
,  // measure 14
0000
0010
1000
0010
1000
0001
1000
0000
,  // measure 15
0000
0001
0100
0001
0100
0010
0100
0000
,  // measure 16
0000
0010
1000
0010
1000
0001
2000
0000
,  // measure 17
3001
0010
0002
0000
1003
0100
1000
0000
,  // measure 18
2002
0000
0000
0000
,  // measure 19
0000
0000
3003
0000
0000
0001
0010
0001
,  // measure 20
0020
0000
0000
0130
0000
0000
2000
0000
0000
0000
3001
0000
0100
0000
0001
0000
,  // measure 21
2000
0000
0000
3100
0000
0000
0020
0000
0000
0000
0031
0000
1000
0000
0001
0000
,  // measure 22
0010
0000
0000
0100
0000
0000
0100
0000
0000
0000
1000
0000
0001
0000
1000
0000
,  // measure 23
0010
0000
0000
0001
0000
0000
0010
0000
0000
0000
1000
0000
0010
0000
1000
0000
,  // measure 24
0020
0000
0000
0130
0000
0000
0002
0000
0000
0000
1003
0000
0100
0000
1000
0000
,  // measure 25
0200
0000
0000
0310
0000
0000
0002
0000
0000
0000
1003
0000
0100
0000
1000
0000
,  // measure 26
0100
0000
0000
0010
0000
0000
0010
0000
0000
0000
0001
0000
1000
0000
0001
0000
,  // measure 27
1000
0000
0000
0100
0000
0000
0100
0000
0000
0000
4000
0000
0000
0000
3000
0000
,  // measure 28
0002
0000
0000
0000
1003
0000
0000
0010
0000
0000
1000
0000
0010
0000
1000
0000
,  // measure 29
0002
0000
0000
0000
0013
0000
0000
0001
0000
0000
1000
0000
0010
0000
1000
0000
,  // measure 30
0002
0000
0000
0000
0013
0000
0000
0100
0000
0000
0010
0000
0001
0000
2000
0000
,  // measure 31
0000
0000
0000
0000
3001
0000
0000
0010
0000
0000
0001
0000
1000
0000
0001
0000
,  // measure 32
2000
0000
0000
0000
3010
0000
0000
1000
0000
0000
0001
0000
0010
0000
0001
0000
,  // measure 33
2000
0000
0000
0000
3100
0000
0000
0010
0000
0000
0100
0000
1000
0000
0100
0000
,  // measure 34
0020
0000
0000
0000
0031
0000
0000
1000
0000
0000
0010
0000
1000
0000
0020
0000
,  // measure 35
0000
0000
0000
0000
0130
0000
0000
0001
0000
0000
1000
0000
0010
0000
1000
0000
,  // measure 36
0000
0001
0100
0001
1000
0001
1000
0000
,  // measure 37
0000
0001
0010
0001
0010
0100
1000
0000
,  // measure 38
0000
0001
0100
0001
0100
0010
0100
0000
,  // measure 39
0001
1000
0002
0000
0013
0100
2000
0000
,  // measure 40
3000
0001
0100
0001
1000
0010
2000
0000
,  // measure 41
3000
0010
1000
0010
0100
0001
0200
0000
,  // measure 42
0300
0010
0100
0010
1000
0001
2000
0000
,  // measure 43
3010
1000
0020
0000
0130
0001
0100
0000
,  // measure 44
0220
0000
0000
0000
,  // measure 45
0000
0000
0330
0000
0000
0010
1000
0010
,  // measure 46
2000
0000
0000
3001
0000
0000
0200
0000
0000
0000
0301
0000
0100
0000
0001
0000
,  // measure 47
2000
0000
0000
3001
0000
0000
0020
0000
0000
0000
0031
0000
0010
0000
0001
0000
,  // measure 48
1000
0000
0000
0100
0000
0000
0200
0000
0000
0000
0310
0000
0001
0000
1000
0000
,  // measure 49
0010
0000
0000
0001
0000
0000
0020
0000
0000
0000
1030
0000
0010
0000
1000
0000
,  // measure 50
0002
0000
0000
0013
0000
0000
0200
0000
0000
0000
1300
0000
0001
0000
1000
0000
,  // measure 51
0002
0000
0000
0013
0000
0000
0200
0000
0000
0000
0310
0000
0001
0000
1000
0000
,  // measure 52
0001
0000
0000
0010
0000
0000
0020
0000
0000
0000
0130
0000
1000
0000
0100
0000
,  // measure 53
1000
0000
0000
0001
0000
0000
0002
0000
0000
0000
0403
0000
0000
0000
0300
0000
,  // measure 54
0020
0000
0000
0000
1030
0000
0000
0001
0000
0000
0010
0000
0001
0000
0010
0000
,  // measure 55
0002
0000
0000
0000
1003
0000
0000
0010
0000
0000
1000
0000
0010
0000
1000
0000
,  // measure 56
0002
0000
0000
0000
0013
0000
0000
0100
0000
0000
1000
0000
0100
0000
2000
0000
,  // measure 57
0000
0000
0000
0000
3001
0000
0000
0100
0000
0000
0001
0000
1000
0000
0001
0000
,  // measure 58
0020
0000
0000
0000
0031
0000
0000
1000
0000
0000
0001
0000
0010
0000
0001
0000
,  // measure 59
2000
0000
0000
0000
3010
0000
0000
0100
0000
0000
0010
0000
1000
0000
0010
0000
,  // measure 60
0200
0000
0000
0000
0301
0000
0000
1000
0000
0000
0001
0000
0010
0000
0002
0000
,  // measure 61
0000
0000
0000
0000
1003
0000
0000
0010
0000
0000
1000
0000
0001
0000
1000
0000
,  // measure 62
0000
0000
0000
0001
0010
0000
0001
0000
2000
0000
0000
3001
0010
0000
0100
0000
,  // measure 63
0020
0000
0000
0130
1000
0000
0001
0000
2000
0000
0000
3001
0010
0000
0001
0000
,  // measure 64
2000
0000
0000
3010
0100
0001
0100
0010
,  // measure 65
0200
0000
0300
0001
0100
0001
1000
0001
,  // measure 66
2000
0000
3000
0001
0010
0100
0010
0001
,  // measure 67
2000
0000
3000
0001
0100
0010
0100
0001
,  // measure 68
1000
0000
1001
0000
0110
0000
1001
0001
,  // measure 69
0010
0000
0001
0000
2000
0000
0000
3010
0000
0000
0200
0000
0000
0000
0301
0000
,  // measure 70
0100
0000
0001
0000
2000
0000
0000
3100
0000
0000
0020
0000
0000
0000
0130
0000
,  // measure 71
1000
0000
0001
0000
2000
0000
0000
3001
0000
0000
0200
0000
0000
0000
0310
0000
,  // measure 72
1000
0000
0001
0000
0100
0000
0000
1000
0000
0000
0200
0000
0000
0000
0301
0000
,  // measure 73
0100
0000
0010
0000
0200
0000
0000
0301
0000
0000
2000
0000
0000
0000
3001
0000
,  // measure 74
0010
0000
0001
0000
2000
0000
0000
3010
0000
0000
0200
0000
0000
0000
0301
0000
,  // measure 75
0100
0000
0001
0000
2000
0000
0000
3100
0000
0000
0020
0000
0000
0000
0130
0000
,  // measure 76
1000
0000
0001
0000
1000
0000
0000
0010
0000
0000
0020
0000
0000
0000
0430
0000
,  // measure 77
0000
0000
0300
0000
0002
0000
0000
0000
1003
0000
0000
0010
0000
0000
1000
0000
,  // measure 78
0010
0000
1000
0000
0002
0000
0000
0000
0013
0000
0000
0100
0000
0000
1000
0000
,  // measure 79
0100
0000
1000
0000
0002
0000
0000
0000
0103
0000
0000
0010
0000
0000
0100
0000
,  // measure 80
0001
0000
0200
0000
0000
0000
0000
0000
0310
0000
0000
1000
0000
0000
0001
0000
,  // measure 81
0010
0000
0001
0000
2000
0000
0000
0000
3010
0000
0000
0100
0000
0000
0010
0000
,  // measure 82
1000
0000
0010
0000
0200
0000
0000
0000
0301
0000
0000
1000
0000
0000
0001
0000
,  // measure 83
0010
0000
0100
0000
2000
0000
0000
0000
3001
0000
0000
1000
0000
0000
0010
0000
,  // measure 84
0100
0000
0002
0000
0000
0000
0000
0000
1003
0000
0000
0001
0000
0000
1000
0000
,  // measure 85
0100
0010
0000
0000
0000
0000
0000
0000
;

//---------------dance-single - Easy----------------
#NOTES:
     dance-single:
     Ace Of Hearts (2011):
     Easy:
     4:
     0.215,0.000,0.013,0.094,0.000: // measure 1
0000
0000
0000
0000
,  // measure 2
0000
0000
0000
0000
,  // measure 3
0000
0000
0000
0000
,  // measure 4
0000
0000
0000
0000
,  // measure 5
0000
0000
0000
0000
,  // measure 6
0000
0000
0000
0000
,  // measure 7
0000
0000
0000
0000
,  // measure 8
0000
0000
0000
0000
,  // measure 9
0000
0000
0000
0000
,  // measure 10
0000
1000
1000
1000
,  // measure 11
0000
0001
0001
0001
,  // measure 12
0000
0010
0010
0010
,  // measure 13
0001
0001
1000
1000
,  // measure 14
0000
0010
0010
0010
,  // measure 15
0000
0100
0100
0100
,  // measure 16
0000
0001
0001
0001
,  // measure 17
1000
1000
0100
0100
,  // measure 18
2000
0000
0000
0000
,  // measure 19
0000
3000
0000
0001
,  // measure 20
0001
0000
0000
0001
0000
0000
1000
0000
,  // measure 21
1000
0000
0000
1000
0000
0000
0100
0000
,  // measure 22
0100
0000
0000
0100
0000
0000
0010
0000
,  // measure 23
0020
0000
0000
0030
0000
0000
0001
0000
,  // measure 24
0001
0000
0000
0001
0000
0000
1000
0000
,  // measure 25
1000
0000
0000
1000
0000
0000
0010
0000
,  // measure 26
0010
0000
0000
0010
0000
0000
0100
0000
,  // measure 27
0200
0000
0000
0300
,  // measure 28
0010
0010
0010
0000
,  // measure 29
1000
1000
1000
0000
,  // measure 30
0001
0001
0001
0000
,  // measure 31
0200
0000
0300
0000
,  // measure 32
0010
0010
0010
0000
,  // measure 33
0100
0100
0100
0000
,  // measure 34
0001
0001
0001
0000
,  // measure 35
2000
0000
3000
0000
,  // measure 36
0000
0010
0010
0010
,  // measure 37
0000
1000
1000
1000
,  // measure 38
0000
0010
0010
0010
,  // measure 39
0100
0100
0001
0001
,  // measure 40
0000
1000
1000
1000
,  // measure 41
0000
0100
0100
0100
,  // measure 42
0000
0010
0010
0010
,  // measure 43
0001
0001
1000
1000
,  // measure 44
0002
0000
0000
0000
,  // measure 45
0000
0003
0000
1000
,  // measure 46
1000
0000
0000
1000
0000
0000
0001
0000
,  // measure 47
0001
0000
0000
0001
0000
0000
0100
0000
,  // measure 48
0100
0000
0000
0100
0000
0000
0010
0000
,  // measure 49
0020
0000
0000
0030
0000
0000
0100
0000
,  // measure 50
0100
0000
0000
0100
0000
0000
0001
0000
,  // measure 51
0001
0000
0000
0001
0000
0000
0010
0000
,  // measure 52
0010
0000
0000
0010
0000
0000
0100
0000
,  // measure 53
0200
0000
0000
0300
,  // measure 54
1000
1000
1000
0000
,  // measure 55
0001
0001
0001
0000
,  // measure 56
0100
0100
0100
0000
,  // measure 57
0020
0000
0030
0000
,  // measure 58
1000
1000
1000
0000
,  // measure 59
0010
0010
0010
0000
,  // measure 60
0100
0100
0100
0000
,  // measure 61
0002
0000
0003
0000
,  // measure 62
0000
0000
1000
1000
1000
0000
0001
0001
,  // measure 63
0001
0000
0010
0010
0010
0000
0100
0100
,  // measure 64
0100
0000
1000
1000
,  // measure 65
1000
0000
0001
0001
,  // measure 66
0001
0000
0010
0010
,  // measure 67
0010
0000
0100
0100
,  // measure 68
0100
0110
1001
0000
,  // measure 69
0001
0000
0001
0000
0000
0001
0000
0000
,  // measure 70
1000
0000
1000
0000
0000
1000
0000
0000
,  // measure 71
0100
0000
0100
0000
0000
0100
0000
0000
,  // measure 72
0010
0000
0020
0000
0000
0030
0000
0000
,  // measure 73
0001
0000
0001
0000
0000
0001
0000
0000
,  // measure 74
0010
0000
0010
0000
0000
0010
0000
0000
,  // measure 75
0100
0000
0100
0000
0000
0100
0000
0000
,  // measure 76
1000
2000
0000
0000
,  // measure 77
3000
0001
0001
0001
,  // measure 78
0000
0100
0100
0100
,  // measure 79
0000
0010
0010
0010
,  // measure 80
0000
0200
0000
0300
,  // measure 81
0000
0001
0001
0001
,  // measure 82
0000
1000
1000
1000
,  // measure 83
0000
0100
0100
0100
,  // measure 84
0000
0020
0000
0030
,  // measure 85
0001
0001
0000
0000
0000
0000
0000
0000
;

//---------------dance-single - Novice----------------
#NOTES:
     dance-single:
     Ace Of Hearts (2011):
     Beginner:
     2:
     0.131,0.000,0.007,0.121,0.000: // measure 1
0000
0000
0000
0000
,  // measure 2
0000
0000
0000
0000
,  // measure 3
0000
0000
0000
0000
,  // measure 4
0000
0000
0000
0000
,  // measure 5
0000
0000
0000
0000
,  // measure 6
0000
0000
0000
0000
,  // measure 7
0000
0000
0000
0000
,  // measure 8
0000
0000
0000
0000
,  // measure 9
0000
0000
0000
0000
,  // measure 10
0000
0000
0001
0000
,  // measure 11
0000
0000
0001
0000
,  // measure 12
0000
0000
1000
0000
,  // measure 13
1000
0000
1000
0000
,  // measure 14
0000
0000
0010
0000
,  // measure 15
0000
0000
0010
0000
,  // measure 16
0000
0000
0100
0000
,  // measure 17
0100
0000
0100
0000
,  // measure 18
0000
0000
0000
0000
,  // measure 19
0000
0000
0000
0000
,  // measure 20
0001
0000
0001
0000
,  // measure 21
0010
0000
0010
0000
,  // measure 22
0001
0000
0001
0000
,  // measure 23
2000
0000
3000
0000
,  // measure 24
0010
0000
0010
0000
,  // measure 25
1000
0000
1000
0000
,  // measure 26
0001
0000
0001
0000
,  // measure 27
0200
0000
0300
0000
,  // measure 28
0010
0000
0010
0000
,  // measure 29
1000
0000
1000
0000
,  // measure 30
0001
0000
0001
0000
,  // measure 31
0200
0000
0300
0000
,  // measure 32
0001
0000
0001
0000
,  // measure 33
0100
0000
0100
0000
,  // measure 34
0010
0000
0010
0000
,  // measure 35
2000
0000
3000
0000
,  // measure 36
0000
0000
0001
0000
,  // measure 37
0000
0000
0001
0000
,  // measure 38
0000
0000
0010
0000
,  // measure 39
0010
0000
0010
0000
,  // measure 40
0000
0000
0100
0000
,  // measure 41
0000
0000
0100
0000
,  // measure 42
0000
0000
1000
0000
,  // measure 43
1000
0000
1000
0000
,  // measure 44
0000
0000
0000
0000
,  // measure 45
0000
0000
0000
0000
,  // measure 46
0001
0000
0001
0000
,  // measure 47
0100
0000
0100
0000
,  // measure 48
0010
0000
0010
0000
,  // measure 49
2000
0000
3000
0000
,  // measure 50
0010
0000
0010
0000
,  // measure 51
1000
0000
1000
0000
,  // measure 52
0001
0000
0001
0000
,  // measure 53
0020
0000
0030
0000
,  // measure 54
0001
0000
0001
0000
,  // measure 55
1000
0000
1000
0000
,  // measure 56
0010
0000
0010
0000
,  // measure 57
0200
0000
0300
0000
,  // measure 58
0010
0000
0010
0000
,  // measure 59
1000
0000
1000
0000
,  // measure 60
0001
0000
0001
0000
,  // measure 61
0200
0000
0300
0000
,  // measure 62
0000
0020
0030
2000
,  // measure 63
3000
0002
0003
0020
,  // measure 64
0030
0000
0001
0000
,  // measure 65
0001
0000
1000
0000
,  // measure 66
1000
0000
0010
0000
,  // measure 67
0010
0000
1000
0000
,  // measure 68
1000
2002
3003
0000
,  // measure 69
0000
0001
0000
0001
,  // measure 70
0000
0100
0000
0100
,  // measure 71
0000
0010
0000
0010
,  // measure 72
0000
2000
0000
3000
,  // measure 73
0000
0001
0000
0001
,  // measure 74
0000
0010
0000
0010
,  // measure 75
0000
0001
0000
0001
,  // measure 76
0000
2000
0000
3000
,  // measure 77
0000
0010
0000
0010
,  // measure 78
0000
1000
0000
1000
,  // measure 79
0000
0001
0000
0001
,  // measure 80
0000
0020
0000
0030
,  // measure 81
0000
0001
0000
0001
,  // measure 82
0000
1000
0000
1000
,  // measure 83
0000
0100
0000
0100
,  // measure 84
0000
2000
0000
3000
;
