#TITLE:Our Steady Boy;
#SUBTITLE:;
#ARTIST:YuiKaori;
#TITLETRANSLIT:;
#SUBTITLETRANSLIT:;
#ARTISTTRANSLIT:;
#GENRE:Bubblegum J-Pop;
#CREDIT:Ace Of Hearts;
#BANNER:Our Steady Boy - bn.png;
#BACKGROUND:Our Steady Boy - bg.png;
#LYRICSPATH:;
#CDTITLE:Ace Of Hearts.png;
#MUSIC:Our Steady Boy.ogg;
#OFFSET:1.680;
#SAMPLESTART:62.000;
#SAMPLELENGTH:12.000;
#SELECTABLE:YES;
#BPMS:0.000=173.000,20.000=86.500,32.000=173.000;
#STOPS:;
#BGCHANGES:5.750=Kiss x Sis ED (Clean).avi=1.000=1=0=0=StretchNoLoop==CrossFade==,
99999=-nosongbg-=1.000=0=0=0 // don't automatically add -songbackground-
;
#KEYSOUNDS:;

//---------------dance-single - Hard----------------
#NOTES:
     dance-single:
     Ace Of Hearts (2011):
     Hard:
     9:
     0.689,0.000,0.409,1.000,0.144:
0000
0000
0000
0000
,
0000
0000
0000
0000
,
0001
0010
0100
1000
0001
0010
0001
1000
,
0020
0000
0230
0000
0302
0000
1003
0200
,
0000
0320
0000
0031
1000
0010
0100
0001
,
2000
0000
0000
0000
3020
0000
0000
0230
0000
0000
0300
0001
1000
0001
0010
0200
,
0300
0000
0000
0000
0010
0000
0000
0000
0001
0000
2000
0000
3000
0000
2002
0000
0000
0000
3003
0000
0000
0000
1000
0100
1000
0000
0001
0000
0010
0000
0200
0000
,
0000
1300
0000
0001
0100
0010
0100
0001
2000
0000
3020
0000
0230
0000
0300
0002
,
0000
1003
0100
0120
0000
0031
1000
1020
,
0000
0030
0000
0100
0002
0000
1003
0000
,
0000
1010
0000
0010
0110
0000
0100
0101
,
0000
0001
1000
1100
0000
0100
0010
0002
,
0000
0000
1003
0000
0020
0000
0000
0000
0230
0000
0000
0000
0300
0000
0001
0100
,
0001
1000
0100
0020
0000
0230
0000
2300
,
0000
0000
3001
0000
0020
0000
0000
0000
0032
0000
0000
0000
1003
0000
0010
1000
,
0010
0000
1000
0000
0001
0000
0200
0000
0000
0000
0000
0000
0300
0000
0001
1000
,
0001
0010
0100
1000
0001
1000
0000
1020
,
0000
0130
0001
1000
2200
3000
0300
0100
,
0010
0000
0100
0000
1000
0000
0001
0200
0000
0000
0000
0000
0300
0000
0010
0000
,
2000
0000
3001
0000
4000
0000
3000
0001
,
0010
0000
0100
0000
1000
0000
0001
0200
0000
0000
0300
0000
0000
0000
0010
0000
,
0200
0000
0301
0000
2000
3000
0000
0100
,
0020
0000
0000
0001
0000
0000
0130
0000
4000
0000
0000
0000
3000
0000
0000
0000
,
0020
0230
0302
2003
,
3000
0000
0010
1000
0001
1000
0000
1002
,
0000
0013
1000
0010
0001
0000
0000
1000
,
0010
0000
1000
0000
0001
0000
1000
0010
0000
0000
0000
0000
0000
0000
0100
0000
,
0002
0000
2003
0000
3100
0000
0000
0010
,
0100
0000
1000
0000
0001
0000
1000
0020
0000
0000
0030
0000
0000
0000
0100
0000
,
0002
0000
2003
0000
3200
0000
0300
0010
,
0200
0000
0000
1000
0000
0000
0310
0000
0011
0000
0000
0000
0000
0000
0001
0000
,
2000
3010
0110
0000
,
0101
1010
1100
0011
,
0000
1000
0010
1000
0001
0000
0000
0000
,
0020
0000
0000
0230
0000
0000
2300
0000
,
3000
0000
0100
0001
0100
2000
0000
3001
,
0200
0300
0010
0100
,
0102
0000
0000
2003
0000
0000
3000
0100
,
0010
0000
0001
0000
1000
0000
0020
0000
0000
0000
0000
0000
0030
0000
1000
0001
,
1000
0100
0010
0002
0000
0000
0003
0000
,
2001
0000
3010
0000
0210
0301
0000
1000
,
2020
0000
3030
0010
0100
0001
0000
2000
,
0000
3010
0001
0010
1000
0000
0000
0000
,
2002
0000
3000
0000
0200
0000
0000
2000
,
0000
3000
0303
0100
0010
1000
0001
0100
,
0000
0000
0001
0000
1001
1000
0000
2020
,
0000
3030
0000
0010
0100
0001
1000
0020
,
0000
0230
0000
0301
1000
0100
0010
0200
,
0000
2300
0000
3000
0000
0001
0100
0010
,
2000
0000
3002
0000
0023
0000
0130
1000
,
0001
0100
0000
0020
0000
0130
0001
1000
,
1020
0000
0000
0000
0230
0000
0000
0302
,
0000
0000
0003
1000
0100
0001
0100
1000
,
0000
0000
0002
0003
2001
0200
0000
0001
,
0000
0000
3300
0100
0010
0001
1000
0020
,
0000
0230
0000
0301
1000
0100
0010
0100
,
2000
0000
3001
0000
0200
0000
0300
0120
,
0000
1030
0001
0021
0000
0130
1000
1004
,
0000
0000
0003
0000
0000
0000
1000
0010
2000
0000
0000
0000
3100
0000
0000
0000
,
0000
0110
0000
0010
0011
0000
0001
1001
,
0000
1010
0000
0101
0000
0001
1000
0010
,
0000
0110
0000
0100
0101
0000
0001
1001
,
0000
1000
0100
0011
0000
0000
0000
0000
;

//---------------dance-single - Expert----------------
#NOTES:
     dance-single:
     Ace Of Hearts (2011):
     Challenge:
     11:
     0.982,0.000,0.852,0.774,0.393:
0000
0000
0000
0000
,
0000
0000
0000
0000
,
1000
0000
0000
0010
0000
0000
1000
0000
0000
0001
0000
0000
0010
0000
0000
0001
0000
0000
1000
0000
0000
0010
1000
0010
,
2000
0000
3001
0000
0010
0000
0100
0000
0010
0000
0001
1000
0010
0000
0100
0000
,
0010
0000
0000
1000
0000
0000
0010
0000
0000
1000
0000
0000
0010
0000
0000
0000
0000
0000
0100
0000
0000
0001
0000
0000
0100
0000
0000
0000
0000
0000
0001
0000
1000
0000
0001
0000
1000
0000
0000
0000
0000
0000
0100
0000
0000
0000
0000
0000
,
0120
0000
0000
0000
0032
0000
0000
1003
1010
0020
0000
0130
0001
1000
0100
0010
,
0012
0000
0000
0000
2003
0000
0000
0000
3010
0000
0200
0000
0000
0000
0301
0000
1001
0000
1000
0000
0000
0000
0100
0010
0001
0000
1000
0000
0010
0000
0100
0000
,
0102
0000
1003
0000
0000
0000
0100
0000
0120
0000
0031
0000
1000
0000
0010
0000
0210
0000
0000
0000
0301
0000
0000
0000
1001
0000
1000
0100
0010
0000
0012
0000
,
0000
1003
1010
0010
0100
0001
1001
2000
,
0000
0000
3100
0000
0110
0000
0010
0000
0002
0000
0000
0000
2003
0000
0000
3000
,
1010
0000
0020
0000
0130
0000
0001
0000
2001
0000
3100
0010
0001
0000
2001
0000
,
3000
0000
1010
0000
0110
0000
0101
0000
0000
0000
0001
1000
0100
1000
0002
0000
,
0103
0000
0010
0000
2000
0000
0000
0000
3200
0000
0310
0000
0011
0000
0001
1000
,
0010
0100
0001
2000
0000
3100
0010
0012
,
1003
0000
0010
0000
0110
0000
0000
0000
0100
0000
0001
0000
1000
0000
0100
0010
,
0100
0000
1000
0000
0001
0000
0202
0000
0300
0000
1003
0000
1001
0000
0001
0010
,
0100
1000
1001
0001
0201
0310
0000
1002
,
0000
0000
0013
0000
0100
0000
1000
0000
2020
0000
3000
0130
0001
0000
1000
0000
,
0100
0000
0001
0000
0100
0000
1000
0002
0000
0000
0103
0000
0010
0000
1000
0000
,
0200
0000
0020
0000
0001
0330
1001
1000
,
0010
0000
0001
0000
0010
0000
1000
0002
0000
0000
0013
0000
0100
0000
1000
0000
,
0002
0000
0000
0000
0200
0000
0000
0000
1000
0000
0303
0000
1001
0000
1000
0100
,
0020
0000
0000
0001
0000
0000
0130
0000
1000
0000
0001
0000
0100
0000
0010
0000
,
1000
0010
0001
0010
1000
0001
0010
0100
,
1000
0000
0001
0010
0001
1000
0010
2000
,
0000
0000
0000
3001
0000
0000
0010
0000
0000
1000
0000
0000
0010
0000
0000
0000
0000
0000
0001
0010
0001
0010
0000
0000
,
0110
0000
0100
0000
1000
0000
0001
0020
0000
0000
0031
0000
1000
0000
0010
0000
,
0210
0301
1000
0100
0010
1000
0010
0001
,
2001
0000
3010
0000
0100
0000
0001
2000
0000
0000
3100
0000
0010
0000
0001
0000
,
2001
0000
3100
0000
0001
0000
0100
0000
1000
0000
0001
0000
0100
0000
0010
1000
,
0002
0000
0000
0010
0000
0000
1003
0000
1020
0000
0130
0000
0001
0000
1000
0000
,
1200
0000
0310
0000
0011
0001
1001
0000
,
1010
0000
0000
0000
0000
0000
0010
0000
0000
0000
0000
0000
0110
0000
0000
0000
0000
0000
0100
0000
0000
0000
0000
0000
0001
0000
0100
0000
0001
0000
0100
0000
0000
0010
0000
0000
1000
0000
0000
0002
0000
0000
0200
0000
0000
0000
0000
0000
,
0000
0010
1000
0010
1010
0000
0303
0000
,
2001
3100
0010
1000
0010
0100
0010
0001
,
1000
0000
0010
0000
0100
0000
0001
0000
1000
0100
0010
0001
0010
0100
1000
0001
,
0100
0010
0100
1000
0100
0010
0100
0001
,
1000
0000
0010
0100
0001
0000
1000
0000
0001
0100
0010
1000
0010
0100
0001
1000
,
0100
0000
0010
0000
1000
0000
0020
0000
0000
0000
0031
0000
1001
0000
1000
0010
,
0100
0001
0010
2000
0000
3010
0011
0001
,
1001
1000
0010
0100
0101
0001
1000
0100
,
0110
0000
0010
0001
0010
0000
0100
0000
1000
0000
0001
0100
0001
0000
1000
0000
,
0100
0000
0110
0000
0011
0000
1001
0000
1010
0000
0010
0100
0001
0000
1000
0000
,
1020
0000
0000
0000
0200
0000
0000
0001
,
0330
0010
1010
1000
0001
0010
0100
1000
,
0001
0000
0100
0010
0100
0000
0001
0000
0020
0000
0200
0000
0000
0000
1000
0000
,
0330
0000
0100
0000
1100
0000
1000
0001
0100
0000
0010
0000
1000
0000
0002
0000
,
0000
0000
0103
0000
0010
0000
0001
0000
0010
1000
0001
0000
0010
0000
0100
0000
,
0000
0100
1000
0001
0100
1000
0100
0001
,
2001
0000
3100
0000
0120
0031
1000
0010
,
0110
0000
0100
0000
0001
0000
2001
0000
0000
0000
3100
0000
0010
0001
1000
0000
,
1200
0000
0000
0000
0020
0000
0000
1000
,
0330
0000
0010
0000
0011
0000
0001
0000
1000
0010
0100
0000
0010
0000
1000
0000
,
0001
0010
0100
0000
1000
0000
0000
0000
1020
0000
0200
0000
0000
0000
0001
0000
,
0330
0000
0010
0000
1010
0000
1000
0000
0001
0010
0100
0000
1000
0000
1002
0000
,
0000
0103
0000
0010
1000
0001
0010
0100
,
0020
0000
0031
0000
0101
0100
0110
2010
,
0000
3001
0010
0210
0000
1300
0001
0201
,
0000
0000
0310
0000
1010
0000
1000
0001
0200
0000
0000
0000
0320
0000
0000
0000
,
1030
0000
1001
0000
0000
0000
0001
0000
0011
0000
0010
0100
1000
0000
1001
0000
,
0000
0101
0100
0110
0000
0010
1010
1000
,
0001
0000
0011
0000
0000
0000
0010
0000
0110
0000
0100
1000
0001
0000
1001
0000
,
0000
2000
0200
0010
3300
0000
0000
0000
;

//---------------dance-single - Medium----------------
#NOTES:
     dance-single:
     Ace Of Hearts (2011):
     Medium:
     7:
     0.493,0.000,0.044,0.664,0.077: // measure 1
0000
0000
0000
0000
,  // measure 2
0000
0000
0000
0000
,  // measure 3
0000
0000
0000
0000
,  // measure 4
0000
0000
0000
0000
,  // measure 5
0000
0000
0000
0000
,  // measure 6
0002
0000
0000
0000
0023
0000
0000
0230
0000
0000
0300
0000
1000
0000
0001
0010
,  // measure 7
0000
0000
0001
0000
1000
0020
0000
0130
0000
0000
0000
0000
0001
0000
1000
0200
,  // measure 8
0000
1300
0000
0000
0001
1000
0001
0000
1000
0000
0001
0000
0100
0000
0000
0020
,  // measure 9
0000
1030
0001
0020
0000
0031
0010
0200
,  // measure 10
0000
0000
0300
1000
0200
0000
0310
0000
,  // measure 11
0000
0001
0000
0010
0100
0000
1000
0001
,  // measure 12
0000
1000
0100
0010
0000
0000
0000
0002
,  // measure 13
0000
1003
0020
0000
0230
0000
0300
0000
,  // measure 14
0001
0100
0001
2000
0000
0000
3000
0002
,  // measure 15
0000
1003
0200
0000
0320
0000
0030
0000
,  // measure 16
0001
0010
0100
2000
0000
3000
0000
0000
,  // measure 17
0001
0100
0001
0000
1000
0010
0000
2000
,  // measure 18
0000
3001
0010
0001
2000
0000
3000
0000
,  // measure 19
0010
0000
1000
0000
0010
0000
0000
0100
0000
0000
0000
0000
0000
0000
0001
0000
,  // measure 20
2000
0000
3100
0000
0010
0000
0000
0001
,  // measure 21
0010
0000
0001
0000
1000
0000
0000
0010
0000
0000
0000
0000
0000
0000
1000
0000
,  // measure 22
0020
0000
0130
0000
0001
0000
0000
1000
,  // measure 23
0100
0000
0000
0010
0000
0000
0100
0000
2000
0000
0000
0000
3000
0000
0000
0000
,  // measure 24
0002
1003
0100
0020
,  // measure 25
0030
0000
0002
0000
1003
0100
0000
2000
,  // measure 26
0000
3001
0100
0001
1000
0000
0000
0000
,  // measure 27
0001
0000
0100
0000
0001
0000
0000
1000
0000
0000
0000
0000
0000
0000
0001
0000
,  // measure 28
0020
0000
0130
0000
1000
0000
0000
0001
,  // measure 29
0100
0000
0001
0000
1000
0000
0000
0010
0000
0000
0000
0000
0000
0000
1000
0000
,  // measure 30
0002
0000
0103
0000
0010
0000
0000
1000
,  // measure 31
0001
0000
0000
0010
0000
0000
0100
0000
1000
0000
0000
0000
0000
0000
0001
0000
,  // measure 32
0200
0301
1000
0000
,  // measure 33
0100
1000
0001
0010
,  // measure 34
0000
0001
0100
0001
1000
0000
0000
0000
,  // measure 35
0020
0000
0000
0230
0000
0000
0302
0000
,  // measure 36
0000
0003
1000
0100
1000
0002
0000
1003
,  // measure 37
0010
0000
1000
0001
,  // measure 38
0020
0000
0000
0230
0000
0000
0300
0010
,  // measure 39
0001
0010
0001
2000
0000
0000
3000
0010
,  // measure 40
1000
0010
1000
0002
0000
0000
0003
0000
,  // measure 41
2000
0000
3100
0000
1000
0001
0000
0010
,  // measure 42
0100
0000
0000
0010
0001
0010
0000
0002
,  // measure 43
0000
1003
0010
1000
0001
0000
0000
0000
,  // measure 44
0020
0000
0000
0000
0230
0000
0300
2100
,  // measure 45
0000
0000
3000
0001
0010
0000
0001
1000
,  // measure 46
0000
0000
0020
0000
1030
0002
0000
0103
,  // measure 47
0000
0000
0000
0010
1000
0000
1000
0002
,  // measure 48
0000
0013
0000
0010
0100
0000
0100
2000
,  // measure 49
0000
3001
0000
0000
0000
1000
0010
0000
,  // measure 50
1000
0000
0001
0000
0010
0000
0001
1000
,  // measure 51
0001
0100
0000
0020
0000
0000
0030
0000
,  // measure 52
2000
0000
0000
0000
3002
0000
0003
0201
,  // measure 53
0000
0000
0300
0001
1000
0000
1000
0100
,  // measure 54
0000
0000
0020
0000
0130
2000
0000
3001
,  // measure 55
0000
0000
0000
1000
0010
0000
0010
0200
,  // measure 56
0000
0302
0000
1003
0100
0000
0010
0100
,  // measure 57
0020
0000
0031
0000
1000
0000
0000
0020
,  // measure 58
0000
1030
0001
0200
0000
0301
1000
0002
,  // measure 59
0000
0000
0003
1000
0200
0000
0320
0000
,  // measure 60
0030
0001
0000
1000
0010
0000
1000
0001
,  // measure 61
0000
0010
0000
0110
0000
0000
0000
0000
,  // measure 62
0000
0100
0000
1000
0100
0000
0010
0001
,  // measure 63
0000
1000
0001
0011
0000
0000
0000
0000
;

//---------------dance-single - Easy----------------
#NOTES:
     dance-single:
     Ace Of Hearts (2011):
     Easy:
     5:
     0.251,0.000,0.022,0.122,0.011: // measure 1
0000
0000
0000
0000
,  // measure 2
0000
0000
0000
0000
,  // measure 3
0000
0000
0000
0000
,  // measure 4
0000
0000
0000
0000
,  // measure 5
0000
0000
0000
0000
,  // measure 6
2000
0000
0000
0000
0001
0000
0000
3001
0000
0000
0000
0000
0010
0000
0000
0000
,  // measure 7
0000
0000
0000
0000
0001
0000
0000
0001
0000
0000
0000
0000
1000
0000
0000
0000
,  // measure 8
0100
0100
0010
0010
,  // measure 9
0001
0001
1000
1000
,  // measure 10
0200
0300
1000
1000
,  // measure 11
0000
0000
0001
0000
0001
0000
0000
1000
,  // measure 12
0000
0000
0000
1000
0000
0000
0000
0000
,  // measure 13
0001
0001
0001
0000
,  // measure 14
0010
0000
0000
0010
0000
0000
0000
0000
,  // measure 15
0100
0100
0100
0000
,  // measure 16
1000
0000
0000
1000
0000
0000
0000
0000
,  // measure 17
0010
0000
0010
0000
0010
0000
0000
1000
,  // measure 18
0000
1000
1000
0000
,  // measure 19
0010
0010
0010
0000
,  // measure 20
0100
0010
0100
0000
,  // measure 21
0001
0001
0001
0000
,  // measure 22
1000
0001
1000
0000
,  // measure 23
0010
0010
0010
0000
,  // measure 24
0100
0100
0100
0000
,  // measure 25
0000
0000
0001
0000
0001
0000
0000
0100
,  // measure 26
0000
0100
0100
0000
,  // measure 27
0010
0010
0010
0000
,  // measure 28
1000
0010
1000
0000
,  // measure 29
0001
0001
0001
0000
,  // measure 30
0010
0001
0010
0000
,  // measure 31
0100
0100
0100
0000
,  // measure 32
1000
1000
1000
0000
,  // measure 33
0001
0001
0010
0010
,  // measure 34
0000
0400
0000
0000
0300
0000
0000
0000
,  // measure 35
2000
0000
0000
3000
,  // measure 36
0000
0001
0001
0000
,  // measure 37
0010
0000
0100
0000
,  // measure 38
0200
0000
0300
0000
,  // measure 39
1000
0000
0000
2000
0000
3000
0000
0000
,  // measure 40
0001
0000
0000
0002
0000
0003
0000
0000
,  // measure 41
0010
0010
0010
0000
,  // measure 42
0100
0000
1000
0000
,  // measure 43
0004
0000
0003
0000
,  // measure 44
2000
0000
0000
0000
3001
0000
0000
1001
,  // measure 45
0000
0000
0001
0001
,  // measure 46
0000
0000
0010
0000
0010
0000
0000
0100
,  // measure 47
0000
0000
0000
0000
0010
0000
0000
0020
,  // measure 48
0000
0030
0000
0000
0100
0000
0000
0200
,  // measure 49
0000
0300
0000
0000
0000
0000
0000
0000
,  // measure 50
1000
1000
1000
0000
,  // measure 51
0010
0000
0000
0010
0000
0000
0000
0000
,  // measure 52
0200
0000
0000
0000
0310
0000
0000
0110
,  // measure 53
0000
0000
0010
0010
,  // measure 54
0000
0000
1000
0000
1000
0000
0000
0001
,  // measure 55
0000
0000
0000
0000
1000
0000
0000
2000
,  // measure 56
0000
3000
0000
0000
0001
0000
0000
0000
,  // measure 57
1000
0000
0100
0000
1000
0000
0000
0001
,  // measure 58
0000
0000
0000
0001
0000
0000
0000
0001
,  // measure 59
0000
0000
1000
1000
,  // measure 60
0000
0010
0000
0000
0010
0000
0000
1000
,  // measure 61
0000
0010
0000
1000
0000
0000
0000
0000
,  // measure 62
0000
0001
0000
0000
0001
0000
0000
1000
,  // measure 63
0000
0100
0000
0010
0000
0000
0000
0000
;

//---------------dance-single - Novice----------------
#NOTES:
     dance-single:
     Ace Of Hearts (2011):
     Beginner:
     2:
     0.152,0.000,0.000,0.177,0.000: // measure 1
0000
0000
0000
0000
,  // measure 2
0000
0000
0000
0000
,  // measure 3
0000
0000
0000
0000
,  // measure 4
0000
0000
0000
0000
,  // measure 5
0000
0000
0000
0000
,  // measure 6
0001
0000
0001
0000
,  // measure 7
0000
2000
3000
0000
,  // measure 8
0010
0000
0010
0000
,  // measure 9
1000
0000
1000
0000
,  // measure 10
1000
0000
0000
0000
,  // measure 11
0010
0000
0010
0000
,  // measure 12
0010
0000
0000
0000
,  // measure 13
0100
0100
0200
0000
,  // measure 14
0300
0000
0000
0000
,  // measure 15
0010
0010
0020
0000
,  // measure 16
0030
0000
0000
0000
,  // measure 17
1000
0000
1000
0000
,  // measure 18
1000
0000
0000
0000
,  // measure 19
0001
0000
0001
0000
,  // measure 20
0001
0000
0000
0000
,  // measure 21
0010
0000
0010
0000
,  // measure 22
0010
0000
0000
0000
,  // measure 23
0100
0000
0100
0000
,  // measure 24
0200
0000
0300
0000
,  // measure 25
0000
0000
0000
0000
,  // measure 26
2000
0000
3000
0000
,  // measure 27
0001
0000
0001
0000
,  // measure 28
0001
0000
0000
0000
,  // measure 29
0100
0000
0100
0000
,  // measure 30
0100
0000
0000
0000
,  // measure 31
0020
0000
0030
0000
,  // measure 32
2000
0000
3000
0000
,  // measure 33
0001
0000
0001
0000
,  // measure 34
0000
0000
1000
0000
,  // measure 35
0020
0000
0000
0030
,  // measure 36
0000
0000
1000
0000
,  // measure 37
1000
0000
0000
0000
,  // measure 38
0001
0000
0000
0000
,  // measure 39
0020
0000
0030
0000
,  // measure 40
0200
0000
0300
0000
,  // measure 41
0010
0000
0010
0000
,  // measure 42
0010
0000
0000
0000
,  // measure 43
0001
0000
0001
0000
,  // measure 44
1000
0000
1000
0000
,  // measure 45
1000
0000
0000
0000
,  // measure 46
0000
0000
0020
0000
,  // measure 47
0030
0000
2000
0000
,  // measure 48
3000
0000
0002
0000
,  // measure 49
0003
0000
0000
0000
,  // measure 50
0010
0000
0010
0000
,  // measure 51
0010
0000
0000
0000
,  // measure 52
0001
0000
0001
0000
,  // measure 53
0001
0000
0000
0000
,  // measure 54
0000
0000
2000
0000
,  // measure 55
3000
0000
0020
0000
,  // measure 56
0030
0000
0200
0000
,  // measure 57
0300
0000
0000
0000
,  // measure 58
0001
0000
0001
0000
,  // measure 59
0001
0000
0000
0000
,  // measure 60
0000
0000
1000
0000
1000
0000
0000
0001
,  // measure 61
0000
0001
0000
0001
0000
0000
0000
0000
,  // measure 62
0000
0000
1000
0000
1000
0000
0000
0010
,  // measure 63
0000
0010
0000
0010
0000
0000
0000
0000
;
