#TITLE:Marisa Stole the Precious Thing;
#SUBTITLE:;
#ARTIST:Iosys;
#TITLETRANSLIT:;
#SUBTITLETRANSLIT:;
#ARTISTTRANSLIT:;
#GENRE:;
#CREDIT:Ace Of Hearts;
#BANNER:Marisa Stole My Banner.png;
#BACKGROUND:Marisa Stole My Background.jpg;
#LYRICSPATH:;
#CDTITLE:Ace Of Hearts.png;
#MUSIC:Marisa Stole the Precious Thing.ogg;
#OFFSET:-0.380;
#SAMPLESTART:91.740;
#SAMPLELENGTH:12.000;
#SELECTABLE:YES;
#BPMS:0.000=170.000;
#STOPS:;
#BGCHANGES:2.000=Marisa Stole My Video.avi=1.000=0=0=1=====,
651.000=Marisa Stole My Background.jpg=1.000=0=0=1=Centered====,
99999=-nosongbg-=1.000=0=0=0 // don't automatically add -songbackground-
;
#KEYSOUNDS:;

//---------------dance-single - Ace Of Hearts (2011)----------------
#NOTES:
     dance-single:
     Ace Of Hearts (2011):
     Hard:
     11:
     0.814,0.000,0.323,0.885,0.583: // measure 1
0000
0000
0000
0000
,  // measure 2
0000
0000
0000
0000
,  // measure 3
0000
0000
0000
0000
,  // measure 4
0000
0000
0000
0000
,  // measure 5
0000
0000
0000
0000
,  // measure 6
0000
0000
0000
0000
0001
0010
0001
0000
1000
0000
0020
0000
0030
0000
0000
0000
,  // measure 7
0000
0000
0000
0000
1000
0010
1000
0000
0001
0000
0020
0000
0030
0000
0000
0000
,  // measure 8
0000
0000
0000
0000
0001
1000
0001
0000
0100
0000
0002
0000
1003
0000
0100
0000
,  // measure 9
0010
0000
0100
0000
1000
0001
0000
0001
2000
0000
3000
0000
0020
0000
0130
0000
,  // measure 10
0001
2000
3100
0010
0100
1000
0001
0100
,  // measure 11
0010
0100
0001
1000
0020
0000
2030
3001
,  // measure 12
0010
0200
1300
0100
0010
0001
1000
0010
,  // measure 13
0100
0010
1000
0001
0020
0000
0032
1003
,  // measure 14
0010
0200
0310
1000
0001
0010
0100
1000
,  // measure 15
0100
0010
0001
1000
0020
0000
1030
0000
,  // measure 16
1001
0000
0000
0000
0001
0000
0010
0000
0001
1000
0001
0000
0100
0000
0001
0000
,  // measure 17
1000
0100
0010
0010
0100
0100
2000
3001
,  // measure 18
1000
0020
0130
0001
2000
3100
0010
0200
,  // measure 19
1300
0001
0100
0010
0100
0000
0002
1003
,  // measure 20
0100
0020
0130
1000
0002
0103
0010
2000
,  // measure 21
3001
0010
0100
1000
0001
0000
2000
3010
,  // measure 22
0100
0020
1030
0001
0200
0301
1000
0200
,  // measure 23
0310
0000
0001
0000
1000
0000
0001
0000
0010
0000
0000
0000
0001
0010
0001
0010
,  // measure 24
0100
1000
0100
1000
0001
0100
0001
0100
0010
1000
0010
1000
0001
1000
0001
1000
,  // measure 25
0010
0100
0010
0100
0001
1000
0001
0000
1000
0100
0010
0001
0000
0000
1000
0010
,  // measure 26
0100
0010
1000
0000
0000
0000
0001
0010
0100
0010
0001
0000
0000
0000
1000
0100
,  // measure 27
0010
0100
1000
0000
0000
0000
0001
0100
0010
0100
0001
0000
0000
0000
0100
0010
,  // measure 28
1000
0010
0100
0000
0000
0000
0001
0100
0010
0100
0001
0000
0000
0000
0010
0100
,  // measure 29
1000
0100
0010
0000
0004
0000
1003
0010
0100
0010
1000
0000
0000
0000
0001
1000
,  // measure 30
0010
1000
0001
0000
0000
0000
0010
0001
1000
0001
0010
0000
0000
0000
0001
1000
,  // measure 31
0100
1000
0001
0000
0000
0000
1000
0010
0100
0010
1000
0000
0000
0000
0001
0100
,  // measure 32
0010
0100
0001
0000
0000
0000
1000
0100
0010
0001
0010
0100
1000
0100
0010
0001
,  // measure 33
1000
0001
0100
0010
1000
0001
1000
0100
0010
0100
1000
0001
01M0
0000
M010
0000
,  // measure 34
010M
00M1
M100
001M
M100
10M0
010M
M010
,  // measure 35
010M
00M1
M100
001M
M100
00M1
M100
100M
,  // measure 36
01M0
M010
010M
00M1
M100
100M
01M0
M010
,  // measure 37
010M
M001
10M0
010M
0020
0030
010M
10M0
,  // measure 38
010M
M010
010M
00M1
M100
001M
M100
10M0
,  // measure 39
010M
M010
010M
10M0
010M
M001
01M0
001M
,  // measure 40
M100
10M0
010M
M010
010M
10M0
010M
00M1
,  // measure 41
M100
0000
001M
0000
0001
1000
0010
0000
0100
0000
0001
0000
1000
0000
1M1M
0000
,  // measure 42
0000
M1M1
0000
1MM1
0000
11MM
0000
MM11
,  // measure 43
0000
0000
1MM1
0000
0000
0000
M1M1
0000
0000
0000
0001
0000
0100
0001
2000
0000
,  // measure 44
3100
0010
0002
0000
1003
0010
0200
0000
0301
1000
0020
0000
0130
0001
2000
0000
,  // measure 45
3100
0010
0002
0000
1003
0010
0200
0000
0310
1000
0002
0000
10M3
0000
01M0
0000
,  // measure 46
10M0
01M0
10M0
01M0
10M0
01M0
M010
M001
,  // measure 47
M010
0000
M001
0000
M010
0000
M001
0000
M010
0000
M001
0000
1000
0010
0000
1000
,  // measure 48
0001
0000
0010
0000
0100
1000
0100
0000
0010
0000
0001
0000
1000
0000
0010
0000
,  // measure 49
0100
0001
1000
0000
0001
0010
0200
0000
0300
0000
0010
0001
2000
0000
0000
0000
,  // measure 50
0000
0000
0000
0000
3000
0000
0000
0000
0000
0000
0001
0100
0020
0000
0000
0000
,  // measure 51
0000
2030
0000
3002
,  // measure 52
0010
0000
1000
1000
0000
0010
0000
0100
,  // measure 53
0100
0000
1003
0000
1000
0100
0020
0000
,  // measure 54
0030
0200
2300
3002
,  // measure 55
0000
0000
0203
0000
0000
0000
0000
0000
0302
0000
0000
0003
2001
0000
0000
0000
,  // measure 56
0000
0000
3200
0000
0000
0000
0000
0310
0002
0000
0003
0000
2002
0000
0000
0000
,  // measure 57
3003
0000
0000
0000
2000
0000
0000
3200
0000
0000
0310
0000
0002
0000
0000
0000
,  // measure 58
0000
0000
0000
0000
0003
0000
0000
0000
0000
0000
1000
0010
0200
0000
0000
0000
,  // measure 59
0000
0302
0000
2003
,  // measure 60
0100
0000
0010
0010
0000
3001
0000
0001
,  // measure 61
0200
0000
0000
0000
0320
0000
0000
1030
0000
0000
1002
0000
0000
0000
0000
0000
,  // measure 62
0000
0100
0000
0000
1003
0000
2001
0000
,  // measure 63
0000
0010
0000
0000
3001
0000
1002
0000
,  // measure 64
0000
0200
0000
0000
0003
0000
0340
0000
,  // measure 65
0000
0000
0000
0000
0000
0030
2010
0000
,  // measure 66
3002
0000
0000
0000
0023
0000
0000
0230
0000
0300
1100
0000
0000
0000
1000
0001
,  // measure 67
1000
0001
1000
0001
0010
0001
0010
0001
1000
0000
0020
0000
0230
0000
0000
0000
,  // measure 68
0302
0000
0000
0003
2001
0000
0000
3020
0000
0030
0110
0000
0100
0001
2000
0000
,  // measure 69
3001
0010
0001
0010
0100
1000
0100
1000
0001
0100
0001
0100
0002
0000
0000
0000
,  // measure 70
2003
0000
0000
0000
3100
0000
0020
0000
0000
0030
0210
0000
0000
0000
2300
0000
,  // measure 71
0000
3002
0203
0000
0320
0000
2030
0000
,  // measure 72
3002
0000
0000
0000
0203
0000
0000
0320
0000
0030
1010
0000
0000
0000
1000
0000
,  // measure 73
0001
0010
0001
1000
0001
0000
0201
0000
,  // measure 74
0320
0000
0000
0000
2030
0000
0000
3002
0000
0003
0011
0000
0000
0000
0010
0001
,  // measure 75
0010
0001
0010
0001
1000
0010
1000
0010
1000
0000
0002
0000
2003
0000
0000
0000
,  // measure 76
3020
0000
0000
0000
0230
0000
0000
0301
0000
0000
1001
0000
1000
0010
0200
0000
,  // measure 77
0301
0100
0001
0100
0010
1000
0010
1000
0001
0010
0001
0010
0002
0000
0000
0000
,  // measure 78
2003
0000
0000
0000
3020
0000
0000
0230
0000
0300
0102
0000
0000
0000
2003
0000
,  // measure 79
0000
3200
0320
0000
0230
0000
2300
0000
,  // measure 80
0000
3020
0030
0200
,  // measure 81
0000
0000
0301
0000
2000
0000
0000
3200
0000
0000
0310
0000
0011
0000
0001
1000
,  // measure 82
0010
0100
0010
1000
0001
0010
0100
1000
0001
0100
0001
1000
0100
0000
0010
0100
,  // measure 83
1000
0000
0001
0010
0100
0000
0010
0100
1000
0000
0001
0000
0100
0000
M110
0000
,  // measure 84
000M
1M10
000M
01M1
M000
0M11
M000
110M
,  // measure 85
00M0
1M10
000M
01M1
M000
1M01
00M0
M101
,  // measure 86
00M0
101M
0M00
10M1
0M00
M011
0M00
10M1
,  // measure 87
0M00
01M1
M000
101M
0M00
00M0
M000
01M1
,  // measure 88
M000
1M01
00M0
110M
00M0
0M00
M000
10M1
,  // measure 89
0M00
110M
00M0
0M11
M000
00M0
0M00
000M
,  // measure 90
1M01
00M0
000M
M110
000M
0M00
0000
1001
,  // measure 91
1001
0000
1000
0100
1000
0000
0001
0000
1000
0010
1000
0000
0001
0100
0001
0100
,  // measure 92
0001
0100
0001
0100
0001
0100
0001
0100
0001
0100
0001
0100
0001
0100
0001
0100
,  // measure 93
0001
0100
0001
0100
0001
0100
0001
0100
0001
0100
0001
0100
0010
1000
0010
1000
,  // measure 94
0010
1000
0010
1000
0010
1000
0010
1000
0010
1000
0010
1000
0010
1000
0010
1000
,  // measure 95
0010
1000
0010
1000
0010
1000
0010
1000
0010
1000
0010
1000
0001
0010
0001
0010
,  // measure 96
0001
0010
0001
0010
0001
0010
0001
0010
0001
0010
0001
0010
0001
0010
0001
0010
,  // measure 97
0001
0010
0001
0010
0001
0010
0001
0010
0001
0010
0001
0010
0100
1000
0001
0000
,  // measure 98
1000
0010
0100
0000
0001
1000
0100
0000
0010
0100
1000
0000
0001
1000
0001
1000
,  // measure 99
0010
1000
0001
0000
1000
0100
0010
0001
0000
0000
1000
0010
0200
0000
0000
0000
,  // measure 100
0000
0000
0000
0000
0300
0000
0000
0000
0000
0000
0001
1000
0200
0000
0000
0000
,  // measure 101
0000
0320
0000
0230
,  // measure 102
0010
0000
1000
1000
0000
0001
0000
1000
,  // measure 103
1000
0000
0310
0000
0010
0001
2000
0000
,  // measure 104
0000
3020
0230
0302
,  // measure 105
0000
0000
2003
0000
0000
0000
0000
0000
3002
0000
0000
0003
0201
0000
0000
0000
,  // measure 106
0000
0000
0320
0000
0000
0000
0000
1030
0002
0000
0003
0000
2002
0000
0000
0000
,  // measure 107
3003
0000
0000
0000
2000
0000
0000
3200
0000
0000
0310
0000
0002
0000
0000
0000
,  // measure 108
0000
0000
0000
0000
0003
0000
0000
0000
0000
0000
1000
0010
0200
0000
0000
0000
,  // measure 109
0000
0302
0000
0023
,  // measure 110
0100
0000
1000
1000
0000
0130
0000
0100
,  // measure 111
2000
0000
0000
0000
3002
0000
0000
0203
0000
0300
0120
0000
0000
0000
0000
0000
,  // measure 112
0000
1000
0000
0000
0130
0000
0210
0000
,  // measure 113
0000
0001
0000
0000
0310
0000
0210
0000
,  // measure 114
0000
0000
0002
0000
0000
0000
0000
0000
0303
0000
0000
0000
2MM2
0000
3003
M00M
,  // measure 115
0000
0000
1000
0100
0010
0001
0010
0100
1000
0001
1000
0001
0200
0000
0000
0000
,  // measure 116
0320
0000
0000
0000
2030
0000
0000
3002
0000
0003
0101
0000
0000
0000
0100
0010
,  // measure 117
0100
0010
0100
0010
1000
0001
1000
0001
1000
0000
0020
0000
0230
0000
0000
0000
,  // measure 118
0302
0000
0000
0003
2001
0000
0000
3200
0000
0300
0110
0000
0010
0001
0020
0000
,  // measure 119
0031
1000
0001
1000
0010
1000
0010
1000
0001
0010
0001
0010
0002
0000
0000
0000
,  // measure 120
2003
0000
0000
0000
3020
0000
0230
0000
0000
0300
0102
0000
0000
0000
2003
0000
,  // measure 121
0000
3200
0320
0000
0230
0000
2300
0000
,  // measure 122
3002
0000
0000
0000
0203
0000
0000
0310
0000
0000
1010
0000
0000
0000
1000
0000
,  // measure 123
0001
0010
0100
0010
0001
0000
0201
0000
,  // measure 124
0320
0000
0000
0000
2030
0000
0000
3002
0000
0003
0101
0000
0000
0000
0100
0001
,  // measure 125
0100
0001
0100
0001
1000
0100
1000
0100
2000
0000
3002
0000
0203
0000
0000
0000
,  // measure 126
0320
0000
0000
0030
0210
0000
0000
0302
0000
0003
1001
0000
1000
0100
2000
0000
,  // measure 127
3001
0010
0001
0010
0100
1000
0100
1000
0001
0100
0001
0100
0002
0000
0000
0000
,  // measure 128
2003
0000
0000
0000
3020
0000
0000
0230
0000
0000
0302
0000
0000
0000
2003
0000
,  // measure 129
0000
0000
3200
0000
0320
0000
0000
0000
0230
0000
0000
0300
2100
0000
0000
0000
,  // measure 130
0000
3002
0003
0200
,  // measure 131
0300
0000
0010
0000
2000
0000
0000
3002
0000
0000
0013
0000
0110
0000
0100
1000
,  // measure 132
0001
1000
0001
0100
0001
1000
0001
1000
0100
0010
0001
1000
0001
0000
0010
0100
,  // measure 133
1000
0000
0001
0010
0100
0000
0010
0100
1000
0000
0001
0000
0202
0000
0000
0000
,  // measure 134
0000
0000
0000
0303
,  // measure 135
0000
0000
0000
2020
,  // measure 136
0000
0000
0000
3030
,  // measure 137
0000
0000
0000
2200
,  // measure 138
0000
3300
0000
0022
,  // measure 139
0000
0033
0000
0202
,  // measure 140
0303
2020
3030
0220
,  // measure 141
0330
0202
0303
2010
,  // measure 142
3002
0000
0000
0000
0023
0000
0000
0000
0230
0000
0000
0300
2100
0000
0000
0000
,  // measure 143
3002
0000
0000
0000
0203
0000
0000
0000
0320
0000
0000
0030
2010
0000
3001
0000
,  // measure 144
0010
0001
0010
0001
0010
0001
1000
0010
,  // measure 145
1000
0000
0010
0000
1000
0000
0010
0000
1000
0000
0010
0000
1000
0010
1000
0010
,  // measure 146
1000
0010
1000
0010
0100
0001
0100
0001
0100
0001
0100
0001
1000
0100
1000
0100
,  // measure 147
1000
0000
0000
0100
0000
0000
1000
0000
0000
0100
0000
0000
0010
0000
0000
0001
0000
0000
0010
0000
0000
0001
0000
0000
0010
0000
0000
0001
0000
0000
0010
0000
0000
0001
0000
0000
4000
0000
0004
0000
0000
0000
0000
0000
0000
0000
0000
0000
,  // measure 148
0000
0000
0000
0000
,  // measure 149
0000
0000
0000
0000
,  // measure 150
0000
0000
0000
0000
,  // measure 151
0000
0000
0000
0000
,  // measure 152
0000
0000
0000
0000
,  // measure 153
0000
0000
0000
0000
0000
0000
0000
0000
0000
0000
0000
0000
0000
0000
0000
0000
0000
0000
0000
0000
0000
0000
0000
0000
0000
0000
0000
0000
0000
0000
0000
0000
0000
0000
3000
0000
0203
0000
0000
0000
0000
0000
0301
0000
0000
1000
0000
0000
,  // measure 154
0001
0000
2000
0000
3010
0100
0010
0100
0001
0000
1000
0100
1000
0100
1000
0100
,  // measure 155
0010
0001
0010
0001
1000
0000
0001
0100
0001
0000
1000
0000
0001
0000
0010
0000
,  // measure 156
0100
0000
1000
0000
0001
1000
0001
1000
0001
0000
0010
0000
0100
1000
0100
1000
,  // measure 157
0001
0100
0001
0100
0001
0000
1000
0000
0100
0000
0010
0000
0100
0000
1000
0001
,  // measure 158
1000
0000
0020
0000
1030
0001
1000
0001
0100
0000
0010
1000
0010
1000
0001
1000
,  // measure 159
0001
1000
0001
0010
0100
0000
0010
0001
0010
0000
0100
0000
1000
0000
0001
0000
,  // measure 160
0100
0000
0001
0000
1000
0100
1000
0100
0010
0000
0001
0000
1000
0010
1000
0010
,  // measure 161
0100
0001
0100
0001
1000
0010
0100
0001
1000
0010
1000
0001
2002
0000
0000
0000
,  // measure 162
0000
0000
0000
3003
;

//---------------dance-single - Ace Of Hearts (2011)----------------
#NOTES:
     dance-single:
     Ace Of Hearts (2011):
     Challenge:
     14:
     1.000,0.000,0.583,0.736,1.000:
0000
0000
0000
0000
,
0000
0000
0000
0000
,
0000
0000
0000
0000
,
0000
0000
0000
0000
,
0000
0000
0000
0000
,
0000
0000
0000
0000
,
0000
0000
0000
0000
1000
0010
0200
0000
0301
0000
1001
0000
0000
0000
0000
0000
,
0000
0000
0000
0000
0001
0010
0200
0000
1300
0000
1001
0000
0000
0000
0000
0000
,
0000
0000
0000
0000
0000
0000
0000
0000
0000
0000
0000
0000
0001
0000
0000
0100
0000
0000
0020
0000
0000
0000
0000
0000
1030
0000
0000
0000
0000
0000
0001
0000
0000
0000
0000
0000
1000
0000
0100
0000
0010
0000
0001
0000
0000
0000
0000
0000
,
1000
0000
0000
0010
0000
0000
1000
0000
0010
0000
0100
0000
0001
0000
0000
1000
0000
0000
0100
0000
0000
0010
0000
0000
0100
0000
0000
1000
0000
0000
0001
0000
0000
0100
0000
0000
0120
0000
0000
0000
0000
0000
1000
0000
0000
0000
0000
0000
,
0130
0201
0010
0301
2001
0100
3001
0201
,
0010
0301
1001
1000
2020
3030
0210
0001
,
0310
2010
0001
3100
0120
0001
0130
2100
,
0001
3010
0110
0100
0202
0303
2001
0100
,
3001
0021
0100
0031
2001
0010
3001
0201
,
0010
0301
1001
1000
2002
3003
0202
0000
,
0010
0000
0303
0000
2001
0000
3100
0000
0010
0001
1000
0000
1020
0000
0130
0000
,
0102
1003
1100
0110
1100
1001
0021
0100
,
0031
2001
0010
3001
0201
0010
0301
2001
,
0100
3001
0011
0010
0110
0000
0012
1000
,
0103
0120
1000
0130
0102
1000
0013
0210
,
1000
0310
0011
0001
0101
0000
0120
1000
,
0130
0102
1000
0013
0210
1000
0310
0012
,
1000
0000
0013
0000
0110
0000
0100
0000
1100
0000
0000
0000
1000
0001
0010
0001
,
1000
0010
0100
0010
1000
0001
0010
0100
0010
0001
1000
0001
0100
0001
1000
0100
,
0010
0001
0010
0100
1000
0001
0200
0000
0310
1000
0001
0010
0210
0000
1300
0001
,
1000
0010
0100
0010
1000
0001
0010
0100
0010
0001
1000
0010
0100
0010
1000
0001
,
0010
0100
1000
0001
0100
0010
0100
0001
1000
0100
1000
0001
0100
0010
1000
0010
,
0100
0001
1000
0100
0010
0001
0010
0100
1000
0001
0100
0010
0100
0001
1000
0100
,
0010
0001
1000
0001
0400
0000
0301
1000
0100
0010
0100
1000
0001
0100
0010
0100
,
0001
1000
0001
0010
0001
1000
0100
1000
0001
0100
0010
1000
0001
0010
0100
1000
,
0100
0010
0001
1000
0001
0100
0010
0100
0001
1000
0001
0010
0100
0010
0001
1000
,
0010
0000
0000
0100
0000
0000
0010
0000
0000
1000
0000
0000
0001
0000
0000
0010
0000
0000
0100
0000
0000
1000
0000
0000
0001
0000
0000
1000
0000
0000
0010
0000
0000
0100
0000
0000
0010
0000
1000
0000
0010
0000
1000
0000
0000
0001
0000
0000
,
0010
0000
0000
0100
0000
0000
1000
0000
0001
0000
1000
0000
0001
0000
0000
0010
0000
0000
0001
0000
0000
1000
0000
0000
0001
0000
0000
0100
0000
0000
0010
0000
0000
1000
0000
0000
1M01
0000
0000
0000
0000
0000
00M1
0000
0000
0000
0000
0000
,
M101
010M
M110
0M10
101M
10M0
110M
M100
,
011M
0M10
M011
00M1
M101
010M
M110
0M10
,
101M
10M0
1M01
M001
01M1
010M
M110
0M10
,
101M
0000
10M0
0000
0M02
0000
M023
0000
023M
0000
M000
0300
11M0
0000
1M00
0000
,
10M1
M001
01M1
M100
011M
0M10
M011
001M
,
1M10
100M
1M01
00M1
M011
0M10
101M
0M10
,
M011
00M1
1M01
100M
1M10
001M
M110
01M0
,
110M
0000
M100
0000
0M10
1000
00M2
0000
M203
0000
032M
0000
0030
0000
1M11
0000
,
0000
111M
0000
M111
0000
1M11
0000
11M1
,
0000
0000
M111
0000
0000
0000
111M
0000
0000
0000
1000
0000
0M01
0010
020M
0000
,
13M0
0001
M020
0000
0M31
1000
020M
0000
13M0
0001
2M00
0000
301M
0100
M002
0000
,
10M3
0100
M020
0000
013M
1000
00M2
0000
1M03
0010
M200
0000
M301
0000
0M01
0000
,
M010
0M10
M001
0M01
M010
0M10
01M0
010M
,
10M0
0000
100M
0000
01M0
0000
010M
0000
10M0
0000
100M
0000
M001
0100
00M0
0100
,
001M
0000
1M00
0000
M001
0010
020M
0300
21M0
0000
3M01
0000
010M
0010
0100
0001
,
1000
0100
0010
0001
1000
0010
1000
0001
0010
0001
1000
0010
0200
0000
0301
1000
,
0100
1000
0001
0000
0201
0000
0310
1000
0001
0000
0010
0100
0010
0001
1000
0000
,
0010
0100
0001
0000
1000
0100
0010
0100
1000
0000
0001
0100
0010
0200
0002
0000
,
0010
0000
1000
1000
0000
0010
0000
1000
,
1000
0000
0010
0303
0001
1000
1100
0100
,
0010
0000
0001
1000
0010
1000
0001
0000
0010
0000
0001
1000
0100
1000
0001
0100
,
0010
0000
1000
0001
0010
0100
0010
0001
1000
0000
0010
0100
0001
0000
1000
0100
,
0010
0000
0001
0010
0100
1000
0100
0010
0001
0000
1000
0010
0100
0010
1000
0001
,
0010
0001
1000
0001
0100
0010
0100
0001
1000
0001
0010
0100
1000
0001
0100
0000
,
0010
1000
0001
0000
0010
0100
1000
0001
0100
0000
0010
0100
0001
1000
0100
1000
,
0001
0100
0010
0100
0001
1000
0001
0010
0100
0000
0010
0200
2000
0000
0000
0000
,
0010
0000
0001
0001
0000
0011
3300
1001
,
0101
0000
0000
0000
0110
0000
0000
1010
0000
0000
0010
0100
0001
1000
0001
0010
,
0100
0010
0001
1000
0010
1000
0001
0010
0100
0010
0001
1000
0001
0100
0010
0100
,
0001
1000
0001
0010
0100
0010
0001
1000
0001
0100
0010
0100
0001
1000
0100
0010
,
0001
0000
1000
0010
0100
0010
1000
0001
0010
0100
1000
0001
0100
0010
0100
0010
,
1000
0001
1000
0001
0100
0001
0100
0010
1000
0001
0010
0100
2000
0000
3001
0100
,
0010
0000
1000
0000
0001
0000
0010
0100
0010
0000
0011
0000
0002
0000
1003
0001
,
0100
0100
1000
0100
0100
0001
0100
0100
2000
0000
3002
0003
0201
0000
0310
1000
,
0001
0000
0010
0000
0210
0000
1300
0001
0100
0000
0110
0000
0010
1000
0002
0000
,
1003
0010
0010
0001
0010
0010
1000
0010
0010
0001
1000
0010
0100
0001
1000
0100
,
0010
0100
1000
0001
0100
0010
1000
0001
0010
0100
1000
0100
0010
0001
1000
0010
,
0100
0010
1000
0001
0010
0100
1000
0100
0010
0001
1000
0010
0100
0010
1000
0001
,
0010
0100
0010
0001
1000
0010
1000
0010
0100
0001
0100
0010
1000
0001
0010
0100
,
0010
0001
1000
0010
0100
0001
1000
0001
0010
0000
0100
1000
1002
0000
0103
0010
,
1000
0001
0010
0000
0210
0000
1300
0001
0100
0000
0101
0000
0002
0000
1003
0100
,
0100
0001
0100
0100
1000
0100
0100
0001
2000
0000
3020
0030
0210
0000
0301
1000
,
0100
0000
0010
0000
0012
0000
1003
0010
0100
0000
0101
0000
0001
1000
0002
0000
,
1003
0010
0010
0001
0010
0010
1000
0010
0010
0001
1000
0010
1000
0001
0100
0010
,
0100
0001
1000
0001
0010
0100
1000
0100
0010
0001
1000
0010
0100
0010
1000
0001
,
0010
0001
1000
0001
0100
0010
1000
0001
0010
0100
0010
0001
1000
0010
0100
0010
,
1000
0001
0010
0100
1000
0100
0010
0001
1000
0010
0100
0001
1000
0010
0100
0010
,
1000
0001
0010
0100
1000
0001
0100
0010
1000
0001
0010
0100
1000
0000
0001
0100
,
0010
0000
0000
1000
0000
0000
0010
0000
0000
0100
0000
0000
0001
0000
0000
1000
0000
0000
0100
0000
0000
0010
0000
0000
0100
0000
0000
1000
0000
0000
0001
0000
0000
0100
0000
0000
0001
0000
0000
0000
0000
0000
1000
0000
0100
0000
1000
0000
,
0100
0000
0000
0000
0000
0000
0010
0000
0001
0000
0010
0000
0001
0000
0000
0000
0000
0000
1000
0000
0010
0000
1000
0000
0010
0000
0000
0000
0000
0000
0100
0000
0001
0000
0100
0000
0001
0000
0000
1000
0000
0000
0200
0000
0000
0000
0000
0000
,
0310
0001
2000
0000
3010
0100
0002
0000
1003
0100
0020
0000
0130
1000
0002
0000
,
1003
0010
0200
0000
0310
1000
0002
0000
0013
0100
2000
0000
3001
0010
0200
0000
,
0310
0001
2000
0000
3010
0100
0002
0000
1003
0100
0020
0000
0130
1000
0002
0000
,
0103
0010
2000
0000
3001
0010
0200
0000
0310
0001
0010
0100
1000
0001
0200
0000
,
0310
1000
0002
0000
0013
0100
2000
0000
3001
0100
0010
1000
0010
0100
0002
0000
,
1003
0100
0020
0000
0130
1000
0002
0000
1003
0010
0100
0010
1000
0001
0010
0001
,
2000
0000
3010
0100
0001
1000
0200
0000
0310
0001
1000
0001
0100
0010
1000
0000
,
2000
0000
3001
0010
0100
0000
0200
0000
0310
0001
1000
0001
1000
0100
1000
0100
,
1000
0100
1000
0100
1000
0100
1000
0100
1000
0100
1000
0100
1000
0100
1000
0100
,
1000
0100
1000
0100
1000
0100
1000
0100
1000
0100
1000
0100
0010
0001
0010
0001
,
0010
0001
0010
0001
0010
0001
0010
0001
0010
0001
0010
0001
0010
0001
0010
0001
,
0010
0001
0010
0001
0010
0001
0010
0001
0010
0001
0010
0001
1000
0001
1000
0001
,
1000
0001
1000
0001
1000
0001
1000
0001
1000
0001
1000
0001
1000
0001
1000
0001
,
1000
0001
1000
0001
1000
0001
1000
0001
1000
0001
1000
0001
0100
0010
2000
0000
,
3001
0010
0200
0000
0310
0001
2000
0000
3010
0100
0002
0000
1003
0010
1000
0010
,
1000
0001
0020
0000
0031
0010
0100
1000
0001
0100
0010
0100
0002
0000
1003
0000
,
0100
0010
0100
0000
2100
0000
0000
3001
0000
0000
0100
0001
0100
0000
0010
0000
,
1000
0001
1000
0000
1020
0000
0130
0001
1000
0000
0001
1000
0001
2000
0200
0000
,
0010
0000
0001
0001
0000
0010
0000
0001
,
0001
0000
0010
3300
1000
0001
0020
0000
,
0030
0002
2003
3200
,
0300
0000
0020
0000
0000
0000
0000
0000
0230
0000
0000
0300
2100
0000
0000
0000
,
0000
0000
3002
0000
0000
0000
0000
1003
0010
0000
0000
0000
0100
0010
0100
0000
,
0002
0000
1003
0100
0010
0100
1000
0001
0100
0000
0010
0100
0001
1000
0100
0000
,
0010
0100
1000
0000
0001
0100
0010
0100
0001
0000
1000
0100
0010
0001
0010
0100
,
1000
0001
0100
0000
0010
0100
0001
1000
0001
1000
0010
0200
0002
0000
0000
0000
,
0010
0000
1000
1000
0000
0010
0303
0101
,
1001
0000
0000
0000
1100
0000
0000
0110
0000
0000
0010
0001
1000
0010
0100
0010
,
1000
0001
0010
0100
1000
0100
0010
0001
1000
0001
0100
0010
1000
0001
0100
0001
,
1000
0100
0010
0001
0010
0100
1000
0001
0100
0010
1000
0010
0100
0001
1000
0100
,
0010
0001
1000
0010
0100
0001
1000
0100
0010
0000
0001
1000
020M
M000
03M0
0M00
,
0000
0000
0010
0100
1000
0001
0100
0010
0100
0001
1000
0001
0020
0000
0130
1000
,
0001
0000
0100
0010
1000
0001
0010
0100
1000
0001
0100
0010
2000
0000
3001
0100
,
0100
1000
0100
0100
0001
0100
0100
1000
0002
0000
0203
0000
0320
0000
1030
0001
,
0010
0000
0100
1000
0001
0100
0010
1000
0001
0010
0100
1000
0001
0100
0020
0000
,
1030
0010
0010
0001
0010
0010
1000
0010
0010
0001
1000
0010
0100
0001
1000
0100
,
1000
0001
0100
0010
1000
0001
0010
0100
1000
0100
0010
0001
1000
0001
0100
0010
,
0100
0001
1000
0100
0010
0001
1000
0001
0100
0001
1000
0010
0100
0010
1000
0001
,
0010
0100
1000
0100
0010
0001
1000
0001
0100
0010
1000
0001
0010
0100
1000
0001
,
0100
0010
1000
0001
0010
0100
0010
0001
1000
0010
0100
0001
2000
0000
3010
0100
,
0001
0000
1000
0100
0010
0100
1000
0001
0100
0010
1000
0001
2000
0000
3002
0000
,
0103
0100
1000
0100
0100
0001
0100
0100
2000
0000
3002
0003
0201
0000
0310
1000
,
0001
0000
0010
0100
0010
0001
1000
0010
0100
0001
1000
0100
0010
0001
2000
0000
,
3001
0010
0010
1000
0010
0010
0001
0010
0010
1000
0001
0010
0001
1000
0010
0100
,
0010
1000
0001
0010
0100
1000
0100
0010
0001
1000
0001
0100
0010
1000
0010
0100
,
0001
1000
0001
0010
0001
1000
0001
0100
0001
1000
0010
0100
0010
1000
0001
0010
,
0100
1000
0100
0010
0001
1000
0001
0100
0001
1000
0001
0010
0001
1000
0100
1000
,
0001
0100
0001
1000
0010
1000
0001
0010
0100
1000
0001
0100
0010
0000
1000
0001
,
0100
0000
0000
0001
0000
0000
1000
0000
0000
0100
0000
0000
0010
0000
0000
0100
0000
0000
1000
0000
0000
0001
0000
0000
0100
0000
0000
0010
0000
0000
1000
0000
0000
0001
0000
0000
1000
0000
0010
0000
1000
0000
0010
0000
1000
0000
0010
0000
,
0100
0000
0000
0000
0000
0000
0000
0000
0001
0000
0000
0000
0000
0000
0000
0000
0100
0000
0000
0000
0000
0000
0000
0000
0001
0000
0000
0000
0000
0000
0000
0000
0100
0000
0000
0000
0000
0000
0000
0000
0001
0000
0000
0000
0000
0000
0000
0000
1000
0000
0000
0000
0000
0000
0010
0000
0000
0000
0000
0000
1000
0000
0000
0000
0000
0000
0010
0000
0000
0000
0000
0000
1000
0000
0000
0000
0000
0000
0000
0000
0000
0000
0000
0000
0000
0000
0000
0000
0000
0000
0000
0000
0000
0000
0000
0000
0001
0000
0000
0000
0000
0000
0100
0000
0000
0000
0000
0000
0001
0000
0000
0000
0000
0000
0100
0000
0000
0000
0000
0000
0001
0000
0000
0000
0000
0000
0000
0000
0000
0000
0000
0000
0000
0000
0000
0000
0000
0000
0000
0000
0000
0000
0000
0000
2001
0000
0000
0000
0000
0000
0000
0000
0000
0000
0000
0000
0000
0000
0000
0000
0000
0000
0000
0000
0000
0000
0000
0000
3010
0000
0000
0000
0000
0000
0000
0000
0000
0000
0000
0000
0000
0000
0000
0000
0000
0000
0000
0000
0000
0000
0000
0000
,
0100
0001
1000
0100
0010
0100
1000
0001
,
0010
0100
1000
0001
0100
0010
2010
3001
,
0010
0100
0010
0001
1000
0010
0100
0001
,
1000
0100
0010
0001
1000
0010
0210
0301
,
1000
0001
0010
0100
0010
0001
2001
3010
,
0100
0001
1000
0100
0010
0100
2100
3001
,
0010
0001
2001
3010
0100
0001
2001
3100
,
0010
0001
2001
3010
0001
1000
2020
3030
,
0202
0303
2002
3003
2200
3300
0220
0330
,
0022
0033
2002
3003
2020
3030
0110
0110
,
0101
0101
1010
1010
1001
1001
0011
0011
,
0110
0000
0110
0000
1100
0000
1100
0000
1001
0000
1001
0000
0001
0100
0001
0100
,
0010
1000
0010
1000
0001
0010
0001
0010
0100
1000
0100
1000
0001
0100
0001
0100
,
0010
0000
0000
1000
0000
0000
0010
0000
0000
1000
0000
0000
0001
0000
0000
0010
0000
0000
0100
0000
0000
1000
0000
0000
0100
0000
0000
0010
0000
0000
0001
0000
0000
1000
0000
0000
0001
0000
0010
0000
0001
0000
0010
0000
0001
0000
0010
0000
,
0100
1000
0100
1000
0100
1000
0001
1000
0001
1000
0001
1000
0001
0100
0001
0100
0001
0100
0010
0100
0010
0100
0010
0100
,
0010
1000
0010
1000
0010
1000
0001
0100
0001
0100
0001
0100
0001
1000
0001
1000
0001
1000
0100
1000
0100
1000
0100
1000
,
0100
0010
0100
0010
0100
0010
0001
0010
0001
0010
0001
0010
0100
1000
0100
1000
0100
1000
0001
1000
0001
1000
0001
1000
,
0001
0100
0001
0100
0001
0100
0010
0100
0010
0100
0010
0100
0010
1000
0010
1000
0010
1000
0001
1000
0001
1000
0001
1000
,
0100
1000
0100
1000
0100
1000
0100
0010
0100
0010
0100
0010
0001
0010
0001
0010
0001
0010
0001
1000
0001
1000
0001
1000
,
0010
0000
1000
0000
0010
0000
1000
0000
0010
0000
1000
0000
0010
0000
0100
0000
0010
0000
0100
0000
0010
0000
0100
0000
0001
0000
0100
0000
0001
0000
0100
0000
0001
0000
0100
0000
0002
0000
0000
0000
0000
0000
1003
0000
0000
0100
0000
0000
,
0010
0000
0200
0000
1300
0001
0100
0010
2000
0000
3001
0010
0100
1000
0100
0010
,
0001
1000
0001
0010
0100
0000
0010
0001
0020
0000
0031
0000
1000
0000
0020
0000
,
0130
0000
0002
0000
1003
0100
0010
0100
2000
0000
3002
0000
0103
0001
0100
0010
,
0100
0001
1000
0001
0010
0000
0200
0000
1300
0000
0002
0000
0103
0000
0010
1000
,
0010
0000
0200
0000
0301
1000
0001
0010
0100
0000
0010
0001
1000
0001
0100
0010
,
0100
0001
1000
0100
0010
0000
0100
1000
0001
0000
0200
0000
0310
0000
2000
0000
,
3001
0000
0020
0000
0130
1000
0001
1000
0100
0000
0020
0000
0031
1000
0001
0100
,
0010
0100
0001
1000
0010
0100
0001
1000
0001
0010
0100
1000
2002
0000
0000
0000
,
0000
0000
0000
3003
;

//---------------dance-single - Ace Of Hearts (2011)----------------
#NOTES:
     dance-single:
     Ace Of Hearts (2011):
     Medium:
     9:
     0.550,0.000,0.083,0.811,0.101:
0000
0000
0000
0000
,
0000
0000
0000
0000
,
0000
0000
0000
0000
,
0000
0000
0000
0000
,
0000
0000
0000
0000
,
0000
0000
0000
0000
1000
0001
2000
0000
3001
0000
0100
0000
0000
0000
0000
0000
,
0000
0000
0000
0000
0001
0010
0002
0000
1003
0000
0100
0000
0000
0000
0000
0000
,
0000
0000
0000
0000
0010
0001
0020
0000
0130
0000
1000
0000
0001
0000
1000
0000
,
0010
0000
1000
0000
0001
0010
0000
0010
0002
0000
0000
0000
2003
0000
3010
0000
,
0100
0010
1000
0010
0100
0010
1000
0010
,
0100
0010
1000
0001
0020
0000
0032
0013
,
0100
0010
0001
0010
0100
0010
0001
0010
,
0100
0010
0001
1000
0002
0000
2003
3100
,
0010
0001
0010
0100
1000
0100
0010
0001
,
0010
0100
0010
0001
2000
0000
3020
0000
,
2030
0000
3001
0010
0001
1000
0010
0100
,
0010
1000
0001
0001
0001
0001
0020
0130
,
1000
0100
0010
0100
1000
0100
0010
0100
,
1000
0100
0010
0001
1000
0000
0001
0100
,
0010
0100
0001
0100
0010
0100
0001
0100
,
0010
0100
0001
1000
0001
0000
1000
0010
,
0100
0001
0100
0010
1000
0010
0100
0001
,
0100
0000
0010
0000
1000
0000
0001
0000
1000
0000
0000
0000
0004
4000
0000
0000
,
0000
0000
0000
0000
,
0000
0000
3003
0000
0001
1000
0000
0010
,
1000
0001
0000
0010
0001
1000
0000
0010
,
0100
0001
0000
1000
0100
0010
0000
0001
,
0010
0100
0000
1000
0001
0100
0000
0010
,
1000
0001
4000
0000
3000
0000
0000
0001
,
0010
0100
0000
0010
0001
1000
0000
0010
,
0100
0001
0000
1000
0010
0100
0000
0001
,
1000
0100
0000
0010
0001
1000
0010
1000
,
0001
0010
0100
0010
0001
1000
001M
0100
,
M010
0100
001M
0100
M010
0100
00M1
1000
,
0M01
1000
00M1
1000
0M01
1000
001M
0100
,
M010
0100
001M
0100
M010
0100
00M1
1000
,
0M01
1000
0002
0023
0230
0300
100M
0100
,
10M0
0100
100M
0100
10M0
0100
M010
0001
,
0M10
0001
M010
0001
0M10
0001
10M0
0010
,
100M
0010
1M00
0010
100M
0010
M100
0001
,
01M0
0000
0001
0000
1000
0001
1000
0000
0010
0000
2000
0000
3001
0000
0010
0000
,
000M
0100
M000
0010
0M00
0001
00M0
1000
,
000M
0010
M000
0100
000M
0010
1000
0002
,
0013
0200
1300
0002
0103
0020
1030
0002
,
1003
0200
0310
0002
1003
0020
M130
0001
,
M100
0001
M100
0001
M100
0010
100M
0010
,
100M
0010
100M
0010
100M
0010
100M
0001
,
0010
0000
0001
0000
1000
0010
1000
0000
0001
0000
0100
0000
0010
0000
1000
0000
,
0001
0000
1000
0000
0001
0100
0002
0000
0000
0000
1003
0100
2000
0000
0000
0000
,
0000
0000
0000
0000
3000
0000
0000
0000
0000
0000
0001
0100
0002
0000
0000
0000
,
0000
2003
0000
3200
,
0310
0000
0001
0001
0000
1001
0000
1000
,
0010
0000
0110
0000
0100
0001
2000
0000
,
3000
0002
0023
0230
,
0000
2300
0000
0000
3002
0000
0203
0000
,
0000
0000
0302
0000
0000
0000
0000
1003
0020
0000
0000
0000
0230
0000
0000
0000
,
0300
0000
0000
0000
0002
0000
0000
0203
0000
0000
0310
0000
2000
0000
0000
0000
,
0000
0000
0000
0000
3000
0000
0000
0000
0000
0000
0010
1000
0020
0000
0000
0000
,
0000
0230
0000
0302
,
1003
0000
0100
0100
0000
0110
0000
0020
,
0130
0000
0000
0000
2000
0000
0000
3001
0000
0000
0201
0000
0000
0000
0000
0000
,
0000
0320
0000
0000
1030
0000
1002
0000
,
0000
0023
0000
0000
0130
0000
2100
0000
,
0000
3002
0000
0000
0000
0000
0403
0000
,
0000
0000
0300
0020
,
2030
0000
0000
0000
3002
0000
0000
2003
0000
0000
3010
0000
0000
0000
0400
0004
,
0000
0000
0303
0002
,
2003
0000
0000
0000
3020
0000
0000
0230
0000
0000
0301
0000
4000
0004
0000
0000
,
0000
0000
3003
0002
,
0023
0000
0031
2000
0000
3020
0000
0230
,
0000
0301
2000
0000
3200
0000
0320
0000
,
0230
0000
0000
0000
2300
0000
0000
3002
0000
0000
0013
0000
0000
0000
0001
0000
,
1000
0010
0100
0010
1000
0001
0020
0000
,
0032
0000
0000
0000
2003
0000
0000
3002
0000
0000
0013
0000
0000
0000
0400
4000
,
0000
0000
3300
2000
,
3002
0000
0000
0000
0023
0000
0000
0230
0000
0000
1300
0000
0004
0040
0000
0000
,
0000
0000
0033
0002
,
2003
0000
0000
0000
3020
0000
0000
0130
0000
0000
0002
0000
0000
0000
2003
0000
,
0000
3001
0020
0000
0230
0000
2300
0000
,
0000
3002
0003
0020
,
0030
0000
0001
0000
2000
0000
0000
3020
0000
0000
0130
0000
0001
0000
1000
0000
,
0001
0000
0010
0000
0001
0000
1000
0000
0010
0000
1000
0000
0001
0000
0010
0001
,
0010
0100
1000
0001
0200
0000
0310
100M
,
0000
M001
0000
001M
0000
00M1
0000
100M
,
0000
M010
0000
01M0
0000
0M01
0000
100M
,
0000
M100
0000
0M10
0000
01M0
0000
1M00
,
0000
M001
0000
100M
0000
M010
0000
01M0
,
0000
0M10
0000
10M0
0000
M000
0000
001M
,
0000
10M0
0000
M001
0000
000M
0000
00M0
,
1000
000M
0000
M010
0000
0000
0000
1000
,
1000
0000
0001
0010
0001
0000
1000
0000
0001
1000
0001
0000
4000
0400
0000
0000
,
0000
0000
0000
0000
,
0000
0000
0000
0000
,
0000
0000
0000
0000
,
0000
0000
0000
0000
,
0000
0000
0000
0000
,
0000
0000
0000
0000
0000
3300
1000
0001
,
0010
0100
0010
0001
1000
0100
0040
0000
,
0030
0000
0100
0000
1000
0000
0001
0000
0000
0000
1000
0010
2000
0000
0000
0000
,
0000
0000
0000
0000
3000
0000
0000
0000
0000
0000
0001
0100
0002
0000
0000
0000
,
0000
2003
0000
3200
,
0310
0000
0001
0001
0000
1001
0000
1000
,
0001
0000
0101
0000
0100
0010
2000
0000
,
3000
0002
2003
3200
,
0000
0320
0000
0000
0230
0000
2300
0000
,
0000
0000
3002
0000
0000
0000
0000
1003
0020
0000
0000
0000
0230
0000
0000
0000
,
0300
0000
0000
0000
0002
0000
0000
0203
0000
0000
0310
0000
2000
0000
0000
0000
,
0000
0000
0000
0000
3000
0000
0000
0000
0000
0000
0001
0010
0002
0000
0000
0000
,
0000
2003
0000
3020
,
1030
0000
0001
0001
0000
0011
0000
0020
,
0130
0000
0000
0000
2000
0000
0000
3001
0000
0000
0200
0000
0000
0000
0000
0000
,
0000
0320
0000
0000
2030
0000
3002
0000
,
0000
0023
0000
0000
0230
0000
2300
0000
,
0000
0000
3002
0000
0000
0000
0000
0000
0003
0000
0000
0000
1001
0000
0000
MMMM
,
0000
1000
0010
1000
0001
0010
0200
0000
,
2300
0000
0000
0000
3002
0000
0000
0203
0000
0000
0310
0000
0000
0000
4000
0040
,
0000
0000
3030
0020
,
0230
0000
0000
0000
0302
0000
0000
2003
0000
0000
3100
0000
0040
0004
0000
0000
,
0000
0000
0033
0002
,
2003
0000
3010
0200
0000
0302
0000
2003
,
0000
3010
0200
0000
0320
0000
2030
0000
,
3002
0000
0203
0310
0000
1010
0000
1000
,
0001
0010
0001
1000
0010
0100
0002
0000
,
2003
0000
0000
0000
3200
0000
0000
0320
0000
0000
0031
0000
0000
0000
4000
0004
,
0000
0000
3003
0002
,
0203
0000
0000
0000
0320
0000
0000
2030
0000
0000
3001
0000
4000
0040
0000
0000
,
0000
0000
3030
0020
,
1030
0000
0000
0000
0002
0000
0000
0023
0000
0000
0230
0000
0000
0000
0320
0000
,
0000
0031
2000
0000
3002
0000
0203
0000
,
0000
0320
0030
2000
,
3000
0000
0001
0000
0200
0000
0000
0320
0000
0000
0130
0000
0001
0000
1000
0000
,
0100
0000
0010
0000
0100
0000
1000
0000
0001
0000
0100
0000
0010
0000
1000
0010
,
1000
0001
0010
0100
1000
0000
2200
0000
,
0000
0000
0000
3300
,
0000
0000
0000
2002
,
0000
0000
0000
3003
,
0000
0000
0000
0202
,
0000
0303
0000
2020
,
0000
3030
0000
2002
,
3003
2200
3300
0022
,
0033
2002
3003
2000
,
3020
0230
0320
2030
,
3002
0000
0023
0000
0230
0000
1300
1000
,
0001
0001
0100
0100
0010
0010
1000
0010
,
0100
0001
1000
0001
0010
0100
4000
0000
,
0000
0000
0000
3400
,
0000
0000
0000
0000
0000
0000
0000
0000
0000
0000
0000
0000
0000
0000
0000
0000
0000
0000
4300
0004
0000
0000
0000
0000
,
0000
0000
0000
0000
,
0000
0000
0000
0000
,
0000
0000
0000
0000
,
0000
0000
0000
0000
,
0000
0000
0000
0000
,
0000
0000
0000
0000
0000
0000
3003
0001
,
0010
0100
1000
0001
0100
0000
0010
1000
,
0010
0100
0002
0003
1000
0001
1000
0001
,
0100
0001
1000
0100
2000
3000
0001
0100
,
0001
1000
0002
0003
1000
0001
0020
0030
,
0001
1000
0001
0100
0020
0030
1000
0001
,
0010
0100
2000
3000
0001
0100
0020
0030
,
1000
0001
0010
0100
2000
3000
0001
0100
,
0010
0100
0001
1000
0010
1000
2002
0000
,
0000
0000
0000
3003
;

//---------------dance-single - Ace Of Hearts (2011)----------------
#NOTES:
     dance-single:
     Ace Of Hearts (2011):
     Easy:
     6:
     0.206,0.000,0.008,0.116,0.004:
0000
0000
0000
0000
,
0000
0000
0000
0000
,
0000
0000
0000
0000
,
0000
0000
0000
0000
,
0000
0000
0000
0000
,
0000
0000
0000
0000
,
0000
0000
0000
0000
,
0000
0000
0000
0001
,
0001
0002
0003
1000
,
0001
1000
0000
0010
,
0100
0010
0000
1000
,
0010
1000
0000
0001
,
0010
0001
0000
1000
,
0100
1000
0000
0001
,
1000
0001
0000
0100
,
0100
0100
0100
0010
,
0010
0010
0000
1000
,
0010
1000
0000
0001
,
0010
0001
0000
0010
,
0100
0010
0000
0001
,
1000
0001
0000
1000
,
0100
1000
0000
0001
,
0100
0001
0000
4000
,
0000
0000
0000
0000
,
0000
3000
0000
0001
,
0000
0001
0000
0010
,
0000
0010
0000
0001
,
0000
0001
0000
1000
,
0000
2000
0000
3010
,
0000
0010
0000
0100
,
0000
0100
0000
0001
,
0000
0001
0000
2000
,
0000
3000
0000
0010
,
0010
0010
0000
1000
,
1000
1000
0000
0001
,
0001
0001
0000
0100
,
0100
0200
0300
0010
,
0010
0010
0000
1000
,
1000
1000
0000
0001
,
0001
0001
0000
0010
,
0010
0000
0020
0000
0030
0000
0000
0001
,
0000
0001
0000
0001
0000
0000
0000
1000
,
0000
1000
0000
1000
0000
0000
0010
0000
,
0010
0010
0000
0100
,
0100
0100
0000
0001
,
0001
0002
0003
1000
,
1000
2000
3000
0010
,
0010
1000
1000
0001
,
0001
0001
0000
0020
,
0000
0030
0000
0001
,
0000
0001
0000
1000
,
1000
1000
0000
0010
,
0010
0010
0000
0010
,
0000
1000
1000
1000
,
0000
0001
0001
0002
,
0000
0003
0000
1001
,
0000
1000
1000
2000
,
0000
3000
0000
0010
,
0000
0010
0000
0020
,
0000
0030
0000
0000
,
1000
1000
0000
0001
,
0000
0001
0000
0010
,
0000
0010
0000
0100
,
0000
0100
0000
0200
,
0000
0300
0000
1000
,
1000
1000
0000
0004
,
0000
0000
0003
0100
,
0100
0100
0000
0040
,
0000
0000
0030
1000
,
1000
1000
0000
0001
,
0000
0001
0000
0100
,
0000
0100
0000
0100
,
0000
0000
0000
0010
,
0010
0010
0000
0400
,
0000
0000
0300
0001
,
0001
0001
0000
4000
,
0000
0000
3000
0001
,
0001
0001
0000
0010
,
0000
0010
0000
0100
,
0000
0100
0000
0010
,
0000
0010
0000
0001
,
0000
0000
0000
0000
,
1000
0000
1000
0000
1000
0000
0000
0010
,
0000
0010
0000
0010
0000
0000
0000
1000
,
0000
1000
0000
1000
0000
0000
0000
0001
,
0000
0001
0000
0001
0000
0000
0000
0100
,
0000
0100
0000
0100
0000
0000
0000
0001
,
0000
0001
0000
0001
0000
0000
0000
1000
,
0000
1000
0000
1000
0000
0000
0000
0000
,
0010
0000
0000
1000
0000
0000
0000
0000
,
0001
0000
0000
0000
0001
0000
0000
0000
0001
0000
0000
0000
4000
0004
0000
0000
,
0000
0000
0000
0000
,
0000
0000
0000
0000
,
0000
0000
0000
0000
,
0000
0000
0000
0000
,
0000
0000
0000
0000
,
0000
0000
0000
3003
,
0001
0001
0001
0040
,
0000
0030
0000
0002
,
0000
0003
0000
1000
,
0000
1000
0000
0010
,
0010
0010
0000
0100
,
0100
0100
0000
0100
,
0000
0001
0001
0001
,
0000
1000
1000
1000
,
0000
0010
0000
0010
,
0000
0100
0000
0200
,
0000
0300
0000
0001
,
0000
0001
0000
2000
,
0000
3000
0000
0000
,
0010
0010
0000
1000
,
0000
1000
0000
0001
,
0000
0001
0000
0020
,
0000
0000
0000
0130
,
0000
0000
0000
1000
,
1000
1000
0000
0004
,
0000
0000
0003
0010
,
0010
0010
0000
0400
,
0000
0000
0300
1000
,
1000
1000
0000
0001
,
0000
0001
0000
0100
,
0000
0100
0000
0010
,
0000
0000
0000
0100
,
0100
0100
0000
0004
,
0000
0000
0003
1000
,
1000
1000
0000
0040
,
0000
0000
0030
1000
,
1000
1000
0000
0001
,
0000
0001
0000
0100
,
0000
0100
0000
0010
,
0000
0010
0000
0010
,
0000
0000
0000
0000
,
1000
1000
1000
0002
,
0000
0000
0000
0003
,
0000
0000
0000
2000
,
0000
0000
0000
3000
,
0000
0000
0000
0020
,
0000
0030
0000
2000
,
0000
3000
0000
0020
,
0030
0200
0300
0020
,
0030
0200
0300
0001
,
0001
0001
0001
1000
,
1000
1000
1000
0040
,
0000
0000
0030
4000
,
0000
0000
3000
0004
,
0000
0000
0003
4000
,
0000
0000
0000
0000
0000
0000
0000
0000
3000
0000
0000
0000
0004
4000
0000
0000
,
0000
0000
0000
0000
,
0000
0000
0000
0000
,
0000
0000
0000
0000
,
0000
0000
0000
0000
,
0000
0000
0000
0000
,
0000
0000
0000
3003
,
0000
1000
1000
2000
,
0000
3000
0000
0010
,
0010
0010
0000
0100
,
0100
0100
0000
0001
,
0001
0001
0000
2000
,
0000
3000
0000
0010
,
0010
0010
0000
1000
,
1000
1000
0000
2002
,
0000
0000
0000
3003
;

//---------------dance-single - Ace Of Hearts (2011)----------------
#NOTES:
     dance-single:
     Ace Of Hearts (2011):
     Beginner:
     2:
     0.134,0.000,0.008,0.132,0.004:
0000
0000
0000
0000
,
0000
0000
0000
0000
,
0000
0000
0000
0000
,
0000
0000
0000
0000
,
0000
0000
0000
0000
,
0000
0000
0000
0000
,
0000
0000
0000
0000
,
0000
0000
0000
0000
,
0000
0000
0000
1000
,
0000
1000
0000
2000
,
0000
3000
0000
0001
,
0000
0001
0000
0002
,
0000
0003
0000
0100
,
0000
0100
0000
0200
,
0000
0300
0000
0010
,
0000
0010
0000
0020
,
0000
0030
0000
1000
,
0000
1000
0000
2000
,
0000
3000
0000
0001
,
0000
0001
0000
0002
,
0000
0003
0000
0010
,
0000
0010
0000
0020
,
0000
0030
0000
0004
,
0000
0000
0000
0000
,
0000
0003
0000
1000
,
0000
0000
0000
1000
,
0000
0000
0000
0001
,
0000
0000
0000
0001
,
0000
0000
0000
0100
,
0000
0000
0000
0100
,
0000
0000
0000
0010
,
0000
0000
0000
0010
,
0000
0000
0000
1000
,
0000
1000
0000
1000
,
0000
1000
0000
0001
,
0000
0001
0000
0001
,
0000
0001
0000
0010
,
0000
0010
0000
0010
,
0000
0010
0000
0100
,
0000
0100
0000
0100
,
0000
0100
0000
1000
,
0000
1000
0000
1000
,
0000
1000
0000
0001
,
0000
0001
0000
0001
,
0000
0001
0000
2000
,
0000
3000
0000
0020
,
0000
0030
0000
1000
,
0000
1000
0000
1000
,
0000
1000
0000
2000
,
0000
3000
0000
0001
,
0000
0001
0000
0002
,
0000
0000
0000
0003
,
0000
0000
0000
0010
,
0000
0000
0000
0010
,
0000
0000
0000
0100
,
0000
0100
0000
0100
,
0000
0000
0000
2000
,
0000
3000
0000
0001
,
0000
0001
0000
0002
,
0000
0000
0003
0000
,
0000
1000
0000
2000
,
0000
3000
0000
0200
,
0000
0300
0000
0020
,
0000
0030
0000
0000
,
0000
0000
0000
0001
,
0000
0001
0000
0004
,
0000
0003
0000
1000
,
0000
1000
0000
4000
,
0000
3000
0000
0010
,
0000
0010
0000
0010
,
0000
0000
0000
1000
,
0000
1000
0000
1000
,
0000
0000
0000
0100
,
0000
0100
0000
0400
,
0000
0300
0000
0010
,
0000
0010
0000
0040
,
0000
0030
0000
0001
,
0000
0001
0000
0001
,
0000
0000
0000
2000
,
0000
3000
0000
0010
,
0000
0010
0000
0010
,
0000
0000
0000
0000
,
0000
0000
0000
1000
,
0000
1000
0000
1000
,
0000
0000
0000
0010
,
0000
0010
0000
0010
,
0000
0000
0000
0100
,
0000
0100
0000
0100
,
0000
0000
0000
0001
,
0000
0001
0000
0001
,
0000
0000
0000
0000
0000
0000
0000
0000
0000
0000
0000
0000
4000
0004
0000
0000
,
0000
0000
0000
0000
,
0000
0000
0000
0000
,
0000
0000
0000
0000
,
0000
0000
0000
0000
,
0000
0000
0000
0000
,
0000
0000
0000
3003
,
0000
0000
0000
0004
,
0000
0003
0000
0020
,
0000
0030
0000
0001
,
0000
0001
0000
0002
,
0000
0000
0003
0000
,
0000
0000
0000
1000
,
0000
0000
0000
1000
,
0000
0000
0000
0100
,
0000
0100
0000
0100
,
0000
0000
0000
0020
,
0000
0030
0000
0100
,
0000
0100
0000
0200
,
0000
0000
0300
0000
,
0000
0010
0000
0010
,
0000
0000
0000
0001
,
0000
0000
0000
0001
,
0000
0000
0000
1001
,
0000
0000
0000
1000
,
0000
1000
0000
4000
,
0000
3000
0000
0010
,
0000
0010
0000
0040
,
0000
0030
0000
0100
,
0000
0100
0000
0100
,
0000
0000
0000
0001
,
0000
0001
0000
0001
,
0000
0000
0000
0100
,
0000
0100
0000
0400
,
0000
0300
0000
0010
,
0000
0010
0000
0040
,
0000
0030
0000
1000
,
0000
1000
0000
1000
,
0000
0000
0000
0002
,
0000
0003
0000
0010
,
0000
0010
0000
0010
,
0000
0000
0000
0000
,
0000
0000
0000
2000
,
0000
0000
0000
3000
,
0000
0000
0000
0020
,
0000
0000
0000
0030
,
0000
0000
0000
2000
,
0000
3000
0000
0002
,
0000
0003
0000
1000
,
0000
1000
0000
1000
,
0000
1000
0000
0001
,
0001
0001
0000
0010
,
0010
0010
0000
0004
,
0000
0003
0000
4000
,
0000
3000
0000
0040
,
0000
0030
0000
0400
,
0000
0000
0000
0000
0300
0000
0000
0000
0000
0000
0000
0000
0004
4000
0000
0000
,
0000
0000
0000
0000
,
0000
0000
0000
0000
,
0000
0000
0000
0000
,
0000
0000
0000
0000
,
0000
0000
0000
0000
,
0000
0000
0000
3003
,
0000
1000
0000
2000
,
0000
3000
0000
0010
,
0000
0010
0000
0020
,
0000
0030
0000
1000
,
0000
1000
0000
2000
,
0000
3000
0000
0001
,
0000
0001
0000
0002
,
0000
0003
0000
2002
,
0000
0000
0000
3003
;
