#TITLE:MJG Recruitment Song;
#SUBTITLE:~Arranged~;
#ARTIST:Sato Tenpei;
#TITLETRANSLIT:;
#SUBTITLETRANSLIT:;
#ARTISTTRANSLIT:;
#GENRE:J-Pop;
#CREDIT:Ace Of Hearts;
#BANNER:MJG Recruitment Song - bn.png;
#BACKGROUND:MJG Recruitment Song - bg.png;
#LYRICSPATH:;
#CDTITLE:Ace Of Hearts.png;
#MUSIC:MJG Recruitment Song ~Arranged~.ogg;
#OFFSET:2.410;
#SAMPLESTART:63.600;
#SAMPLELENGTH:18.000;
#SELECTABLE:YES;
#BPMS:0.000=120.000;
#STOPS:;
#BGCHANGES:;
#KEYSOUNDS:;

//---------------dance-single - Hard Worker----------------
#NOTES:
     dance-single:
     Ace Of Hearts (2011):
     Hard:
     7:
     0.452,0.000,0.062,0.625,0.091: // measure 1
0000
0000
0000
0000
,  // measure 2
0000
0000
0000
0000
,  // measure 3
0000
0000
0000
0000
,  // measure 4
0000
0000
0000
0000
,  // measure 5
0000
0000
0000
0000
,  // measure 6
0000
0000
0000
0000
,  // measure 7
0001
0000
1000
0100
1000
0000
0001
0000
0100
0000
0000
0000
0000
0000
0000
0000
,  // measure 8
0001
0000
0010
0001
0010
0000
0100
0000
1000
0000
0000
0000
0000
0000
0000
0000
,  // measure 9
0001
0000
0100
0001
0100
0000
0010
0000
1000
0000
0001
0000
0100
0000
0010
0000
,  // measure 10
0100
0000
0002
0000
1003
0100
0010
0100
,  // measure 11
1000
0001
0200
0000
0301
1000
0200
0000
,  // measure 12
1300
0001
0100
0010
0100
0001
1000
0010
,  // measure 13
0200
0000
0000
0301
1000
0000
0001
0000
0100
0000
0002
0000
0000
0000
1003
0000
,  // measure 14
0010
0100
0010
1000
0002
0000
0003
0010
,  // measure 15
0001
1000
0002
0000
1003
0010
0200
0000
,  // measure 16
0310
0000
1000
0000
0001
0000
0100
0000
0002
0000
0000
0000
0003
0000
1000
0100
,  // measure 17
1000
0000
0001
0000
0100
0000
0001
0100
0001
0000
1000
0000
0001
0000
0010
0001
,  // measure 18
0010
0100
1000
0001
0020
0000
0030
0002
,  // measure 19
1003
0020
0000
1030
0001
0020
0000
0130
,  // measure 20
2000
0000
0000
3001
0100
0000
0001
0000
2000
0000
0000
0000
3000
0000
0002
0000
,  // measure 21
0103
0020
0000
1030
0001
0020
0000
0130
,  // measure 22
2000
0000
0000
3001
0100
0000
0010
0000
0200
0000
0000
0000
0300
0000
0001
0100
,  // measure 23
0001
0000
0000
0000
0000
0000
1000
0100
1000
0000
0000
0000
0000
0000
0001
0100
,  // measure 24
0001
0000
1000
0000
0020
0000
0030
0200
,  // measure 25
0301
2000
0000
3100
0010
0002
0000
1003
,  // measure 26
0020
0000
0000
0130
0001
0000
1000
0000
0200
0000
0000
0000
0300
0000
0020
0000
,  // measure 27
0031
2000
0000
3002
0103
0020
0000
1030
,  // measure 28
0002
0000
0000
1003
0010
0000
1000
0000
0002
0000
0000
0000
0003
0000
0000
0000
,  // measure 29
0100
0020
1030
0002
,  // measure 30
0013
0200
0000
0000
0000
0000
0300
0000
,  // measure 31
2000
3002
0203
0320
,  // measure 32
1030
0002
0000
0000
0000
0000
0000
0000
,  // measure 33
0003
1001
1100
0011
,  // measure 34
0002
0000
1003
0010
1000
0002
0000
0013
,  // measure 35
0100
1000
0100
0010
0002
0000
0003
0000
,  // measure 36
2000
0000
0000
3001
0100
0000
0010
0000
0100
0000
0002
0000
0000
0000
1003
0000
,  // measure 37
0010
0100
0010
1000
0004
0000
0003
0000
,  // measure 38
2000
0000
0000
3001
0010
0000
0001
0000
1000
0000
0020
0000
0000
0000
1030
0000
,  // measure 39
0010
0100
0001
1000
0002
0000
0003
0010
,  // measure 40
0100
2000
0000
3001
0100
0020
0000
1030
,  // measure 41
0001
1000
2200
3300
,  // measure 42
2000
0000
3001
0100
0001
2000
0000
3001
,  // measure 43
0010
0100
1000
0001
0200
0000
0300
0000
,  // measure 44
0002
0000
0000
1003
0100
0000
0010
0000
0100
0000
2000
0000
0000
0000
3001
0000
,  // measure 45
0100
0010
1000
0001
0040
0000
0030
0000
,  // measure 46
0200
0000
0000
1300
0001
0000
1000
0000
0010
0000
0100
0000
0001
0000
1000
0000
,  // measure 47
0100
0010
0100
1000
0002
0000
0003
1000
,  // measure 48
0100
0020
0000
0130
1000
0001
0100
0010
,  // measure 49
1000
0002
0203
0310
,  // measure 50
2020
0000
0000
0000
,  // measure 51
0000
0000
0000
0000
0000
0000
0000
0000
3030
0000
0000
0000
0000
0000
1000
0001
,  // measure 52
1000
0000
0001
0000
0010
0000
0100
0000
4000
0000
0000
0000
3000
0000
0001
0100
,  // measure 53
0001
1000
0001
0010
0200
1300
0001
1000
,  // measure 54
0010
0000
0100
0000
0001
0000
0100
0000
0010
0000
1000
0000
0001
0000
0010
0001
,  // measure 55
0010
0000
0100
0000
1000
0000
0001
0000
2000
0000
0000
0000
3000
0000
0010
1000
,  // measure 56
0010
0000
1000
0000
0001
0000
0010
0000
0100
0000
0010
0000
0001
0000
1000
0001
,  // measure 57
1000
0000
0010
0000
1000
0000
0001
0000
0200
0000
0000
0000
0300
0000
0001
0100
,  // measure 58
0001
0000
0000
0000
0000
0000
1000
0010
1000
0000
0000
0000
0000
0000
0001
0010
,  // measure 59
0001
1000
0010
0100
0001
1000
0001
0010
,  // measure 60
0100
0000
1000
0000
0001
0000
0100
0000
0001
1000
0001
0000
0010
0000
0001
0000
,  // measure 61
1000
0000
0010
1000
0010
0000
1000
0000
0001
0000
0010
0000
0100
0000
1000
0000
,  // measure 62
0001
0000
0100
0001
0100
0000
0010
0000
1000
0000
0001
0000
0010
0000
0001
0000
,  // measure 63
0020
0032
2003
3002
,  // measure 64
0203
0302
2003
3002
,  // measure 65
0403
0000
0000
0000
,  // measure 66
0300
0000
0000
0000
0040
0000
0030
0100
,  // measure 67
0001
2000
0000
3001
0100
0020
0000
0130
,  // measure 68
0002
0000
0000
1003
0010
0000
1000
0000
0002
0000
0000
0000
0003
0000
0010
0000
,  // measure 69
0100
2000
0000
3001
0100
0020
0000
0130
,  // measure 70
0002
0000
0000
1003
0100
0000
0010
0000
0200
0000
0000
0000
0300
0000
1000
0100
,  // measure 71
1000
0000
0000
0000
0000
0000
0001
0100
0001
0000
0000
0000
0000
0000
1000
0010
,  // measure 72
1000
0000
0001
0000
0020
0000
0030
0001
,  // measure 73
1000
0020
0000
0130
0001
2000
0000
3001
,  // measure 74
0020
0000
0000
0031
1000
0000
0010
0000
0200
0000
0000
0000
0300
0000
0001
0000
,  // measure 75
0100
0020
0000
1030
0001
0020
0000
0130
,  // measure 76
2000
0000
0000
3001
0100
0000
0010
0000
0200
0000
0000
0000
0300
0000
0000
0000
,  // measure 77
0002
2003
3020
0230
,  // measure 78
0301
2000
0000
0000
0000
0000
3000
0000
,  // measure 79
0002
0023
0230
2300
,  // measure 80
3001
0020
0000
0000
0000
0000
0000
0000
,  // measure 81
0000
0000
0000
0030
,  // measure 82
0001
0000
1000
0010
1000
0000
0001
0000
0010
0000
0001
0000
1000
0000
0010
0000
,  // measure 83
1000
1001
0101
1010
,  // measure 84
2000
0000
3001
0010
0100
2000
0000
3001
,  // measure 85
0010
0100
1000
0001
0200
0000
0300
0000
,  // measure 86
0020
0000
0000
0130
0001
0000
1000
0000
0100
0000
0020
0000
0000
0000
0130
0000
,  // measure 87
1000
0001
1000
0100
0020
0000
0030
0000
,  // measure 88
0002
0000
0000
1003
0010
0000
1000
0000
0001
0000
0020
0000
0000
0000
0130
0000
,  // measure 89
1000
0001
0100
0010
0200
0000
0300
0001
,  // measure 90
1000
0200
0000
1300
0001
2000
0000
3010
,  // measure 91
0200
0301
2002
3003
,  // measure 92
2000
0000
3010
0100
0001
2000
0000
3001
,  // measure 93
0010
0100
1000
0001
0200
0000
0300
0000
,  // measure 94
0020
0000
0000
0130
0001
0000
1000
0000
0100
0000
0020
0000
0000
0000
0130
0000
,  // measure 95
1000
0001
1000
0001
0040
0000
0030
0000
,  // measure 96
0002
0000
0000
1003
0100
0000
1000
0000
0001
0000
0200
0000
0000
0000
0301
0000
,  // measure 97
1000
0010
0100
0001
2000
0000
3000
0001
,  // measure 98
0100
0020
0000
0000
0000
0000
0030
1000
,  // measure 99
0001
2000
0000
0000
0000
0000
3000
0001
,  // measure 100
0100
0020
0000
0000
0000
0000
0000
0000
,  // measure 101
0000
0000
0030
0000
1000
0001
1000
0100
,  // measure 102
0010
0011
0110
1100
,  // measure 103
2002
0000
0000
0000
,  // measure 104
0000
0000
0000
0000
,  // measure 105
3003
0000
0002
0000
0003
1000
0100
0010
,  // measure 106
0001
0010
0001
1000
0010
1000
0001
0010
,  // measure 107
0002
0000
2003
3000
,  // measure 108
0020
0000
0230
0300
,  // measure 109
0002
0000
2003
0000
3200
0000
2300
3000
,  // measure 110
2002
0000
0000
3003
,  // measure 111
0001
0010
0100
0010
0002
0000
0103
0000
;

//---------------dance-single - Workaholic----------------
#NOTES:
     dance-single:
     Ace Of Hearts (2011):
     Challenge:
     9:
     0.671,0.000,0.394,0.762,0.295: // measure 1
0000
0000
0000
0000
,  // measure 2
0000
0000
0000
0000
,  // measure 3
0000
0000
0000
0000
,  // measure 4
0000
0000
0000
0000
,  // measure 5
0000
0000
0000
0000
,  // measure 6
0000
0000
0000
0000
,  // measure 7
1000
0000
0010
1000
0010
0000
0100
0000
0001
1000
0001
1000
0010
0100
0010
0100
,  // measure 8
0001
0000
1000
0001
1000
0000
0001
0000
0010
0000
0100
1000
0100
0010
0001
0010
,  // measure 9
0100
0000
1000
0100
1000
0000
0001
0000
0100
0000
0010
0000
1000
0000
0001
0000
,  // measure 10
0101
0000
0000
0000
0200
0000
0000
0300
0110
0000
0010
0000
1000
0000
0001
0000
,  // measure 11
0010
0100
2000
0000
3010
0100
0002
0000
,  // measure 12
0013
0100
2000
3001
0010
0100
1000
0001
,  // measure 13
0200
0000
0000
0301
1000
0000
0010
0000
0110
0000
0200
0000
0000
0000
0301
0000
,  // measure 14
0010
0000
0001
0000
1000
0000
0010
0000
0200
0000
0001
0000
0001
0300
0001
0000
,  // measure 15
1000
0010
0200
0000
0301
1000
0200
0000
,  // measure 16
0310
0000
0100
0000
2000
0000
3001
0000
0100
0000
0010
0000
1000
0000
0001
0010
,  // measure 17
0100
0000
1000
0000
1100
0000
0100
0010
0001
0000
1000
0000
1001
0000
0001
0100
,  // measure 18
0010
0100
0001
1000
0020
0000
0030
0100
,  // measure 19
0101
0002
0000
1003
1100
0200
0000
0310
,  // measure 20
0012
0000
0000
1003
0010
0000
0100
0000
0001
0000
1000
0100
0020
0000
0130
0000
,  // measure 21
1100
2000
0000
3001
0101
0200
0000
0310
,  // measure 22
2010
0000
0000
3001
0010
0000
0100
0010
0001
0000
1000
0000
0100
0000
0010
0100
,  // measure 23
1000
0000
0001
0000
1001
0000
1000
0100
0010
0000
0001
0000
0011
0000
0010
0100
,  // measure 24
1000
1001
0001
0101
0200
0010
0320
1030
,  // measure 25
1001
0002
0000
0013
0110
0200
0000
1300
,  // measure 26
1002
0000
0000
0103
0010
0000
1000
0000
0002
0000
0013
0000
0200
0000
1300
0000
,  // measure 27
1001
0002
0000
0103
0110
0020
0000
1030
,  // measure 28
1002
0000
0000
0013
0100
0000
1000
0000
0002
0000
0100
0003
0100
0010
1000
0010
,  // measure 29
0200
0000
0000
0000
0302
0000
0000
0000
2003
0000
0000
0000
3020
0000
0000
0030
,  // measure 30
0110
0200
0000
0000
0001
0020
0300
0030
,  // measure 31
2010
0000
0000
0000
3002
0000
0000
0000
0023
0000
0000
0000
0230
0000
0000
0300
,  // measure 32
1100
2000
3001
0100
0010
0100
0001
1000
,  // measure 33
1100
0000
0000
0000
2002
0000
3003
0000
0201
0000
0310
1000
0001
0000
0010
0000
,  // measure 34
0210
0000
2300
3001
0011
0020
0000
0130
,  // measure 35
1100
0000
1000
0000
0001
0000
1000
0000
0001
0010
0100
0010
0002
0000
0000
0003
,  // measure 36
2001
0000
0000
3010
0100
0000
0001
0000
1001
0000
2000
0000
0000
0000
3100
0000
,  // measure 37
0010
0100
1000
0001
0020
0130
1000
0001
,  // measure 38
0010
0001
0010
0001
1000
0100
1000
0100
0010
0001
0010
0001
1000
0010
1000
0010
,  // measure 39
0100
0001
0100
0001
1000
0001
1000
0001
0200
0000
0000
0000
0300
0000
0001
0000
,  // measure 40
1001
0000
2000
0000
0000
0000
3100
0010
0100
0000
0020
0000
0031
0000
1000
0001
,  // measure 41
1000
0000
0000
0000
1010
0000
0000
0000
0010
0100
0001
0100
0010
0000
1000
0000
,  // measure 42
0002
0000
0013
0100
1100
2000
0000
3001
,  // measure 43
0100
0000
0010
0000
0100
0000
0001
0000
2000
0000
3001
0100
0020
0000
0000
0000
,  // measure 44
2030
0000
0000
3001
0100
0000
0010
0000
1010
0000
2000
0000
0000
0000
3001
0000
,  // measure 45
0010
0100
0010
0001
2000
3010
0100
0001
,  // measure 46
1000
0100
1000
0100
0010
0001
0010
0001
1000
0001
1000
0001
1000
0010
1000
0010
,  // measure 47
0100
0001
0100
0001
1000
0010
1000
0010
0200
0000
0301
0000
1000
0000
0100
0000
,  // measure 48
0110
0020
0031
1000
1010
0020
0130
0001
,  // measure 49
1001
0000
2200
3300
0110
0000
0011
0000
,  // measure 50
2002
0003
0020
0030
0002
0003
0200
0300
,  // measure 51
3001
0000
0100
0000
0010
0000
1000
0000
0200
0000
0300
0000
0120
0000
0031
1000
,  // measure 52
0010
0000
0100
0000
0010
0000
1000
0000
0004
0400
0000
0000
0303
0000
0100
0010
,  // measure 53
1000
0001
0010
0100
4000
3001
0100
0010
,  // measure 54
2000
0000
3001
0000
0200
0000
0310
0000
2000
0000
3001
0000
0020
0000
0130
1000
,  // measure 55
0002
0000
1003
0000
0020
0000
0130
0000
0002
0000
0000
0000
0003
0000
1000
0010
,  // measure 56
0200
0000
0301
0000
1000
0000
0100
0000
0010
0100
1000
0100
0020
0000
0031
1000
,  // measure 57
0010
0000
0100
0000
0001
0000
1000
0000
0200
0000
0000
0300
0110
0000
0010
0001
,  // measure 58
1000
0000
0100
0000
0200
0000
0310
0001
1000
0000
0100
0000
0100
1000
0001
1000
,  // measure 59
0200
0310
0002
1003
0020
0130
0002
1003
,  // measure 60
1010
0000
0020
0000
0130
0000
0001
0000
1000
0100
1000
0100
1000
0100
1000
0001
,  // measure 61
0100
0000
0001
1000
0010
0000
1000
0000
0001
0000
1000
0100
0010
0000
0100
0000
,  // measure 62
1000
0000
0001
0100
0010
0000
0100
0000
0001
0000
1000
0100
0010
0000
0100
0000
,  // measure 63
2000
0000
0000
0000
0000
0000
0000
3000
2000
0000
0000
0000
0000
0000
0000
0000
3002
0000
0000
0000
0000
0000
0000
0003
0002
0000
0000
0000
0000
0000
0000
0000
,  // measure 64
0023
0000
0000
0000
0000
0000
0000
0030
0020
0000
0000
0000
0000
0000
0000
0000
0230
0000
0000
0000
0000
0000
0000
0300
0200
0000
0000
0000
0000
0000
0000
0000
,  // measure 65
1300
0010
0100
0010
1000
0001
0010
0100
1000
0100
0010
0001
,  // measure 66
2000
0000
0000
0000
3040
0000
0030
1000
,  // measure 67
1001
0002
0000
0013
0110
0200
0000
1300
,  // measure 68
1002
0000
0000
0103
0010
0000
1000
0000
0002
0000
0103
0010
1000
0000
0001
0000
,  // measure 69
1000
0100
0010
0100
1000
0000
0001
0010
0100
0010
0001
0000
1000
0000
0010
0000
,  // measure 70
0200
0000
0000
0301
1000
0100
1000
0001
0200
0000
0010
0000
0310
0000
1000
0001
,  // measure 71
0010
0000
0100
0000
1100
0000
1000
0001
0100
0000
0010
0000
1010
0000
1000
0001
,  // measure 72
0010
0110
0100
1100
2000
0001
3002
0103
,  // measure 73
0110
0020
0000
1030
1001
0002
0000
0013
,  // measure 74
0210
0000
0000
1300
0001
0000
0010
0000
0200
0000
1300
0100
0020
0000
0031
0000
,  // measure 75
1001
2000
0000
3010
0110
0200
0000
0301
,  // measure 76
2001
0000
0000
3100
0010
0000
0100
0000
2000
0000
0001
0000
3001
0100
0001
1000
,  // measure 77
0200
0000
0000
0000
0320
0000
0000
0000
0032
0000
0000
0000
2003
0000
0000
3000
,  // measure 78
1100
0000
0100
0010
0001
0000
1000
0000
0020
0000
0130
0000
0002
0000
1003
0000
,  // measure 79
0200
0000
0000
0000
0320
0000
0000
0000
0230
0000
0000
0000
2300
0000
0000
3000
,  // measure 80
1001
0000
0001
0010
0100
0000
1000
0100
0010
0000
0100
0000
0100
0000
1000
0000
,  // measure 81
1001
0000
0001
0010
0100
0000
0010
0001
1000
0000
0010
0000
0010
0000
1000
0000
,  // measure 82
1001
0000
0001
0100
0010
0000
1000
0000
0001
0000
0010
0000
0100
0000
1000
0000
,  // measure 83
1001
0000
0000
0000
0202
0000
0303
0000
0120
0000
1030
0000
0001
0010
0100
0000
,  // measure 84
2000
0000
3001
0010
0100
2000
0000
3001
,  // measure 85
0010
0100
1000
0001
0200
0000
0300
0000
,  // measure 86
0020
0000
0000
0130
0001
0000
1000
0000
0100
0000
0020
0000
0000
0000
0130
0000
,  // measure 87
1000
0001
1000
0100
0020
0000
0030
0000
,  // measure 88
0002
0000
0000
0103
0010
0000
1000
0000
0001
0000
0010
0000
0100
0000
1000
0000
,  // measure 89
0001
0010
0100
1000
0200
0000
0300
1000
,  // measure 90
0001
0000
0020
0000
0000
0000
0031
1000
0100
0000
0020
0000
0000
0000
0130
1000
,  // measure 91
0002
0000
0000
0003
0202
0000
0303
0000
0210
0000
0301
1000
0001
0000
0010
0000
,  // measure 92
0210
0000
1300
0001
0100
0020
0000
1030
,  // measure 93
1001
0000
0001
0000
0010
0000
0100
0000
1000
0000
0001
0100
0020
0000
0030
0000
,  // measure 94
2010
0000
0000
3001
0010
0000
0100
0000
0010
0000
0002
0000
0000
0000
1003
0000
,  // measure 95
1010
0010
0100
0001
2000
3010
0100
0001
,  // measure 96
1000
0100
0010
0001
0010
0100
1000
0001
0100
0010
1000
0010
0100
0001
1000
0001
,  // measure 97
0100
0010
0100
0001
1000
0001
0010
0100
2000
0000
3001
0000
0100
0000
0010
0000
,  // measure 98
1010
0000
2000
0000
3001
0000
0001
0000
0010
0100
1000
0100
0010
0000
0001
0000
,  // measure 99
1001
0000
1000
0100
0010
0000
0100
0000
1000
0000
0001
0000
0100
0000
0001
0000
,  // measure 100
1001
2000
0020
0030
0002
0003
0200
0300
,  // measure 101
3001
0100
0010
0100
0001
1000
0100
0010
,  // measure 102
0011
0110
1100
1001
,  // measure 103
2012
0000
0000
0000
,  // measure 104
0000
0000
0000
0000
,  // measure 105
3003
0000
0002
0000
0003
0100
0010
1000
,  // measure 106
0001
0010
0100
1000
0001
0100
0010
1000
,  // measure 107
0002
0000
0203
0300
,  // measure 108
0120
0000
2030
3000
,  // measure 109
2020
3030
0202
0303
2002
3003
2200
3300
,  // measure 110
0022
0030
0000
0003
,  // measure 111
1001
0001
0011
0010
0220
0000
1000
0000
,  // measure 112
0330
0000
0000
0000
;

//---------------dance-single - Average Joe----------------
#NOTES:
     dance-single:
     Ace Of Hearts (2011):
     Medium:
     5:
     0.317,0.000,0.009,0.505,0.000: // measure 1
0000
0000
0000
0000
,  // measure 2
0000
0000
0000
0000
,  // measure 3
0000
0000
0000
0000
,  // measure 4
0000
0000
0000
0000
,  // measure 5
0000
0000
0000
0000
,  // measure 6
0000
0000
0000
0000
,  // measure 7
0001
0010
0001
0000
1000
0000
0000
0000
,  // measure 8
0001
0100
0001
0000
1000
0000
0000
0000
,  // measure 9
0010
1000
0010
0000
1000
0000
0000
0000
,  // measure 10
0001
0020
0031
0000
,  // measure 11
1000
1000
0010
0010
,  // measure 12
0100
0000
0100
0000
0100
0001
0100
0001
,  // measure 13
0100
0000
0001
0000
1000
0200
0000
0300
,  // measure 14
1000
0001
1000
0000
0200
0000
0300
0000
,  // measure 15
0010
0010
0001
0001
,  // measure 16
1000
1000
2000
3000
,  // measure 17
0010
1000
0010
0000
0100
0001
0100
0000
,  // measure 18
0001
1000
0001
1000
0002
0000
0003
0000
,  // measure 19
1000
0020
0000
0000
1030
0002
0000
0000
,  // measure 20
0013
0000
0001
1000
0002
0000
0003
0000
,  // measure 21
1000
0020
0000
0000
1030
0002
0000
0000
,  // measure 22
1003
0000
0001
0010
0002
0000
0003
1000
,  // measure 23
0100
0000
0000
1000
0001
0000
0000
1000
,  // measure 24
0100
1000
0002
0003
,  // measure 25
1000
0020
0000
0000
0130
0002
0000
0000
,  // measure 26
1003
0000
0010
1000
0020
0000
0030
0000
,  // measure 27
1000
0002
0000
0000
1003
0200
0000
0000
,  // measure 28
1300
0000
0001
0100
0002
0000
0003
0000
,  // measure 29
1000
0010
1000
0001
,  // measure 30
1000
0200
0000
0000
0000
0000
0300
0000
,  // measure 31
0010
0001
1000
0010
,  // measure 32
0100
0002
0000
0000
0000
0000
0000
0000
,  // measure 33
0003
2000
3200
0320
,  // measure 34
0031
0000
1000
0000
0001
0020
0000
0031
,  // measure 35
1000
0001
0200
0300
,  // measure 36
0002
0000
1003
0000
0001
0200
0000
0310
,  // measure 37
1000
0001
0020
0030
,  // measure 38
0002
0000
2003
0000
3001
0020
0000
0031
,  // measure 39
1000
0001
0200
0300
,  // measure 40
0001
2000
0000
0000
3001
0020
0000
0000
,  // measure 41
0130
0010
0002
0003
,  // measure 42
2000
0000
3010
0000
1000
0002
0000
1003
,  // measure 43
0100
1000
0002
0003
,  // measure 44
2000
0000
3010
0000
0100
0020
0000
1030
,  // measure 45
0001
1000
0020
0030
,  // measure 46
2000
0000
3001
0000
0010
0200
0000
0310
,  // measure 47
0001
1000
0002
0003
,  // measure 48
1000
0020
0000
1030
0001
0000
0010
0000
,  // measure 49
0001
1000
0001
0100
,  // measure 50
0020
0000
0000
0000
,  // measure 51
0000
0000
0030
0000
,  // measure 52
1000
0010
1000
0000
0002
0000
0003
0000
,  // measure 53
1000
0100
1000
0000
0002
0000
0003
0000
,  // measure 54
1000
0100
0010
0001
,  // measure 55
1000
0010
0200
0300
,  // measure 56
0001
0100
0001
0000
1000
0010
1000
0000
,  // measure 57
0001
0000
0010
0000
0200
0000
0300
1000
,  // measure 58
0001
0000
0000
1000
0001
0000
1000
0010
,  // measure 59
2000
3001
0010
0001
,  // measure 60
1000
0010
1000
0000
0001
0000
0001
0000
,  // measure 61
0010
0000
0010
0000
0001
1000
0001
0000
,  // measure 62
1000
0000
1000
0000
0010
1000
0010
0000
,  // measure 63
2000
3001
0002
1003
,  // measure 64
0020
0130
0200
0310
,  // measure 65
4000
0000
0000
0000
,  // measure 66
3000
0000
0000
0000
,  // measure 67
0001
0020
0000
0000
0031
2000
0000
0000
,  // measure 68
3010
0000
1000
0001
2000
0000
3000
0000
,  // measure 69
0001
0020
0000
0000
0130
2000
0000
0000
,  // measure 70
3001
0000
1000
0010
2000
0000
3000
0001
,  // measure 71
0010
0000
0000
0001
1000
0000
0000
0001
,  // measure 72
0100
0010
2000
3000
,  // measure 73
0001
0020
0000
0000
0031
2000
0000
0000
,  // measure 74
3001
0000
0010
0001
0020
0000
0030
0000
,  // measure 75
0001
2000
0000
0000
3001
0020
0000
0000
,  // measure 76
0130
0000
1000
0001
2000
0000
3000
0000
,  // measure 77
0001
0001
0100
0100
,  // measure 78
0010
2000
0000
0000
0000
0000
3000
0000
,  // measure 79
0001
0001
1000
1000
,  // measure 80
0100
0020
0000
0000
0000
0000
0000
0000
,  // measure 81
0000
0000
0000
0030
,  // measure 82
0002
0000
1003
0000
0001
0010
0001
0000
,  // measure 83
1000
0200
0320
0032
,  // measure 84
2003
0000
3002
0000
1003
0020
0000
0000
,  // measure 85
1030
0000
0001
0010
0002
0000
0003
0000
,  // measure 86
2000
0000
3200
0000
0310
0002
0000
0000
,  // measure 87
1003
0000
0001
0100
0002
0000
0003
0000
,  // measure 88
2000
0000
3020
0000
1030
0002
0000
0000
,  // measure 89
0013
0000
0100
1000
0200
0000
0300
0000
,  // measure 90
0010
0002
0000
0000
1003
0020
0000
0000
,  // measure 91
1030
0001
0200
0300
,  // measure 92
0020
0000
1030
0000
0001
0020
0000
0031
,  // measure 93
1000
0010
0200
0300
,  // measure 94
0002
0000
1003
0000
0001
0020
0000
0031
,  // measure 95
1000
0100
0020
0030
,  // measure 96
0002
0000
2003
0000
3001
0200
0000
0310
,  // measure 97
1000
0000
0001
0000
2000
0000
3000
0001
,  // measure 98
0100
0002
0000
0000
0000
0003
0000
1000
,  // measure 99
0100
2000
0000
0000
0000
0000
3000
0010
,  // measure 100
0100
0020
0000
0000
0000
0000
0000
0000
,  // measure 101
0000
0000
0030
0000
1000
0001
1000
0001
,  // measure 102
1000
0100
0010
0001
,  // measure 103
2002
0000
0000
0000
,  // measure 104
0000
0000
0000
0000
,  // measure 105
3003
0000
2000
0000
3000
0001
0100
0000
,  // measure 106
0001
0001
1000
1000
,  // measure 107
0020
0000
0230
0300
,  // measure 108
0002
0000
2003
3000
,  // measure 109
0020
2030
3002
1003
,  // measure 110
2002
0000
0000
3003
,  // measure 111
0001
0010
0001
0010
0001
0000
1000
0000
;

//---------------dance-single - Easy Hire----------------
#NOTES:
     dance-single:
     Ace Of Hearts (2011):
     Easy:
     3:
     0.170,0.000,0.004,0.066,0.000: // measure 1
0000
0000
0000
0000
,  // measure 2
0000
0000
0000
0000
,  // measure 3
0000
0000
0000
0000
,  // measure 4
0000
0000
0000
0000
,  // measure 5
0000
0000
0000
0000
,  // measure 6
0000
0000
0000
0000
,  // measure 7
1000
1000
1000
0000
,  // measure 8
0001
0001
0001
0000
,  // measure 9
0010
0010
0010
0000
,  // measure 10
0100
0100
0100
0000
,  // measure 11
1000
0000
1000
0000
,  // measure 12
0001
0000
0004
0000
,  // measure 13
0003
0000
1000
0000
,  // measure 14
0100
0100
0100
0000
,  // measure 15
0010
0000
0010
0000
,  // measure 16
0001
0001
0001
0000
,  // measure 17
1000
1000
1000
0000
,  // measure 18
0040
0000
0030
0000
,  // measure 19
1000
0000
1000
0000
,  // measure 20
0100
0100
0100
0000
,  // measure 21
0010
0000
0010
0000
,  // measure 22
0001
0001
0001
0000
,  // measure 23
1000
0000
1000
0000
,  // measure 24
0010
0010
0010
0000
,  // measure 25
1000
0000
1000
0000
,  // measure 26
0001
0001
0001
0000
,  // measure 27
0010
0000
0010
0000
,  // measure 28
0100
0100
0100
0000
,  // measure 29
1000
0000
1000
0000
,  // measure 30
2000
0000
3000
0000
,  // measure 31
0010
0010
0010
0000
,  // measure 32
0020
0000
0000
0000
,  // measure 33
0030
1000
1000
1000
,  // measure 34
0001
0001
0001
0000
,  // measure 35
0100
0100
0100
0000
,  // measure 36
0010
0010
0010
0000
,  // measure 37
1000
1000
1000
0000
,  // measure 38
0001
0001
0001
0000
,  // measure 39
0010
0010
0010
0000
,  // measure 40
0100
0000
0100
0000
,  // measure 41
1000
1000
1000
0000
,  // measure 42
0001
0001
0001
0000
,  // measure 43
0100
0100
0100
0000
,  // measure 44
0010
0010
0010
0000
,  // measure 45
1000
1000
1000
0000
,  // measure 46
0001
0001
0001
0000
,  // measure 47
0100
0100
0100
0000
,  // measure 48
0010
0000
0010
0010
,  // measure 49
1000
1000
1000
1000
,  // measure 50
2000
0000
0000
0000
,  // measure 51
0000
0000
3000
0000
,  // measure 52
0001
0001
0001
0000
,  // measure 53
0100
0100
0100
0000
,  // measure 54
0010
0010
0010
0000
,  // measure 55
1000
1000
1000
0000
,  // measure 56
0001
0001
0001
0000
,  // measure 57
0100
0100
0100
0000
,  // measure 58
0010
0000
0010
0000
,  // measure 59
1000
1000
1000
0000
,  // measure 60
0001
0000
0001
0000
,  // measure 61
0010
0010
0010
0000
,  // measure 62
0100
0100
0100
0000
,  // measure 63
1000
0000
1000
0000
,  // measure 64
0001
0000
0001
0000
,  // measure 65
0400
0000
0000
0000
,  // measure 66
0300
0000
0000
0000
,  // measure 67
0001
0000
0001
0000
,  // measure 68
1000
1000
1000
0000
,  // measure 69
0100
0000
0100
0000
,  // measure 70
0010
0010
0010
0000
,  // measure 71
0001
0000
0001
0000
,  // measure 72
1000
1000
1000
0000
,  // measure 73
0010
0000
0010
0000
,  // measure 74
0100
0100
0100
0000
,  // measure 75
0001
0000
0001
0000
,  // measure 76
1000
1000
1000
0000
,  // measure 77
0001
0001
0001
0000
,  // measure 78
0020
0000
0030
0000
,  // measure 79
0100
0100
0100
0000
,  // measure 80
2000
0000
0000
0000
,  // measure 81
0000
0000
3000
0000
,  // measure 82
0001
0001
0001
0000
,  // measure 83
0100
0100
0100
0100
,  // measure 84
0001
0001
0001
0000
,  // measure 85
1000
1000
1000
0000
,  // measure 86
0010
0010
0010
0000
,  // measure 87
1000
1000
1000
0000
,  // measure 88
0001
0001
0001
0000
,  // measure 89
0100
0100
0100
0000
,  // measure 90
0001
0000
0001
0000
,  // measure 91
0010
0010
0010
0000
,  // measure 92
0100
0000
0100
0000
,  // measure 93
1000
1000
1000
0000
,  // measure 94
0001
0000
0001
0000
,  // measure 95
0100
0100
0100
0000
,  // measure 96
0010
0000
0010
0000
,  // measure 97
1000
1000
1000
0000
,  // measure 98
0002
0000
0000
0003
,  // measure 99
2000
0000
0000
3000
,  // measure 100
0020
0000
0000
0000
,  // measure 101
0030
0000
4000
0000
,  // measure 102
3000
0001
0001
0001
,  // measure 103
2002
0000
0000
0000
,  // measure 104
0000
0000
0000
0000
,  // measure 105
3003
0000
0000
0000
,  // measure 106
0010
0010
0010
0000
,  // measure 107
2000
0000
3002
0000
,  // measure 108
2003
0000
3200
0000
,  // measure 109
0310
0010
0100
0100
,  // measure 110
2000
0000
0000
3000
,  // measure 111
0001
0001
0001
0001
0001
0000
0100
0000
;

//---------------dance-single - Rookie----------------
#NOTES:
     dance-single:
     Ace Of Hearts (2011):
     Beginner:
     1:
     0.118,0.000,0.004,0.226,0.000: // measure 1
0000
0000
0000
0000
,  // measure 2
0000
0000
0000
0000
,  // measure 3
0000
0000
0000
0000
,  // measure 4
0000
0000
0000
0000
,  // measure 5
0000
0000
0000
0000
,  // measure 6
0000
0000
0000
0000
,  // measure 7
0002
0000
0003
0000
,  // measure 8
2000
0000
3000
0000
,  // measure 9
0020
0000
0030
0000
,  // measure 10
2000
0000
3000
0000
,  // measure 11
0002
0000
0000
0000
,  // measure 12
0003
0000
4000
0000
,  // measure 13
3000
0000
0000
0000
,  // measure 14
0010
0000
0000
0000
,  // measure 15
2000
0000
3000
0000
,  // measure 16
0002
0000
0003
0000
,  // measure 17
0010
0000
0010
0000
,  // measure 18
0020
0000
0030
0000
,  // measure 19
0001
0000
0001
0000
,  // measure 20
0001
0000
0000
0000
,  // measure 21
1000
0000
1000
0000
,  // measure 22
1000
0000
0000
0000
,  // measure 23
0010
0000
0010
0000
,  // measure 24
0020
0000
0030
0000
,  // measure 25
1000
0000
1000
0000
,  // measure 26
1000
0000
0000
0000
,  // measure 27
0001
0000
0001
0000
,  // measure 28
0001
0000
0000
0000
,  // measure 29
0100
0000
0100
0000
,  // measure 30
0200
0000
0300
0000
,  // measure 31
0001
0000
0001
0000
,  // measure 32
0004
0000
0000
0000
,  // measure 33
0003
0000
0000
0000
,  // measure 34
1000
0000
1000
0000
,  // measure 35
2000
0000
3000
0000
,  // measure 36
0010
0000
0010
0000
,  // measure 37
0020
0000
0030
0000
,  // measure 38
0100
0000
0100
0000
,  // measure 39
0200
0000
0300
0000
,  // measure 40
0001
0000
0001
0000
,  // measure 41
0002
0000
0003
0000
,  // measure 42
1000
0000
1000
0000
,  // measure 43
2000
0000
3000
0000
,  // measure 44
0100
0000
0100
0000
,  // measure 45
0200
0000
0300
0000
,  // measure 46
1000
0000
1000
0000
,  // measure 47
2000
0000
3000
0000
,  // measure 48
0001
0000
0001
0000
,  // measure 49
1000
0000
1000
0000
,  // measure 50
2000
0000
0000
0000
,  // measure 51
0000
0000
3000
0000
,  // measure 52
0020
0000
0030
0000
,  // measure 53
2000
0000
3000
0000
,  // measure 54
0002
0000
0003
0000
,  // measure 55
0020
0000
0030
0000
,  // measure 56
0100
0000
0100
0000
,  // measure 57
0200
0000
0300
0000
,  // measure 58
1000
0000
1000
0000
,  // measure 59
2000
0000
3000
0000
,  // measure 60
0002
0000
0003
0000
,  // measure 61
1000
0000
1000
0000
,  // measure 62
0020
0000
0030
0000
,  // measure 63
2000
0000
3000
0000
,  // measure 64
0002
0000
0003
0000
,  // measure 65
0200
0000
0000
0000
,  // measure 66
0300
0000
0000
0000
,  // measure 67
0010
0000
0010
0000
,  // measure 68
0020
0000
0030
0000
,  // measure 69
1000
0000
1000
0000
,  // measure 70
2000
0000
3000
0000
,  // measure 71
0001
0000
0001
0000
,  // measure 72
0002
0000
0003
0000
,  // measure 73
0100
0000
0100
0000
,  // measure 74
0200
0000
0300
0000
,  // measure 75
0010
0000
0010
0000
,  // measure 76
0020
0000
0030
0000
,  // measure 77
1000
0000
1000
0000
,  // measure 78
2000
0000
3000
0000
,  // measure 79
0010
0000
0010
0000
,  // measure 80
0020
0000
0000
0000
,  // measure 81
0000
0000
0000
0000
,  // measure 82
0030
0000
0000
0000
,  // measure 83
0000
0000
0000
0000
,  // measure 84
1000
0000
1000
0000
,  // measure 85
2000
0000
3000
0000
,  // measure 86
0010
0000
0010
0000
,  // measure 87
0020
0000
0030
0000
,  // measure 88
0100
0000
0100
0000
,  // measure 89
0200
0000
0300
0000
,  // measure 90
0001
0000
0001
0000
,  // measure 91
0002
0000
0003
0000
,  // measure 92
1000
0000
1000
0000
,  // measure 93
2000
0000
3000
0000
,  // measure 94
0010
0000
0010
0000
,  // measure 95
0020
0000
0030
0000
,  // measure 96
0100
0000
0100
0000
,  // measure 97
0200
0000
0300
0000
,  // measure 98
0002
0000
0003
0000
,  // measure 99
2000
0000
3000
0000
,  // measure 100
0020
0000
0000
0000
,  // measure 101
0030
0000
1000
0000
,  // measure 102
0001
0001
0001
0000
,  // measure 103
2002
0000
0000
0000
,  // measure 104
0000
0000
0000
0000
,  // measure 105
3003
0000
0000
0000
,  // measure 106
1000
0000
1000
0000
,  // measure 107
0002
0000
0003
0000
,  // measure 108
0020
0000
0030
0000
,  // measure 109
0001
0000
0001
0000
,  // measure 110
0002
0000
0003
0000
,  // measure 111
4000
0000
3000
0100
;
