#TITLE:Kokoro Gamebox;
#SUBTITLE:;
#ARTIST:Miku Hatsune;
#TITLETRANSLIT:;
#SUBTITLETRANSLIT:;
#ARTISTTRANSLIT:;
#GENRE:;
#CREDIT:Ace Of Hearts;
#BANNER:Kokoro Gamebox - bn.png;
#BACKGROUND:Kokoro Gamebox - bg.png;
#LYRICSPATH:;
#CDTITLE:Ace Of Hearts.png;
#MUSIC:Kokoro Gamebox.ogg;
#OFFSET:0.460;
#SAMPLESTART:72.000;
#SAMPLELENGTH:12.000;
#SELECTABLE:YES;
#BPMS:0.000=185.000,36.500=370.000,40.000=185.000,220.000=370.000,223.000=185.000,302.000=370.000,303.500=185.000,436.000=370.000,439.000=185.000,520.000=92.500,533.625=185.000,534.125=92.500,536.000=185.000,688.000=92.500,703.750=46.250;
#DISPLAYBPM:46.250:185.000;
#STOPS:36.500=0.081
,37.000=0.081
,37.500=0.081
,38.000=0.041
,38.250=0.041
,38.500=0.041
,38.750=0.041
,39.000=0.041
,39.250=0.041
,39.500=0.081
,220.000=0.162
,221.000=0.162
,222.000=0.162
,302.000=0.041
,302.250=0.041
,302.500=0.041
,302.750=0.041
,303.000=0.041
,303.250=0.041
,436.000=0.162
,437.000=0.162
,438.000=0.162
,533.625=0.162
;
#BGCHANGES:;
#FGCHANGES:;
#KEYSOUNDS:;

//---------------dance-single - INSANITY!!----------------
#NOTES:
     dance-single:
     Ace Of Hearts (2011):
     Challenge:
     15:
     1.000,0.000,0.277,0.358,1.000:
0000
0000
0000
0000
,
0000
0000
0000
0000
,
0000
0000
0000
0000
,
0000
0000
0000
0000
,
0000
0000
0000
0000
,
0000
0000
0000
0000
,
0000
0000
0000
0000
,
0000
0000
0000
0000
,
0000
0000
0001
0100
0001
0100
0001
0000
2000
0000
3100
0000
0010
0001
0010
0100
,
0000
0000
1000
0000
1000
0000
1000
0000
0001
0100
0001
0100
0010
1000
0001
0000
,
0010
0100
1000
0000
0001
0000
0100
0000
0010
1000
0001
0000
0010
0000
0001
0000
,
1000
0010
0100
0010
1000
0000
0001
0000
0010
0100
1000
0000
0001
0000
0100
0000
,
0010
1000
0001
1000
0010
0000
0100
0000
0001
1000
0100
0010
0001
0010
0100
0000
,
1000
0000
0000
0001
0000
0000
0100
0000
0001
0000
0100
0000
0001
0000
0000
1000
0000
0000
0100
0000
0000
0010
0000
0000
0001
0000
0000
1000
0000
0000
0010
0000
0000
0000
0000
0000
0100
0000
0000
0010
0000
0000
1000
0000
0000
0001
0000
0000
,
0010
0100
1000
0000
0001
0000
0100
0000
0010
1000
0001
0000
1000
0010
0100
0001
,
1000
0100
0010
0001
1000
0000
0010
0000
0100
0001
1000
0100
0010
0000
0100
0000
,
1000
0001
0100
0010
0100
0000
0001
0000
1000
0100
0010
0000
0100
1000
0001
0000
,
0100
0000
0000
0010
0000
0000
1000
0000
0001
0000
1000
0000
0001
0000
0000
0010
0000
0000
0100
0000
0000
1000
0000
0000
0001
0000
0000
0010
0000
0000
0100
0000
1000
0000
0100
0000
1000
0000
0000
0001
0000
0000
0100
0000
0000
0010
0000
0000
,
0100
0001
1000
0000
0100
0000
0010
0000
0100
1000
0001
0000
0100
0010
1000
0000
,
0010
0100
0001
1000
0100
0000
0010
0000
0100
1000
0001
0000
0100
0000
0010
0000
,
1000
0001
0010
0100
0010
0000
0001
0000
1000
0010
0100
0000
0001
1000
0100
0000
,
0010
0100
1000
0001
1000
0000
0001
0100
0010
1000
0001
0010
0100
0010
0001
1000
,
0001
0000
0100
0010
1000
0000
0001
0000
0010
0100
1000
0001
0010
0000
0001
1000
,
0010
0000
0000
0000
0000
0000
0100
0000
0000
0000
0000
0000
0001
0000
0000
0100
0000
0000
0004
0000
4000
0000
0000
0000
0000
0000
0000
0000
0000
0000
0000
0000
0000
0000
0000
0000
3003
0000
0000
0000
0000
0000
1000
0000
0000
0000
0000
0000
,
1100
0000
0100
0010
0001
0000
1000
0000
0010
0100
0001
0000
1000
0000
0100
0000
,
0010
0000
0100
1000
0001
0000
0100
0000
0010
1000
0001
0000
0010
0000
0100
0000
,
2000
0000
3002
0000
0200
0000
0010
0303
,
0100
0000
0001
0100
0010
0000
0100
0000
0001
1000
0100
0000
0010
0000
0001
0000
,
1000
0010
0100
0000
0010
0000
1000
0000
0001
0100
0010
0000
0100
0000
0001
0000
,
1000
0000
0100
0010
0100
0000
1000
0000
0001
0100
0010
0000
0100
0000
0001
0000
,
1001
0000
0101
0000
2020
3030
1110
0000
,
0010
0000
1000
0001
0010
0000
0100
1000
0001
0000
0100
0010
1000
0001
0010
0001
,
1000
0000
0001
0100
0010
0000
0100
0000
0001
1000
0100
0000
0010
0000
0100
0000
,
1000
0000
0001
0100
0010
0000
1000
0000
0001
0010
0100
0000
0010
0000
0001
0000
,
2000
0000
0200
0000
0020
0000
0001
3330
,
1000
0000
0001
0010
0100
0000
0010
0000
0001
1000
0010
0000
0100
0000
0001
1000
,
0100
0000
0010
0000
0001
0000
1000
0000
0010
1000
0001
0000
0010
0000
0100
1000
,
0001
0000
0100
0000
0010
0000
0100
0000
0001
1000
0100
0000
0010
0000
0100
0000
,
2000
3000
0000
0000
2200
3300
0000
0000
2220
3330
0000
0000
2222
3333
0000
0000
,
0001
0010
0001
0000
1000
0010
1000
0010
1000
0000
0001
0000
1002
0000
0103
0000
,
0010
0000
1000
0000
0001
0000
0010
0000
0100
0000
M00M
0000
0100
0000
0001
1000
,
0100
0000
0010
0000
0001
0000
1000
0000
0010
0000
M00M
0000
0010
0000
0001
1000
,
0100
0000
0010
0000
0100
0000
1000
0001
0100
0000
0010
0000
1000
0000
0001
0010
,
0100
0000
1000
0000
0001
0000
0100
0010
1000
0000
0010
1000
0001
0010
0100
0010
,
0001
0000
1000
0000
0100
0000
0010
0000
0100
0000
M00M
0000
0100
0000
0001
1000
,
0100
0000
0010
0000
0001
0000
1000
0000
0010
0000
M00M
0000
0010
0000
0001
0010
,
0100
0000
1000
0000
0001
0000
1000
0000
0010
0000
1000
0000
1001
0000
0001
1000
,
0001
0000
0100
0000
0001
0000
0100
0000
0000
0010
0000
0000
0100
0000
0000
0001
0000
0000
1000
0000
0000
0100
0000
0000
1000
0000
0000
0001
0000
0000
0010
0000
0000
0100
0000
0000
1000
0000
0000
0001
0000
0000
0100
0000
0000
0010
0000
0000
,
0100
0000
0001
1000
0100
0000
0010
0100
1000
0001
0100
0010
1000
0000
0001
0010
,
0100
0000
0010
0001
1000
0000
0010
0100
0001
1000
0100
0010
0001
1000
0001
0100
,
0010
1000
0010
0100
0001
1000
0100
0010
0001
0010
0100
1000
0001
0100
0001
1000
,
0010
0100
0001
1000
0100
0010
0100
1000
0001
0100
0010
1000
0001
0010
0100
1000
,
0002
0000
1003
0100
0010
0000
0100
0000
2100
0000
3001
0100
0010
0000
1000
0000
,
1002
0000
0013
0100
1000
0000
0001
0000
0201
0000
0310
1000
0001
0000
0010
0000
,
0200
0000
1000
0000
1000
0300
1000
0000
0001
0000
0001
0000
0100
0001
0100
0000
,
0002
0003
0000
0000
0202
0303
0000
0000
0222
0333
0000
0000
0000
0000
0000
0000
,
0001
0100
0001
0100
0010
1000
0010
1000
0001
0010
0001
0010
0100
1000
0100
1000
,
0001
1000
0001
1000
0010
1000
0010
1000
0001
0010
0001
0010
0100
1000
0100
1000
,
0001
0100
0010
0100
0001
1000
0001
0010
0100
1000
0100
0010
0001
1000
0001
0100
,
0010
0100
0001
1000
0100
0010
0001
0010
0100
1000
0001
0100
0010
0100
0001
1000
,
0100
1000
0001
0100
0010
0100
0001
1000
0100
0010
0100
1000
0001
0100
0010
0100
,
0001
1000
0001
0100
0001
1000
0100
0010
0100
1000
0001
0100
0010
1000
0001
0010
,
0100
1000
0100
0010
0001
1000
0001
0100
0010
0100
0001
1000
0001
0010
0100
1000
,
0100
0010
0001
1000
0001
0100
0010
0100
0001
1000
0100
0010
0100
1000
0001
0100
,
0010
1000
0001
1000
0010
0100
0010
1000
0001
1000
0001
0010
0100
0010
0001
1000
,
0010
0100
0010
1000
0001
1000
0001
0100
0010
0100
0001
1000
0100
0010
0001
0010
,
0100
1000
0001
1000
0010
0100
0010
1000
0001
0010
0100
1000
0100
0010
0001
1000
,
0010
0100
0010
1000
0001
0010
0100
0010
0001
1000
0001
0100
0010
0100
0001
1000
,
0001
0010
0100
1000
0100
0010
0001
1000
0001
0100
0010
0100
0001
1000
0001
0010
,
0100
1000
0100
0010
0001
1000
0010
0100
0010
1000
0001
0010
0100
1000
0100
1000
,
0001
0100
0001
1000
0100
0010
0100
1000
0001
0100
0010
1000
0001
1000
0020
0000
,
0000
0000
0130
0000
0100
0000
0001
0000
1000
0000
0000
0000
0001
0100
0001
0000
,
1000
0100
0010
0100
1000
0001
0100
0010
0100
0001
1000
0001
0010
0100
1000
0100
,
0010
0001
0010
0100
1000
0001
0100
0010
1000
0010
0100
0001
1000
0100
0010
0001
,
2000
0000
0000
0000
000M
0000
0000
0000
000M
0000
0000
0000
300M
0000
0001
0010
,
0100
0000
1000
0000
0001
0000
0001
0000
0010
0100
0010
0100
0010
0100
1000
0000
,
0001
0100
0010
1001
0000
0100
0120
1030
,
1002
0000
0013
0000
0100
0000
1000
0100
0010
0000
0001
0000
2001
0000
3010
0000
,
0100
0001
1000
0100
M001
0100
200M
0000
,
3001
0000
0100
0000
0010
0000
M001
0000
0010
0000
1000
000M
0100
0000
0010
0000
,
0002
1100
1013
1011
,
0001
0010
0000
0200
0000
0300
0000
1000
,
0001
0000
0010
0000
100M
0000
0010
M000
0001
0000
1000
0000
0010
0000
0100
0000
,
100M
0100
0001
1000
0100
0010
M001
0000
,
2000
0011
3101
1101
,
2000
0000
0000
0000
3001
0000
0010
0000
0001
1000
0010
0000
0100
0000
0010
1000
,
0001
0010
0110
0100
1100
1000
1001
0001
,
0101
0100
0110
0010
1010
1000
1001
0001
,
2000
3000
0000
0000
2200
0000
3300
0000
2220
0000
0000
3330
1111
0000
0000
0000
,
0011
0001
1000
0200
0000
1300
1001
0001
,
0101
0100
0110
0010
1010
1000
1001
0202
,
0003
0310
1010
1000
1001
0001
0101
0100
,
0020
0000
0000
0000
0230
0000
0000
0000
0301
1000
0100
0000
0110
0000
0010
0000
,
0001
1000
0010
0000
1000
0001
0010
0100
1000
0000
0000
0000
1002
0000
0103
0000
,
0010
0000
1000
0000
0010
0000
0100
0000
0010
0000
M00M
0000
0010
0000
0001
1000
,
0010
0000
0100
0000
0001
0000
1000
0000
0100
0000
M00M
0000
0100
0000
0001
1000
,
0010
0000
0100
0000
0010
0000
1000
0000
0100
0000
0010
0000
0001
0000
0100
0010
,
1000
0000
0100
0000
0010
0000
0001
0000
1000
0000
0100
0010
0001
0000
0010
0001
,
0100
0000
0010
0000
1000
0000
0100
0000
0010
0000
M00M
0000
0010
0000
0100
0010
,
1000
0000
0001
0000
0010
0000
0001
0000
0100
0000
M00M
0000
0100
0000
1000
0001
,
0010
0001
0100
0010
1000
0001
0010
0001
,
1000
0000
0010
0000
1000
0000
0010
0000
0000
0100
0000
0000
0001
0000
0000
1000
0000
0000
0100
0000
0000
0010
0000
0000
0001
0000
0000
0000
0000
0000
1000
0000
0000
0010
0000
0000
0100
0000
0000
0001
0000
0000
1000
0000
0000
0100
0000
0000
,
0010
0001
2000
0000
3010
0100
0002
0000
1003
0100
0020
0000
0130
1000
0001
0100
,
0010
0100
0002
0000
1003
0100
0020
0000
0130
1000
0001
1000
0100
0010
0200
0000
,
1300
0001
0010
0001
1000
0010
0100
0001
0100
0010
1000
0001
0010
0100
1000
0100
,
0010
0001
1000
0010
1000
0001
0010
0001
1000
0010
0100
0010
1000
0001
0010
0100
,
0020
0000
0130
1000
0001
0100
0010
0000
2010
0000
3001
0100
0010
0100
0001
0000
,
2001
0000
3100
0010
0001
0010
0100
0000
2100
0000
3001
0010
0100
0010
0001
0000
,
1001
0000
1000
0000
1010
0000
0010
0000
0110
0000
0100
0000
0001
1000
0100
0000
,
0220
0330
0022
0033
2022
3033
0000
0000
,
1000
0100
0010
0001
0010
0100
0010
0001
1000
0001
0100
0010
0100
0001
1000
0001
,
0010
0100
0010
0001
1000
0010
0100
0010
1000
0001
0010
0001
1000
0100
1000
0001
,
0100
0001
1000
0010
1000
0001
0010
0100
1000
0100
0010
0001
1000
0010
0100
0001
,
0100
0010
1000
0001
1000
0010
0100
0001
0100
0010
1000
0001
0010
0001
1000
0100
,
0010
0001
0010
0100
1000
0001
1000
0010
1000
0001
0010
0001
1000
0001
0100
0010
,
0100
0001
1000
0001
0010
0100
1000
0001
0100
0010
1000
0010
0100
0001
1000
0001
,
0010
0100
1000
0001
0100
0010
0100
0001
1000
0001
0010
0100
0010
0001
1000
0001
,
0100
0010
1000
0001
0010
0100
0010
0001
1000
0100
0010
0100
1000
0001
0100
0010
,
0100
0001
1000
0010
0100
0010
1000
0001
0010
0100
1000
0100
0010
0001
1000
0001
,
0100
0010
0100
0001
1000
0001
0010
0100
1000
0100
0010
0001
1000
0010
1000
0001
,
0010
0001
1000
0100
1000
0001
0010
0001
1000
0010
0100
0010
1000
0001
0010
0100
,
1000
0100
0010
0001
1000
0001
0100
0010
0100
0001
1000
0100
0010
0100
1000
0001
,
0100
0001
1000
0001
0010
0100
1000
0001
1000
0010
1000
0001
0010
0100
1000
0100
,
0010
0100
1000
0001
0100
0010
0100
0001
1000
0001
0100
0010
0100
0001
1000
0001
,
0010
0100
1000
0100
0010
0001
1000
0001
0010
0001
1000
0010
0100
0001
0200
0000
,
0000
0000
0010
0000
0010
0000
0010
0300
0010
1000
0001
0000
0010
0100
1000
0000
,
0001
1000
0100
1000
0001
0100
0010
0100
0001
1000
0100
0010
0100
1000
0001
1000
,
0010
0100
0010
1000
0001
0010
0100
1000
0100
0010
0001
1000
0010
0100
0010
1000
,
0002
0000
0000
0000
M000
0000
0000
0000
M000
0000
0000
0000
M003
0000
0100
0010
,
1000
0000
1001
0000
0001
0000
0011
0000
0010
0100
0010
0001
1000
0010
0100
0001
,
1000
0100
1000
0000
0001
0000
1000
0000
0001
0010
0001
0000
1000
0100
1000
0000
0001
0010
0001
0010
0001
0000
1000
0000
0010
0000
0100
0000
0001
0000
1000
0000
,
0001
0000
0010
0000
0100
0000
0010
0000
0001
0000
1000
0000
0100
0010
0100
0000
1000
0100
1000
0100
1000
0000
0001
0000
0100
0000
0010
0000
1000
0000
0001
0000
,
0010
0100
0010
0100
0010
0000
0001
0000
1000
0000
0010
0000
0100
0000
0001
0000
1000
0100
1000
0100
1000
0000
0001
0000
0010
0000
0001
0000
1000
0000
0001
0000
,
4004
0000
0000
0000
0000
0000
0000
0000
0000
0000
0000
0000
0000
3003
0000
0000
0000
0000
0001
0000
0100
0000
0010
0000
1000
0000
0001
0000
1000
0100
0010
0001
,
2000
0000
000M
0000
00M0
0000
0M00
0000
00M0
0000
000M
0000
3M00
0000
0010
0100
,
0001
1000
0100
0010
0100
1000
0001
0100
0010
0000
0100
0000
0001
0000
0200
0000
,
00M0
0000
031M
0000
1000
0000
02M0
0000
M000
0000
0310
0000
0100
0000
0010
0001
,
1000
0010
0100
0010
1000
0001
0010
0100
1000
0100
0010
0001
1000
0000
0010
0100
,
0001
0000
0000
1000
0000
0000
0100
0000
0000
0010
0000
0000
0100
0000
0000
1000
0000
0000
0002
0000
0000
0000
0000
0000
0000
0000
0000
0000
0000
0000
1003
0000
0000
0010
0000
0000
0100
0000
0001
0000
0100
0000
0001
0000
1000
0000
0100
0000
,
1000
0000
0100
0000
0010
0000
0001
0000
0000
1000
0000
0000
0001
0000
0000
0100
0000
0000
0001
0000
0000
1000
0000
0000
0100
0000
0000
0010
0000
0000
0200
0000
0000
0000
0000
0000
0000
0000
0000
0000
0000
0000
1300
0000
0000
0000
0000
0000
,
1002
0000
0103
0000
0110
0000
0010
0000
2010
0000
3001
0000
0010
0100
1000
0000
,
0001
1000
0010
1000
0001
0000
1000
0010
0100
0000
0001
1000
0010
0100
0001
0100
,
0010
1000
0010
1000
0010
1000
0001
0100
0001
0100
0001
0100
0010
1000
0010
1000
0010
1000
0002
0000
0000
0103
0000
0000
,
0000
1M1M
0000
M1M1
0000
1MM1
0000
2M2M
,
0030
0000
3000
0000
11MM
0000
0000
0000
010M
0000
0010
0000
0001
0000
0100
0001
,
1000
0001
0010
0001
1000
0000
0010
0100
0001
0000
1000
0100
0010
0100
1000
0001
,
0100
0010
0100
0001
1000
0001
0010
0100
1000
0100
0010
0001
1000
0010
1000
0001
,
0010
0100
0010
0001
1000
0100
0010
0100
1000
0001
0100
0010
0100
0001
1000
0100
,
0010
0100
1000
0001
0100
0000
0010
0000
0100
0000
0001
0000
1000
0000
0100
0010
,
0001
0000
1000
0010
0100
0000
0010
1000
0001
0010
0100
0010
0001
1000
0010
0100
,
0001
1000
0100
1000
0001
0100
0010
0100
0001
1000
0100
0010
0100
1000
0001
0100
,
0010
0100
0001
1000
0100
0010
0001
0010
0100
1000
0001
0100
0010
0100
0001
1000
,
0001
0010
0100
1000
0100
0010
0001
1000
0001
0100
0010
0100
0001
1000
0001
0010
,
0100
0010
0001
1000
0010
0100
0010
1000
0001
0010
0100
0010
0001
1000
0010
0100
,
0010
1000
0001
0010
0100
0010
0001
1000
0010
0100
0010
1000
0001
1000
0100
0010
,
0100
1000
0001
0100
0010
0100
0001
1000
0001
0010
0100
1000
0100
0010
0001
1000
,
0010
0100
0010
1000
0001
0010
0100
0010
0001
1000
0001
0100
0010
0100
0001
1000
,
0100
1000
0001
0100
0010
0100
0001
1000
0100
0000
0010
0100
1000
0001
1000
0001
,
0100
0010
1000
0001
0100
0000
0010
0000
1000
0000
0001
0000
0010
0000
0100
0000
,
0010
0001
1000
0010
1000
0000
0001
0000
0010
0000
0001
0000
1000
0000
0010
0000
,
0100
0000
0010
1000
0001
0000
0010
0000
0100
1000
0001
0000
0010
0001
1000
0000
,
0010
0100
0001
1000
0001
0000
0100
0000
0001
1000
0100
0000
0010
0100
1000
0001
,
0100
0000
0010
1000
0001
0000
0011
0000
0010
0100
1000
0001
0100
0000
0010
0100
,
0001
0000
0000
0000
0000
0000
1000
0000
0000
0000
0000
0000
0100
0000
0000
0010
0000
0000
0004
0000
0040
0000
0000
0000
0000
0000
0000
0000
0000
0000
0000
0000
0000
0000
0000
0000
0033
0000
0000
0000
0000
0000
0000
0000
0000
0000
0000
0000
,
0001
1000
0001
1000
0001
0010
0001
0010
0100
1000
0100
1000
0001
0100
0001
0100
,
0010
1000
0010
1000
0001
0010
0100
1000
0100
0010
0001
0010
0100
1000
0001
0100
,
0010
1000
0010
0100
0001
0100
0010
1000
0010
0100
0001
1000
0001
0010
0100
1000
,
0001
1000
0100
0010
0100
1000
0001
0100
0010
0100
0001
1000
0100
0010
0001
1000
,
0001
1000
0010
0100
0001
1000
0010
1000
0001
0100
0001
1000
0100
0010
0100
1000
,
0001
0100
0010
0100
0001
1000
0100
0010
0100
1000
0001
1000
0010
0100
0010
1000
,
0001
0010
0100
0010
0001
1000
0010
0100
0010
1000
0001
0010
0100
0010
0001
1000
,
0010
0100
0010
1000
0001
0010
0100
0010
0001
1000
0010
0100
0001
0100
0010
1000
,
0001
0000
0010
0001
0010
0001
0010
0001
0010
0000
0001
1000
0001
1000
0001
1000
0001
0000
1000
0010
1000
0010
1000
0010
1000
0000
0001
0010
0001
0010
0001
0010
,
0001
0000
1000
0001
1000
0001
1000
0001
1000
0000
0010
1000
0010
1000
0010
1000
0010
0000
0100
0001
0100
0001
0100
0001
0100
0000
0001
1000
0001
0000
1000
0000
,
0100
0010
0001
0010
0100
1000
0001
0100
0010
1000
0001
1000
0001
0100
0010
0000
,
2000
0000
3200
0000
0320
0000
0031
0000
1000
0010
1000
0002
0000
1003
0001
0020
,
0000
0000
0000
0200
0000
0000
0000
0000
0000
0000
0000
0000
0000
0000
0000
0000
0000
0000
0000
0000
0000
0000
0000
0000
0000
0000
0000
0000
0330
0000
0000
0000
0000
0000
0000
0000
0000
0000
0000
0000
0000
0000
0000
0000
0000
0000
0000
0000
0000
0000
0000
0000
0000
0000
0000
0000
0000
0000
0000
0000
0000
0000
0000
0000
;

//---------------dance-single - Crazy!----------------
#NOTES:
     dance-single:
     Ace Of Hearts (2011):
     Hard:
     12:
     1.000,0.000,0.313,0.517,0.885: // measure 1
0000
0000
0000
0000
,  // measure 2
0000
0000
0000
0000
,  // measure 3
0000
0000
0000
0000
,  // measure 4
0000
0000
0000
0000
,  // measure 5
0000
0000
0000
0000
,  // measure 6
0000
0000
0000
0000
,  // measure 7
0000
0000
0000
0000
,  // measure 8
0000
0000
0000
0000
,  // measure 9
0000
0000
1000
0100
1000
0100
1000
0000
0001
0000
0100
0000
0001
1000
0100
0010
,  // measure 10
0000
0000
0100
0000
0100
0000
0100
0000
1000
0001
1000
0001
1000
0001
0010
0000
,  // measure 11
0001
1000
0001
0000
1000
0000
0010
0000
0100
0001
0100
0000
0010
0100
0010
0000
,  // measure 12
1000
0001
1000
0001
0010
0000
0100
0000
1000
0000
0001
0000
0100
0000
0010
0000
,  // measure 13
1000
0001
1000
0001
0010
0000
0100
0000
1000
0000
0001
0000
0100
0001
0100
0000
,  // measure 14
0001
1000
0001
1000
0100
0000
0010
0000
0100
0000
1000
0000
0001
0100
0001
1000
,  // measure 15
0001
1000
0100
0010
0100
1000
0001
0100
,  // measure 16
0010
1000
0010
1000
0001
0000
0010
0000
0100
0000
1000
0000
0001
0000
0100
0000
,  // measure 17
0010
0100
0001
0100
0010
0000
1000
0000
0001
0000
0010
0000
0100
0000
1000
0000
,  // measure 18
0001
0100
0001
0100
0010
0000
1000
0000
0001
0000
0010
0000
0001
0000
1000
0000
,  // measure 19
0010
0100
0010
0100
0001
0000
1000
0000
0001
0000
0010
0000
0100
0000
1000
0000
,  // measure 20
0001
0100
0001
0100
0010
0000
1000
0000
0001
0000
0010
0000
0100
0000
0010
0000
,  // measure 21
0001
1000
0001
1000
0100
0000
0010
0000
0100
0000
1000
0000
0001
0000
0100
0000
,  // measure 22
0010
1000
0010
1000
0001
1000
0100
0000
0010
0000
0100
0000
1000
0001
0100
0001
,  // measure 23
1000
0000
0100
0010
0001
0000
1000
0000
0001
0010
0100
0010
0001
0000
1000
0010
,  // measure 24
0100
0000
0000
0000
0000
0000
0001
0000
0000
0000
0000
0000
1000
0000
0000
0001
0000
0000
4000
0000
0004
0000
0000
0000
0000
0000
0000
0000
0000
0000
0000
0000
0000
0000
0000
0000
3003
0000
0000
0000
0000
0000
0001
0000
0000
0000
0000
0000
,  // measure 25
0010
0100
0010
0001
1000
0010
0100
0010
,  // measure 26
1000
0002
0000
1003
0010
0100
0010
1000
,  // measure 27
0002
0000
0000
0000
0023
0000
0000
0000
0230
0000
0000
0300
1100
0000
0000
0000
,  // measure 28
1001
M100
0000
0020
0000
0030
0000
1000
,  // measure 29
1001
0001
0010
0100
0010
0001
1000
0010
,  // measure 30
0100
0010
1000
0001
0010
0100
0010
0000
,  // measure 31
0002
0000
2003
0000
0200
0000
0010
3300
,  // measure 32
1002
0000
0000
0000
0000
0000
0023
0000
0000
0000
0130
1000
0100
0000
0010
0001
,  // measure 33
0010
0100
1000
0001
0100
0010
0100
0001
,  // measure 34
1000
0100
0010
0001
1000
0010
0100
0001
,  // measure 35
2000
3000
2200
3300
0220
0330
0111
0000
,  // measure 36
0011
10M0
0001
0200
0000
0300
0000
0010
,  // measure 37
1000
0001
0010
0100
0010
0001
1000
0010
,  // measure 38
0100
0010
1000
0001
0010
0100
1000
0000
,  // measure 39
0002
0000
0023
0000
0230
0000
1300
0001
,  // measure 40
0100
0010
0100
0000
0001
1000
0001
1000
0001
0000
0010
0000
0210
0000
1300
0000
,  // measure 41
0100
0000
1000
0000
0001
0000
1000
0000
0010
0000
M00M
0000
0010
0000
0001
1000
,  // measure 42
0001
0000
0010
0000
0100
0000
1000
0000
0100
0000
M00M
0000
0100
0000
0001
1000
,  // measure 43
0001
0000
0010
0100
0010
0000
0001
0000
0010
0000
0100
0000
1000
0000
0001
1000
,  // measure 44
0001
0000
0010
0000
0100
0000
1000
0000
0001
0000
0100
0001
0100
0000
0010
0100
,  // measure 45
0010
0000
1000
0000
0001
0000
0010
0000
0100
0000
M00M
0000
0100
0000
0001
1000
,  // measure 46
0001
0000
0010
0000
0100
0000
1000
0000
0010
0000
M00M
0000
0010
0000
0001
1000
,  // measure 47
0001
0100
0010
1000
0004
0000
0000
0000
,  // measure 48
1003
0000
0010
0000
1000
0000
0010
0000
0000
0100
0000
0000
0001
0000
0000
0100
0000
0000
0001
0000
0000
0100
0000
0000
0010
0000
0000
0000
0000
0000
1000
0000
0000
0001
0000
0000
1000
0000
0000
0001
0000
0000
1000
0000
0000
0001
0000
0000
,  // measure 49
0010
0000
0100
1000
0100
0000
0010
0001
0010
0000
0001
1000
0001
0000
1000
0010
,  // measure 50
1000
0000
0001
0010
0001
0000
1000
0100
1000
0000
0001
0010
0001
0000
1000
0100
,  // measure 51
1000
0000
0001
1000
0001
0000
0100
0001
0100
0000
0010
1000
0010
0000
1000
0001
,  // measure 52
1000
0100
1000
0100
0010
0001
0010
0001
1000
0010
1000
0010
0100
0001
0100
0001
,  // measure 53
1000
0M00
1011
0000
,  // measure 54
1001
00M0
1101
0000
,  // measure 55
1001
0000
0001
0000
0011
0000
0010
0000
0110
0000
0100
0000
1000
0001
1000
0000
,  // measure 56
2020
3030
0000
0000
0220
0330
0000
0000
2002
3003
0000
0000
0000
0000
0000
0000
,  // measure 57
0001
0010
0001
0010
0001
0010
0001
0010
0100
1000
0100
1000
0100
1000
0100
1000
,  // measure 58
0001
0100
0000
0010
0110
0000
0100
0101
,  // measure 59
0000
0000
0001
1000
0001
0000
0000
0000
0010
0100
1000
0000
0001
0000
0100
0000
,  // measure 60
0010
1000
0001
0000
0010
0000
0100
0000
1000
0001
0100
0000
0010
1000
0001
0000
,  // measure 61
0010
0001
0010
0001
1000
0010
1000
0010
0100
0001
0100
0001
1000
0100
1000
0100
,  // measure 62
0020
0000
0130
2100
0000
3001
0201
0310
,  // measure 63
1010
2000
0000
3001
0021
0000
0130
1000
,  // measure 64
1001
0000
0001
0000
0100
0000
0110
0000
0000
0000
0010
0000
1000
0001
0010
0000
,  // measure 65
0100
1000
0100
1000
0001
0100
0001
0100
0010
1000
0010
1000
0001
0010
0001
0010
,  // measure 66
0200
0000
0000
0000
1300
0000
1002
0000
0000
0000
0103
0000
0120
0000
0000
0030
,  // measure 67
1010
2000
0000
3001
0021
0000
0130
1000
,  // measure 68
1001
0000
0001
0000
0100
0000
0010
0000
0100
0001
1000
0000
0100
0000
0010
0100
,  // measure 69
1000
0100
1000
0100
0010
0001
0010
0001
1000
0100
1000
0100
0010
0001
0010
0001
,  // measure 70
1000
0010
1000
0010
0100
0001
0100
0001
1000
0010
0100
0001
0100
0010
1000
0001
,  // measure 71
2000
0000
3000
1020
0000
0000
0130
0102
,  // measure 72
0000
0000
1003
0000
0100
0000
1000
0000
0001
0000
0000
0000
0010
0001
0010
0001
,  // measure 73
1000
0010
1000
0010
0100
0001
0100
0001
1000
0010
1000
0010
1000
0001
1000
0001
,  // measure 74
0010
0100
0010
0100
1000
0100
1000
0100
1000
0001
0100
0001
0100
0010
1000
0010
,  // measure 75
2000
0M00
0M00
0M00
,  // measure 76
3001
0000
0001
0000
0100
0000
0100
0000
0001
0100
0001
0100
0001
0100
0001
0000
,  // measure 77
1000
0010
0100
0101
0000
0001
1001
0000
,  // measure 78
1000
0000
1100
0000
0000
0000
0100
0010
0001
0000
1000
0000
0000
0000
0001
0000
,  // measure 79
0100
0010
1000
0010
0001
0010
2000
0000
,  // measure 80
3001
0010
0100
1000
0100
0001
0100
1000
,  // measure 81
0002
0000
0203
0000
0320
0030
1110
0000
,  // measure 82
1010
00M1
0000
0200
0000
0300
0000
0010
,  // measure 83
1000
0001
0010
1000
0010
0001
1000
0010
,  // measure 84
0100
1000
0100
0001
1000
0001
1000
0000
,  // measure 85
0002
0000
2000
0000
0010
3003
0001
0100
,  // measure 86
0020
0000
0000
0000
1030
0000
0001
0000
0100
0000
0010
1000
0001
0000
0010
0100
,  // measure 87
1000
0001
0100
0120
0000
1030
1001
0001
,  // measure 88
0011
0010
0100
1000
1001
0001
0101
0100
,  // measure 89
0120
0030
2010
3000
2002
3003
1011
0000
,  // measure 90
1001
0000
M100
0000
0001
0000
1000
0000
0100
0010
0001
0000
1000
0000
0010
0100
,  // measure 91
0001
1000
0100
0001
0100
1000
0100
0002
,  // measure 92
0000
1003
0010
0001
0010
1000
0010
0001
,  // measure 93
0020
0000
0230
0000
2000
0000
0001
3300
,  // measure 94
1000
0001
1000
0000
0010
1000
0010
1000
0010
0000
0100
0000
0202
0000
0303
0000
,  // measure 95
0001
0000
1000
0000
0100
0000
0010
0000
0100
0000
M00M
0000
0100
0000
0010
1000
,  // measure 96
0010
0000
0100
0000
0001
0000
1000
0000
0010
0000
M00M
0000
0010
0000
0001
1000
,  // measure 97
0001
0000
0100
0000
0010
0000
1000
0000
0001
0000
0010
0000
0100
0000
0010
0001
,  // measure 98
0010
0000
0100
0000
1000
0000
0001
0000
0100
0000
0010
0100
0010
0000
1000
0001
,  // measure 99
1000
0000
0010
0000
1000
0000
0001
0000
0010
0000
M00M
0000
0010
0000
1000
0001
,  // measure 100
1000
0000
0001
0000
0100
0000
0010
0000
0100
0000
M00M
0000
0100
0000
0010
0001
,  // measure 101
0010
0100
1000
0001
0400
0000
0000
0000
,  // measure 102
0301
0000
1000
0000
0001
0000
1000
0000
0000
0001
0000
0000
1000
0000
0000
0001
0000
0000
1000
0000
0000
0001
0000
0000
0100
0000
0000
0000
0000
0000
0010
0000
0000
1000
0000
0000
0010
0000
0000
1000
0000
0000
0010
0000
0000
1000
0000
0000
,  // measure 103
0001
0000
0010
0100
0010
0000
0001
0010
0001
0000
1000
0100
1000
0000
0001
0010
,  // measure 104
0001
0000
1000
0010
1000
0000
0001
0010
0001
0000
1000
0100
1000
0000
0001
0100
,  // measure 105
0001
0000
1000
0001
1000
0000
0001
0010
0001
0000
1000
0010
1000
0000
0001
0100
,  // measure 106
0010
1000
0010
1000
0001
0100
0001
0100
0001
1000
0001
1000
0100
0010
0100
0010
,  // measure 107
0001
0M00
1011
0000
,  // measure 108
1001
00M0
1101
0000
,  // measure 109
1100
0000
0100
0000
0110
0000
0010
0000
0011
0000
0001
0000
1000
0010
1000
0000
,  // measure 110
2002
3003
0000
0000
0220
0330
0000
0000
2002
3003
0000
0000
0000
0000
0000
0000
,  // measure 111
1000
0010
1000
0010
0100
0001
0100
0001
1000
0001
1000
0001
0010
0001
0010
0001
,  // measure 112
1000
0010
0000
0100
0102
0000
1003
1100
,  // measure 113
0000
0100
0010
0000
0011
0001
0000
1000
,  // measure 114
1010
0000
0010
0000
0100
0000
0001
0000
1000
0100
0010
0000
0100
1000
0001
0000
,  // measure 115
1000
0100
1000
0100
0010
0001
0010
0001
1000
0010
1000
0010
0100
0001
0100
0001
,  // measure 116
2000
0000
3010
0210
0000
0301
2001
3000
,  // measure 117
1100
0000
0M02
0000
0000
0000
0103
0000
0120
0000
0000
0000
1030
0000
0001
0100
,  // measure 118
0010
0000
1000
0001
0100
0000
0010
1000
0001
0000
0010
0000
0100
1000
0100
1000
,  // measure 119
0001
0100
0001
0100
0010
1000
0010
1000
0001
0010
0001
0010
0100
1000
0100
1000
,  // measure 120
0002
0000
0000
0000
0103
0000
0120
0000
0000
0000
1030
0000
1200
0000
0000
0300
,  // measure 121
0110
0M02
0003
0101
0000
0100
0010
1000
,  // measure 122
0001
0000
1000
0010
0100
0000
0001
0000
0010
0100
1000
0000
0001
0000
1000
0010
,  // measure 123
0100
0001
0100
0001
1000
0010
1000
0010
0100
0001
0100
0001
1000
0100
1000
0100
,  // measure 124
0010
0001
0010
0001
1000
0010
1000
0010
0100
0001
0100
0001
1000
0010
0100
0001
,  // measure 125
2000
0000
3000
1010
0000
0000
0010
0200
,  // measure 126
0000
0000
0301
0000
1000
0000
0001
0000
1000
0100
1000
0000
0001
0100
0001
0000
,  // measure 127
1000
0010
1000
0010
0100
0001
0100
0001
1000
0100
1000
0100
0010
0001
0010
0001
,  // measure 128
1000
0001
1000
0001
0100
0001
0100
0010
0100
0010
1000
0001
1000
0001
0010
0001
,  // measure 129
0020
0000
0000
0000
0M00
0000
0000
0000
0M00
0000
0000
0000
0M30
0000
0001
1000
,  // measure 130
0001
0000
0100
0000
0010
0000
1000
0000
0001
0010
0001
0010
0100
1000
0100
1000
,  // measure 131
0002
0000
1003
0020
0000
0230
0000
0302
0000
0000
0000
0000
0003
0000
1000
0000
,  // measure 132
0200
0000
0310
0002
0000
1003
0000
0200
0000
0000
0000
0000
0300
0000
1000
0000
,  // measure 133
0002
0000
0103
0010
0000
1000
0000
0002
0000
0000
0000
0000
0003
0000
1000
0000
,  // measure 134
0040
0000
0000
0000
0000
0000
0000
0000
0000
0000
0000
0000
0000
0030
0000
0000
0000
0000
1000
0000
0001
0000
0010
0000
0001
0000
1000
0000
0001
0010
0001
0010
,  // measure 135
0002
0000
0000
0000
0000
0000
0000
0000
0000
0000
0000
0000
0003
0000
1000
0010
,  // measure 136
1000
0001
1000
0001
0010
0001
0010
0001
2000
0000
3010
0000
0100
0000
0002
0000
,  // measure 137
0000
0000
1003
0000
0010
0000
0200
0000
0000
0000
0301
0000
1000
0100
0010
0100
,  // measure 138
1000
0001
1000
0001
0100
0001
0100
0001
1000
0010
1000
0010
0100
0001
0100
0001
,  // measure 139
1000
0000
0100
0000
0010
0001
0020
0000
0000
0000
0031
0000
4000
0000
0000
0000
,  // measure 140
3010
0100
0010
0100
0001
0100
0001
0100
0010
1000
0002
0000
0000
0000
1003
0000
,  // measure 141
0020
0000
1030
0000
0001
0000
0020
0000
0130
0000
1000
0000
0001
0100
0001
0100
,  // measure 142
0010
1000
0010
1000
0001
0010
0001
0010
0100
0000
1000
0001
1000
0001
1000
0001
,  // measure 143
1000
0100
1000
0100
0010
0001
0010
0001
1000
0001
1000
0001
0020
0000
0130
0000
,  // measure 144
0000
1000
0000
1001
0000
0M01
0000
00M2
,  // measure 145
0000
0000
0103
0000
0010
1000
0001
0020
,  // measure 146
0000
0000
0000
0000
0031
1000
0001
1000
0010
0000
1000
0001
1000
0001
1000
0001
,  // measure 147
0020
0000
0130
0000
0020
0000
0130
0000
0020
0000
0130
0000
1000
0100
0010
0000
,  // measure 148
0100
1000
0001
1000
0020
0000
0130
0000
0020
0000
0130
0000
0020
0000
0130
0001
,  // measure 149
1000
0001
0100
0010
0100
0001
0100
0010
2000
0000
3001
0000
0010
0000
0100
1000
,  // measure 150
0100
0000
0010
0001
0010
0001
0010
0000
0001
1000
0001
1000
0001
1000
0001
1000
,  // measure 151
0010
1000
0010
1000
0010
0000
0100
0000
0001
0000
1000
0000
0100
0000
0010
0000
,  // measure 152
0100
1000
0100
1000
0100
0000
0010
0000
0001
0000
1000
0000
0010
0000
0100
0000
,  // measure 153
0001
0100
0001
0100
0001
0000
1000
0000
0100
0000
0010
0000
0100
0000
1000
0000
,  // measure 154
0001
0010
0001
0010
0100
1000
0100
0000
0010
0000
0001
0000
1000
0001
1000
0001
,  // measure 155
1000
0010
0100
0001
1000
0100
0010
0100
,  // measure 156
1000
0100
1000
0100
1000
0000
0001
0000
0100
0000
0010
0000
0100
0000
0001
0000
,  // measure 157
1000
0010
1000
0010
1000
0000
0001
0000
0010
0000
0100
0000
0010
0000
0001
0000
,  // measure 158
1000
0001
1000
0001
1000
0000
0100
1000
0001
0100
0001
0100
0010
1000
0010
1000
,  // measure 159
0001
0100
0001
0100
0010
0000
1000
0000
0001
0000
0010
0000
0100
0000
1000
0000
,  // measure 160
0001
0010
0001
0010
0100
0000
1000
0000
0100
0000
0010
0000
0001
0000
1000
0000
,  // measure 161
0010
1000
0010
1000
0001
0000
0010
0000
0100
0000
1000
0000
0001
0000
0100
0000
,  // measure 162
0010
0100
0010
0100
0001
1000
0001
0000
0010
0001
0010
0001
1000
0010
1000
0001
,  // measure 163
1000
0000
0010
0100
0001
0000
1000
0000
0100
0010
0001
0010
0100
0000
1000
0001
,  // measure 164
0010
0000
0000
0000
0000
0000
0100
0000
0000
0000
0000
0000
0010
0000
0000
0001
0000
0000
4000
0000
0004
0000
0000
0000
0000
0000
0000
0000
0000
0000
0000
0000
0000
0000
0000
0000
3003
0000
0000
0000
0000
0000
0000
0000
0000
0000
0000
0000
,  // measure 165
0001
0100
0001
0100
0010
1000
0010
1000
0001
0010
0001
0010
0100
1000
0100
1000
,  // measure 166
0001
0010
0001
0010
0100
1000
0100
1000
0100
0010
0001
0010
0001
0010
0001
1000
,  // measure 167
0002
0000
0203
0300
0220
0330
1110
0000
,  // measure 168
1010
00M1
0000
0200
0000
0300
0000
0001
,  // measure 169
1000
0100
1000
0100
0010
0001
0010
0001
1000
0010
1000
0010
0100
0001
0100
0001
,  // measure 170
1000
0010
1000
0010
1000
0001
1000
0001
0010
0100
0010
0100
1000
0000
0000
0000
,  // measure 171
0020
0000
0230
0300
0202
0303
1101
0000
,  // measure 172
2000
0000
0000
3200
0000
0000
0300
0010
,  // measure 173
0001
1000
0010
1000
0001
0010
0100
0010
0001
1000
0010
1000
0001
0010
0100
1000
,  // measure 174
0002
0000
0203
0000
0320
0000
1030
0000
0001
0010
0001
2000
0000
0000
3000
0010
,  // measure 175
1000
0001
0010
0100
0010
0001
1000
0010
0100
0010
1000
0002
0000
0013
0100
0000
,  // measure 176
0020
0000
0032
0000
2003
0000
3020
0000
0130
0001
1000
0100
0000
0010
0001
2000
,  // measure 177
0000
0000
0000
0200
0000
0000
0000
0000
0000
0000
0000
0000
0000
0000
0000
0000
0000
0000
0000
0000
0000
0000
0000
0000
0000
0000
0000
0000
3300
0000
0000
0000
0000
0000
0000
0000
0000
0000
0000
0000
0000
0000
0000
0000
0000
0000
0000
0000
0000
0000
0000
0000
0000
0000
0000
0000
0000
0000
0000
0000
0000
0000
0000
0000
;

//---------------dance-single - Hectic----------------
#NOTES:
     dance-single:
     Ace Of Hearts (2011):
     Medium:
     10:
     0.766,0.000,0.085,0.468,0.222:
0000
0000
0000
0000
,
0000
0000
0000
0000
,
0000
0000
0000
0000
,
0000
0000
0000
0000
,
0000
0000
0000
0000
,
0000
0000
0000
0000
,
0000
0000
0000
0000
,
0000
0000
0000
0000
,
0000
0000
0000
0000
,
0000
0000
0000
0000
,
0001
0000
1000
0100
1000
0000
0001
0000
0100
0000
0001
0000
1000
0000
0100
0000
,
0010
0000
0001
1000
0001
0000
1000
0000
0010
0000
0100
0000
0010
0000
1000
0000
,
0001
0000
1000
0100
1000
0000
0001
0000
0100
0000
0010
0000
0100
0000
0001
0000
,
1000
0100
1000
0000
0001
0000
0010
0000
0100
0000
0010
0000
0001
0000
1000
0000
,
0000
0001
0010
0100
0010
0001
1000
0010
,
1000
0001
1000
0000
0001
0000
0010
0000
0100
0000
1000
0000
0100
0000
0010
0000
,
0001
1000
0001
0000
0100
0000
0001
0000
1000
0000
0001
0000
0010
0000
0100
0000
,
4000
0004
0000
0000
0000
0000
0000
0000
0000
0000
0000
0000
3003
0000
0000
0000
,
0001
0010
0001
0000
1000
0000
0010
0000
0100
0000
0010
0000
1000
0000
0001
0000
,
0010
0100
0010
0000
0001
0000
1000
0000
0010
0000
1000
0000
0001
0000
0010
0000
,
0001
1000
0001
0000
0100
0000
0010
0000
1000
0000
0001
0000
0010
0000
0001
0000
,
1000
0010
1000
0000
0001
0000
0010
0000
0100
0000
0010
0000
0001
0000
1000
0000
,
0010
0000
1000
0010
1000
0000
0001
0000
0010
0001
0010
0000
0001
0000
1000
0000
,
0010
0000
0100
0000
0001
0100
0004
0000
0000
0000
0000
0000
0003
0000
1000
0000
,
0010
0100
0010
1000
0001
0010
0001
1000
,
0010
2000
0000
3001
0010
0100
0010
0001
,
2000
3200
0320
0032
,
1003
0010
0000
0200
0000
0300
0000
0001
,
0100
0010
1000
0001
0010
0100
0010
0001
,
1000
0010
0100
0010
1000
0001
0010
0000
,
0002
0000
2003
0000
0002
0000
0010
3003
,
2000
0000
0000
3020
0000
0000
0030
0100
,
0001
1000
0100
0010
0100
1000
0001
0100
,
0010
1000
0001
0010
0100
1000
0100
0010
,
0002
0000
2003
0000
3200
0300
0110
0000
,
0010
0001
1000
0200
0000
0300
0000
1000
,
0001
0100
0010
1000
0001
0010
0100
0010
,
0001
1000
0010
0100
0010
1000
0001
0000
,
2000
0000
3002
0000
0200
0000
0010
0303
,
0001
1000
0001
0010
0001
1000
0020
0000
,
0130
0000
0001
0000
1000
0000
0100
0000
0010
0000
0000
0000
00M1
0000
1000
0100
,
1000
0000
0001
0000
0100
0000
0010
0000
1000
0000
0000
0000
M010
0000
0100
0001
,
0100
0010
1000
0001
0010
0100
1000
0100
,
0010
0000
0001
0000
1000
0000
0010
0000
0100
0000
0010
1000
0010
0000
0100
0000
,
0001
0000
1000
0000
0100
0000
0010
0000
0001
0000
0000
0000
100M
0000
0010
1000
,
0010
0000
0100
0000
0010
0000
1000
0000
0001
0000
0000
0000
001M
0000
0100
1000
,
0100
0010
0001
1000
0040
0000
0000
0000
,
1030
0001
1000
0001
1000
0000
0010
0000
0100
0001
0100
0000
0010
0000
1000
0000
,
0001
1000
0100
1000
0001
0100
0010
0100
,
0001
1000
0100
0010
0100
1000
0001
0100
,
0010
1000
0001
0010
0100
0010
0001
1000
,
0040
0400
0000
0000
0000
0000
0000
0000
0000
0000
0000
0000
0330
0000
0000
0000
,
0101
00M0
1001
000M
,
1100
M000
0011
0M00
,
0001
0000
0001
0000
1000
0000
1000
0000
0010
0000
0010
0000
0100
0001
0100
0000
,
0020
0030
0000
0000
2000
3000
0000
0000
2002
3003
0000
0000
0000
0000
0000
0000
,
0001
0010
0001
1000
0010
0100
0010
1000
,
0001
0010
0100
0010
0001
1000
0010
0100
,
0010
1000
0001
0010
0100
0010
0001
1000
,
0010
1000
0001
0010
0100
1000
0100
0010
,
0001
1000
0010
0100
0010
1000
0001
0010
,
0100
0010
0001
1000
0010
0100
0010
1000
,
0001
0010
0100
1000
0100
0010
0001
1000
,
0010
0100
0010
1000
0000
0002
0000
0013
,
0001
1000
0010
0100
0010
1000
0001
0010
,
0210
0000
1300
1002
0000
0103
0120
0000
,
1030
0002
0000
1003
1020
0000
0130
0001
,
1000
0100
0010
0100
1000
0001
0000
0100
,
0001
1000
0100
0010
0100
1000
0001
0100
,
0010
0100
0001
1000
0100
1000
0001
0100
,
0020
0000
0000
2030
0000
0000
0000
3002
,
0000
0000
0013
0000
0100
0000
0010
0000
0001
0000
0000
0000
1000
0010
1000
0000
,
0001
1000
0100
0010
0100
1000
0001
0100
,
0010
1000
0010
0100
0001
1000
0001
0010
,
0002
0000
0000
0003
,
1000
0000
0010
0000
1000
0000
0001
0000
1000
0100
1000
0100
1000
0100
1000
0000
,
0001
0100
0010
1000
0M00
0001
0010
0001
,
1000
0000
01M0
0000
0000
0000
1000
0001
1000
0000
0M10
0000
0000
0000
1000
0000
,
0010
0100
0010
1000
0001
0010
0200
0000
,
0310
0001
1000
0100
0001
0100
1000
0001
,
2000
0000
3020
0000
0230
0300
0101
0000
,
0001
1000
0000
0200
0000
0300
0000
0010
,
0001
1000
0001
0010
1000
0010
0001
1000
,
0001
1000
0010
0100
0010
1000
0001
0000
,
0200
0000
0302
0000
2000
0000
0010
3003
,
0002
0000
0103
0020
0000
0030
0000
1000
,
0001
0010
0100
2000
0000
3001
0100
0010
,
1000
0010
0001
0010
1000
0001
0010
0100
,
2000
0000
3002
0000
0023
0030
0110
0000
,
0100
1000
0001
0200
0000
0300
0000
0001
,
1000
0100
0010
0001
0010
1000
0010
0002
,
0000
1003
0010
0100
0010
1000
0001
1000
,
0020
0000
0230
0000
0002
0000
0010
0303
,
0002
0000
0000
1003
0020
0000
0000
0030
,
1000
0000
0001
0000
0010
0000
0100
0000
1000
0000
0000
0000
M001
0000
1000
0010
,
1000
0000
0001
0000
0010
0000
0100
0000
0010
0000
0000
0000
00M1
0000
1000
0100
,
1000
0001
1000
0010
0100
0001
1000
0100
,
0010
0001
1000
0010
0100
0010
1000
0001
,
0010
0000
0100
0000
1000
0000
0001
0000
0100
0000
0000
0000
0M10
0000
1000
0001
,
1000
0000
0100
0000
0010
0000
0001
0000
1000
0000
0000
0000
M010
0000
0100
0001
,
0100
0010
1000
0001
0010
0100
0010
0001
,
1000
0010
1000
0000
0001
0000
0010
0000
0100
1000
0100
0000
0010
0001
0010
0000
,
0100
1000
0001
0100
0010
0100
0001
1000
,
0100
0010
0100
1000
0001
0100
0010
0100
,
0001
1000
0100
0010
0100
1000
0001
0100
,
0004
4000
0000
0000
0000
0000
0000
0000
0000
0000
0000
0000
3003
0000
0000
0000
,
1100
M000
0011
0M00
,
0101
00M0
1010
0M00
,
1000
0000
1000
0000
0001
0000
0001
0000
0010
0000
0010
0000
0100
1000
0100
0000
,
0020
0030
0000
0000
0002
0003
0000
0000
2002
3003
0000
0000
0000
0000
0000
0000
,
1000
0010
0100
0010
1000
0001
0010
0100
,
0010
0001
1000
0010
1000
0001
0010
0100
,
1000
0001
0100
0010
1000
0001
0010
0100
,
0010
0001
1000
0010
0100
0010
1000
0001
,
0010
0100
1000
0100
0010
0001
1000
0010
,
0100
0001
1000
0100
0010
0100
1000
0001
,
0100
0010
1000
0001
0010
0100
1000
0001
,
0100
0010
1000
0001
0010
0100
1000
0001
,
0100
0010
2000
0000
3001
0010
0100
1000
,
1002
0000
0103
0120
0000
1030
1002
0000
,
0013
0100
0000
2100
0000
3001
0100
0010
,
0100
0001
1000
0100
0010
0100
0000
1000
,
0001
0100
0010
0100
0001
1000
0100
1000
,
0001
0100
0010
0100
0001
1000
0001
0010
,
0200
0000
0000
2300
0000
0000
0000
3002
,
0000
0000
1003
0000
0010
0000
1000
0000
0001
0000
0000
0000
0010
0001
0010
0000
,
0100
1000
0001
0100
0001
1000
0010
1000
,
0001
0010
0100
1000
0100
0010
0001
1000
,
0020
0000
0000
0000
0000
0000
0000
0000
0000
0000
0000
0000
0030
0000
1000
0001
,
1000
0000
0010
0000
0100
0000
0001
0000
1000
0100
1000
0100
1000
0000
0000
0000
,
0002
0000
1003
0020
0000
1030
0000
0002
0000
0000
0000
0000
0003
0000
0010
0000
,
0200
0000
1300
0002
0000
1003
0000
0200
0000
0000
0000
0000
0300
0000
0010
0000
,
0002
0000
1003
0010
0000
1000
0000
0002
0000
0000
0000
0000
0003
0000
1000
0000
,
0040
0000
0000
0000
0000
0000
0000
0000
0000
0000
0000
0000
0000
0030
0000
0000
0000
0000
1000
0000
0010
0000
1000
0000
0001
0000
0010
0000
0400
0000
0000
0000
,
2300
0000
0000
0000
0000
0000
0000
0000
0000
0000
0000
0000
3000
0000
0001
0010
,
0001
0010
0001
0010
0001
0000
1000
0000
0010
0000
0100
0000
0010
0000
2000
0000
,
0000
3010
0100
0002
0000
1003
0010
0200
,
0000
0302
0000
0000
0203
0000
0000
0000
,
0310
1000
0010
0000
0100
0000
0002
0000
0000
0000
1003
0000
0200
0000
0000
0000
,
1300
0100
1000
0100
1000
0000
0001
0000
1000
0010
2000
0000
0000
0000
3001
0000
,
0020
0130
1000
0002
0103
0010
0200
0301
,
4000
0040
0000
0000
0000
0000
0000
0000
0000
0000
0000
0000
3030
0000
0000
0000
,
1000
0001
1000
0001
0010
0001
0010
0001
1000
0000
0010
0000
0100
0000
0001
0000
,
0M00
1000
000M
0100
M000
0010
0000
0020
,
0M00
0000
0130
0000
1000
0001
0100
0002
,
0000
0000
0000
0000
1003
0100
1000
0000
0001
0000
0100
0000
0002
0000
0000
0000
,
0023
0130
0020
0130
0020
0130
0020
0130
,
2000
0000
3001
0000
2000
0000
3001
0000
2000
0000
3001
0000
2000
0000
3001
0010
,
0001
0000
1000
0000
0010
0000
1000
0000
0001
0100
0001
0000
1000
0000
0100
0000
,
0010
0000
0100
1000
0100
0000
0010
0000
0001
0000
1000
0000
0010
0000
0100
0000
,
0001
0000
1000
0010
1000
0000
0001
0000
0010
0000
0100
0000
1000
0000
0100
0000
,
0010
0000
0001
1000
0001
0000
1000
0000
0010
0000
0100
0000
0010
0000
1000
0000
,
0001
0000
0010
0001
0010
0000
0100
0000
1000
0000
0001
0000
0100
0000
0010
0000
,
0100
0000
0001
0100
0001
0000
1000
0000
0100
0000
0010
0000
0100
0000
1000
0000
,
0000
0000
0001
0000
0100
0000
0001
0000
1000
0100
1000
0000
0001
0000
0100
0000
,
0010
0000
1000
0000
0001
0000
0010
0000
0001
1000
0001
0000
0010
0000
0100
0000
,
1000
0000
0001
0000
1000
0000
0010
0000
0100
0001
0100
0000
0010
0000
1000
0000
,
0001
0000
0010
0000
0100
0000
0010
0000
0001
1000
0001
0000
1000
0000
0010
0000
,
0100
0000
0001
0100
0001
0000
1000
0000
0010
0000
1000
0000
0001
0000
0010
0000
,
0100
0000
1000
0100
1000
0000
0001
0000
0100
0000
0010
0000
1000
0000
0001
0000
,
0010
0000
0100
0010
0100
0000
1000
0000
0001
0000
1000
0000
0010
0000
0100
0000
,
0010
0000
1000
0000
0001
0010
0001
0000
1000
0000
0010
0000
0100
0001
0100
0000
,
0010
0000
1000
0001
1000
0000
0001
0000
0010
0000
0001
0000
1000
0000
0001
0010
,
0001
0000
1000
0000
0100
1000
0400
0000
0000
0000
0000
0000
0300
0000
0010
0000
,
0001
1000
0010
0100
0010
1000
0001
0010
,
0100
0010
0001
1000
0010
0100
0010
1000
,
0001
0010
0100
0010
0001
1000
0010
0100
,
0010
1000
0001
0010
0100
0010
0001
1000
,
0010
0100
0010
1000
0001
0010
0001
1000
,
0010
0100
0001
0100
0010
1000
0001
0000
,
2000
0000
3002
0000
0200
0000
0010
0303
,
0002
0000
0000
2003
0000
0000
3000
0001
,
0010
0001
0010
0001
1000
0010
1000
0010
0100
0010
0100
0001
0100
0001
1000
0001
,
2000
0000
3200
0000
0320
0000
0031
0000
1000
0100
1000
0002
0000
0000
0003
1000
,
0010
0100
0010
2000
0000
3001
0010
0001
1000
0100
1000
0200
0000
0310
0001
0000
,
2000
0000
3020
0000
0230
0000
0302
0000
1003
0100
1000
0100
0000
0010
0001
0020
,
0000
0000
0000
0200
0000
0000
0000
0000
0000
0000
0000
0000
0000
0000
0000
0000
0000
0000
0000
0000
0000
0000
0000
0000
0000
0000
0000
0000
0330
0000
0000
0000
0000
0000
0000
0000
0000
0000
0000
0000
0000
0000
0000
0000
0000
0000
0000
0000
0000
0000
0000
0000
0000
0000
0000
0000
0000
0000
0000
0000
0000
0000
0000
0000
;

//---------------dance-single - Busy----------------
#NOTES:
     dance-single:
     Ace Of Hearts (2011):
     Easy:
     7:
     0.498,0.000,0.045,0.619,0.028:
0000
0000
0000
0000
,
0000
0000
0000
0000
,
0000
0000
0000
0000
,
0000
0000
0000
0000
,
0000
0000
0000
0000
,
0000
0000
0000
0000
,
0000
0000
0000
0000
,
0000
0000
0000
0000
,
0000
0000
0000
0000
,
0000
0000
0000
0000
,
0001
0100
0001
0000
1000
0000
0100
0000
,
0010
0001
0010
0000
0100
0000
1000
0000
,
0001
0100
0001
0000
1000
0000
0010
0000
,
1000
0001
1000
0000
0001
0000
0010
0000
,
0001
0010
0001
0000
1000
0000
0010
0000
,
1000
0010
1000
0000
0001
0000
0100
0000
,
0001
0100
0001
0000
1000
0000
0010
0000
,
1000
0001
1000
0000
0001
0000
0010
0000
,
0001
1000
0001
0000
1000
0000
0010
0000
,
1000
0001
1000
0000
0001
0000
0010
0000
,
0100
1000
0100
0000
0010
0000
0001
0000
,
1000
0000
0010
1000
0010
0000
1000
0000
,
0001
0010
0001
0000
1000
0000
0010
0000
,
1000
0001
4000
0000
0000
0000
3000
0001
,
0010
0001
1000
0001
,
1000
0020
0000
1030
0001
0000
0010
0000
,
0002
0023
0230
1300
,
0001
1000
0000
0200
0000
0300
0000
0010
,
0001
1000
0010
1000
,
0001
0000
0010
0000
0001
1000
0001
0000
,
2000
3200
0320
0031
,
2000
0000
0000
3020
0000
0000
0030
1000
,
0001
1000
0010
1000
,
0001
0000
0010
0000
0100
0000
1000
0001
,
2000
3020
0230
0301
,
1000
0000
0001
0200
0000
0300
0000
0001
,
1000
0001
0010
0001
,
1000
0010
1000
0000
0001
0010
0001
0000
,
2000
3020
0230
0302
,
2003
0000
0000
3001
0020
0000
0000
0030
,
0000
0000
0002
0000
0000
2003
0000
0000
,
3200
0000
0000
0320
0000
0031
1000
0002
,
0000
1003
0010
1000
,
0001
0010
0000
0200
0000
0000
0300
0000
,
0000
0000
0020
0000
0000
0032
0000
1003
,
0200
0310
0001
1000
,
0020
1030
0001
0010
,
0400
0000
0000
0300
,
1000
0001
0100
0001
,
1000
0001
0010
0001
,
2000
0000
0000
3002
0000
0000
1003
0000
,
0020
0000
0030
0100
,
0101
0000
1001
0000
,
1100
0000
0110
0000
,
0022
0000
0000
0033
,
0001
1000
1001
0000
,
0001
0010
0001
0000
1000
0010
1000
0000
,
0001
0010
0000
0001
1000
0000
0001
0100
,
0000
0001
1000
0000
0100
2000
0000
0000
,
3001
0100
0001
0000
1000
0000
0000
0000
,
0001
0100
0001
0200
0000
0000
0301
1000
,
0002
0000
1003
0200
0000
1300
0001
0000
,
1000
0020
0000
1030
0002
0000
1003
0100
,
1000
0000
0001
0100
0000
0001
0000
0000
,
1000
0100
1000
0000
0001
0010
0001
0000
,
2000
0000
3001
0200
0000
0301
2000
0000
,
3001
0020
0000
0130
2000
0000
3001
0100
,
0001
0000
1000
0010
1000
0000
0000
0000
,
0001
0010
0001
0000
1000
0000
0010
1000
,
0010
0000
1000
0002
0000
0013
0001
0000
,
2000
0000
0000
3002
0000
0000
0000
0203
,
0000
0000
0300
0001
,
2000
0000
3001
0200
0000
0000
0310
0000
,
2000
0000
3001
0020
0000
0130
0000
0000
,
2000
0000
0000
3000
,
0001
0100
0001
0000
4000
0000
0000
3000
,
0001
0000
1000
0100
0000
0010
0001
0000
,
1000
0100
0000
1000
0001
1000
0000
0001
,
0100
0000
0001
0000
1000
0001
2000
0000
,
3001
0000
0010
0000
0001
1000
0001
0000
,
2000
3020
0130
0002
,
1003
0010
0000
0200
0000
0300
0000
0001
,
0100
0000
0001
0000
1000
0000
0001
0010
,
0001
0000
1000
0000
0010
1000
0010
0000
,
2000
3002
0023
0130
,
2000
0000
3001
0020
0000
0030
0000
0001
,
1000
0000
0010
0000
1000
0000
0001
0010
,
0001
0000
1000
0000
0010
1000
0010
0000
,
2000
3002
0023
0230
,
1300
0000
0001
0200
0000
0300
0000
0001
,
1000
0000
0010
0000
1000
0001
1000
0000
,
0001
0010
0001
0000
1000
0000
0010
0000
,
0200
0302
2003
3100
,
0020
0000
0000
0130
2000
0000
0000
0000
,
3000
0000
0002
0000
0000
0203
0000
0000
,
0320
0000
0000
2030
0000
3001
0010
0000
,
0001
1000
0010
1000
,
0001
0010
0000
0200
0000
0300
0000
0000
,
0000
0000
2000
0000
3001
0100
0001
0000
,
2000
3010
0100
0001
,
2000
3001
0010
0100
,
4000
0000
0000
3000
,
0002
0000
2003
0000
,
3020
1030
0001
0010
,
0200
0000
0000
2300
0000
0000
3002
0000
,
0203
0000
0300
0001
,
1000
0000
1100
0000
,
0110
0000
0011
0000
,
2002
0000
0000
3003
,
1000
0001
1001
0000
,
1000
0010
1000
0000
0001
0010
0001
0000
,
1000
0001
0000
0010
0001
0000
1000
0010
,
0000
0100
0001
0000
1000
0001
0000
0010
,
0001
0000
1000
0020
0000
0030
0000
0000
,
1000
0001
1000
0000
0001
0010
0001
0000
,
2000
0000
3001
0020
0000
0031
2000
0000
,
3001
0020
0000
0031
2000
0000
3001
0000
,
0010
0001
0010
0000
0100
0000
0000
0000
,
1000
0001
1000
0000
0010
1000
0010
0000
,
2000
0000
3001
0200
0000
0301
2000
0000
,
3001
0020
0000
0130
0000
1000
0001
0000
,
1000
0010
1000
0000
0001
0000
0000
0000
,
0100
0000
0001
2000
0000
3020
0000
0000
,
0230
0000
0301
2000
0000
3001
0010
0000
,
0200
0000
0000
0320
0000
0000
0000
0032
,
0000
0000
0003
1000
,
0020
0000
1030
0001
0000
0020
0000
0000
,
0032
0000
1003
0010
0000
2000
0000
0000
,
3200
0000
0000
0000
,
0000
0000
0300
0010
,
0002
0000
0000
1003
0000
0010
0000
2000
0000
0000
0000
0000
3000
0000
0001
0000
,
0200
0000
0000
0301
0000
1000
0000
0002
0000
0000
0000
0000
0003
0000
1000
0000
,
0200
0000
0000
0310
0000
0001
0000
0020
0000
0000
0000
0000
0030
0000
0000
0000
,
0004
0000
0000
0003
0000
1000
0010
1000
,
0002
0000
0000
0000
0000
0000
0003
1000
,
0020
0000
1030
0001
1000
0000
0001
0200
,
0000
0000
0301
2000
0000
3001
0020
0000
,
0000
0230
0000
0000
0300
0000
0000
0000
,
1000
0000
0001
0200
0000
0301
1000
0001
,
4000
0000
3000
0000
,
0001
0100
0001
0000
1000
0010
1000
0000
,
0001
0100
0000
0001
0000
2000
0000
3000
,
0004
4000
0000
0000
0000
0000
0000
0000
0000
0000
0000
0000
3003
0000
0000
0000
,
0000
0001
0000
1000
0000
0010
0000
0020
,
0000
0000
1030
0000
0001
0100
0000
0002
,
0000
0000
1003
0200
0000
2300
0000
3000
,
0001
0100
0001
0000
1000
0000
1000
0000
,
0001
0010
0001
0000
1000
0000
1000
0000
,
0001
0100
0001
0000
1000
0000
1000
0000
,
0004
0000
0000
0003
,
1000
0010
1000
0000
0001
0000
0010
0000
,
0001
1000
0001
0000
1000
0000
0010
0000
,
0100
0001
0100
0000
0010
0000
1000
0000
,
0001
0010
0001
0000
1000
0000
0100
0000
,
0010
0001
0010
0000
0001
0000
1000
0000
,
0010
1000
0010
0000
1000
0000
0001
0000
,
0100
0001
0100
0000
0010
0000
1000
0000
,
0001
0010
0001
0000
1000
0000
0100
0000
,
0010
0001
0010
0000
0001
0000
1000
0000
,
0001
0100
0001
0000
0100
0000
0010
0000
,
1000
0001
1000
0000
0001
0000
0010
0000
,
0100
1000
0100
0000
0010
0000
0001
0000
,
1000
0010
1000
0000
0001
0010
0001
0000
,
1000
0001
4000
0000
0000
0000
3000
0000
,
0010
1000
0010
0000
1000
0001
1000
0000
,
0001
0020
0000
0031
1000
0000
0010
0000
,
2000
3002
0023
0130
,
0010
0001
0000
2000
0000
3000
0000
0000
,
0001
0100
0001
0000
1000
0001
1000
0000
,
0001
0010
0001
0000
1000
0100
1000
0000
,
0002
2003
3020
0130
,
0002
0000
0000
2003
0000
0000
3000
0000
,
0010
0010
1000
1000
0001
0001
0010
0010
,
0200
0000
2300
0000
3002
0000
0103
0000
0010
0000
0000
0200
0000
0000
0300
0000
,
0001
0001
1000
1000
0001
0001
0010
0010
,
0200
0000
0320
0000
0032
0000
1003
0000
0020
0000
0000
1030
0000
0000
0000
0002
,
0000
0000
0000
0200
0000
0000
0000
0000
0000
0000
0000
0000
0000
0000
0000
0000
0000
0000
0000
0000
0000
0000
0000
0000
0000
0000
0000
0000
0303
0000
0000
0000
0000
0000
0000
0000
0000
0000
0000
0000
0000
0000
0000
0000
0000
0000
0000
0000
0000
0000
0000
0000
0000
0000
0000
0000
0000
0000
0000
0000
0000
0000
0000
0000
;

//---------------dance-single - Lame----------------
#NOTES:
     dance-single:
     Ace Of Hearts (2011):
     Beginner:
     4:
     0.227,0.000,0.000,0.098,0.002: // measure 1
0000
0000
0000
0000
,  // measure 2
0000
0000
0000
0000
,  // measure 3
0000
0000
0000
0000
,  // measure 4
0000
0000
0000
0000
,  // measure 5
0000
0000
0000
0000
,  // measure 6
0000
0000
0000
0000
,  // measure 7
0000
0000
0000
0000
,  // measure 8
0000
0000
0000
0000
,  // measure 9
0000
0000
0000
0000
,  // measure 10
0000
0000
0000
0000
,  // measure 11
0001
0001
0001
0000
,  // measure 12
0010
0010
0010
0000
,  // measure 13
0001
0001
0001
0000
,  // measure 14
1000
1000
1000
0000
,  // measure 15
0010
0010
0010
0000
,  // measure 16
0100
0100
0100
0000
,  // measure 17
0001
0001
0001
0000
,  // measure 18
1000
1000
1000
0000
,  // measure 19
0100
0100
0100
0000
,  // measure 20
0010
0010
0010
0000
,  // measure 21
0001
0001
0001
0000
,  // measure 22
1000
1000
1000
0000
,  // measure 23
0010
0000
1000
0000
,  // measure 24
0001
0000
0000
0000
,  // measure 25
1000
0000
1000
0000
,  // measure 26
0001
0000
0001
0000
,  // measure 27
0100
0100
0100
0000
,  // measure 28
0002
0000
0003
0000
,  // measure 29
1000
0000
1000
0000
,  // measure 30
0100
0000
0100
0000
,  // measure 31
0010
0010
0010
0000
,  // measure 32
0002
0000
0003
0000
,  // measure 33
0010
0000
0010
0000
,  // measure 34
0100
0000
0100
0000
,  // measure 35
1000
1000
1000
0000
,  // measure 36
0002
0000
0003
0000
,  // measure 37
0100
0000
0100
0000
,  // measure 38
0010
0000
0010
0000
,  // measure 39
1000
1000
1000
0000
,  // measure 40
0020
0000
0030
0000
,  // measure 41
0000
0000
0100
0000
,  // measure 42
0100
0000
0100
0000
,  // measure 43
0001
0000
0001
0000
,  // measure 44
0001
0000
0000
0000
,  // measure 45
0000
0000
0100
0000
,  // measure 46
0100
0000
0100
0000
,  // measure 47
0001
0000
0001
0000
,  // measure 48
0001
0000
0000
0000
,  // measure 49
1000
0000
1000
0000
,  // measure 50
0001
0000
0001
0000
,  // measure 51
1000
0000
1000
0000
,  // measure 52
0020
0000
0030
0000
,  // measure 53
0100
0000
0001
0000
,  // measure 54
1000
0000
0001
0000
,  // measure 55
0020
0000
0030
0000
,  // measure 56
0001
0001
0001
0000
,  // measure 57
1000
1000
1000
0000
,  // measure 58
0010
0000
0010
0000
,  // measure 59
0100
0100
0100
0000
,  // measure 60
0001
0001
0001
0000
,  // measure 61
1000
0000
0000
1000
0000
0000
0000
0000
,  // measure 62
0100
0100
0100
0000
,  // measure 63
1000
1000
1000
0000
,  // measure 64
0001
0000
0001
0000
,  // measure 65
0100
0100
0100
0000
,  // measure 66
0010
0000
0000
0010
0000
0000
0000
0000
,  // measure 67
1000
0000
1000
0000
,  // measure 68
0001
0001
0001
0000
,  // measure 69
0010
0010
0010
0000
,  // measure 70
0100
0100
0100
0000
,  // measure 71
1000
0000
1000
0000
,  // measure 72
2000
0000
3000
0000
,  // measure 73
0001
0000
0001
0000
,  // measure 74
0010
0000
0010
0000
,  // measure 75
0020
0000
0000
0000
,  // measure 76
0030
0000
0000
0000
,  // measure 77
0001
0000
0000
0001
0000
0000
0100
0000
,  // measure 78
0000
0100
0000
0000
0100
0000
0000
0000
,  // measure 79
0001
0000
0001
0000
,  // measure 80
1000
0000
1000
0000
,  // measure 81
0100
0100
0100
0000
,  // measure 82
2000
0000
3000
0000
,  // measure 83
0001
0000
0001
0000
,  // measure 84
0100
0000
0100
0000
,  // measure 85
0010
0010
0010
0000
,  // measure 86
0200
0000
0300
0000
,  // measure 87
0001
0000
0000
0001
0000
0000
0000
0000
,  // measure 88
1000
0000
1000
0000
,  // measure 89
0010
0010
0010
0000
,  // measure 90
0200
0000
0300
0000
,  // measure 91
0001
0000
0001
0000
,  // measure 92
1000
0000
1000
0000
,  // measure 93
0100
0100
0100
0000
,  // measure 94
2000
0000
3000
0000
,  // measure 95
0000
0000
0001
0000
,  // measure 96
0001
0000
0001
0000
,  // measure 97
0100
0000
0100
0000
,  // measure 98
0100
0000
0000
0000
,  // measure 99
0000
0000
0010
0000
,  // measure 100
0010
0000
0010
0000
,  // measure 101
1000
0000
1000
0000
,  // measure 102
1000
0000
0000
0000
,  // measure 103
0001
0000
0001
0000
,  // measure 104
1000
1000
1000
0000
,  // measure 105
0010
0000
0010
0000
,  // measure 106
0020
0000
0030
0000
,  // measure 107
0100
0000
0001
0000
,  // measure 108
1000
0000
0001
0000
,  // measure 109
0200
0000
0300
0000
,  // measure 110
0010
0010
0010
0000
,  // measure 111
1000
1000
1000
0000
,  // measure 112
0001
0000
0001
0000
,  // measure 113
0010
0000
0010
0000
,  // measure 114
0100
0100
0100
0000
,  // measure 115
1000
1000
1000
0000
,  // measure 116
0001
0000
0000
0001
0000
0000
0000
0000
,  // measure 117
0010
0000
0010
0000
,  // measure 118
0100
0100
0100
0000
,  // measure 119
1000
1000
1000
0000
,  // measure 120
0001
0000
0000
0001
0000
0000
0000
0000
,  // measure 121
1000
0000
0000
1000
0000
0000
0000
0000
,  // measure 122
0010
0010
0010
0000
,  // measure 123
0100
0000
0000
0100
0000
0000
0000
0000
,  // measure 124
0001
0000
0000
0001
0000
0000
0000
0000
,  // measure 125
1000
0000
1000
0000
,  // measure 126
2000
0000
3000
0000
,  // measure 127
0010
0010
0010
0000
,  // measure 128
0100
0000
0100
0000
,  // measure 129
0200
0000
0000
0000
,  // measure 130
0300
0000
0000
0000
,  // measure 131
0001
0001
0001
0000
,  // measure 132
0100
0100
0100
0000
,  // measure 133
0010
0010
0010
0000
,  // measure 134
2000
0000
0000
3000
0000
0000
0000
0000
,  // measure 135
0002
0000
0003
0000
,  // measure 136
1000
1000
1000
0000
,  // measure 137
0100
0100
0100
0000
,  // measure 138
0000
2000
0000
0000
3000
0000
0000
0000
,  // measure 139
0001
0001
0001
0000
,  // measure 140
0400
0000
0300
0000
,  // measure 141
0001
0000
0000
0001
0000
0000
1000
0000
,  // measure 142
0000
1000
0000
0000
0000
0000
0000
0000
,  // measure 143
0040
0000
0000
0030
,  // measure 144
0000
0000
0000
0000
0000
1000
0000
1000
,  // measure 145
0000
0000
0000
0000
0001
0000
0000
0002
,  // measure 146
0000
0000
0003
0000
,  // measure 147
1000
1000
1000
0000
,  // measure 148
0100
0100
0100
0000
,  // measure 149
0010
0010
0010
0000
,  // measure 150
0001
0001
0001
0000
,  // measure 151
1000
1000
1000
0000
,  // measure 152
0010
0010
0010
0000
,  // measure 153
0100
0100
0100
0000
,  // measure 154
0001
0001
0001
0000
,  // measure 155
1000
1000
1000
0000
,  // measure 156
0100
0100
0100
0000
,  // measure 157
0010
0010
0010
0000
,  // measure 158
0100
0100
0100
0000
,  // measure 159
1000
1000
1000
0000
,  // measure 160
0001
0001
0001
0000
,  // measure 161
0100
0100
0100
0000
,  // measure 162
0010
0010
0010
0000
,  // measure 163
1000
0000
0001
0000
,  // measure 164
0100
0000
0000
0000
,  // measure 165
0010
0000
0010
0000
,  // measure 166
1000
0000
1000
0000
,  // measure 167
0001
0001
0001
0000
,  // measure 168
0200
0000
0300
0000
,  // measure 169
0010
0000
0010
0000
,  // measure 170
1000
0000
1000
0000
,  // measure 171
0001
0001
0001
0000
,  // measure 172
0020
0000
0030
0000
,  // measure 173
0100
0100
1000
1000
,  // measure 174
0001
0001
0001
0000
2000
0000
3000
0000
,  // measure 175
0001
0001
0100
0100
,  // measure 176
0010
0000
0010
0000
0010
0000
0000
0000
1000
0000
0000
0000
0000
0000
0000
0002
,  // measure 177
0000
0000
0000
0000
0000
0000
0000
0000
0000
0000
0000
0000
0000
0000
0000
0000
0000
0000
0000
0000
0000
0000
0000
0000
0000
0000
0000
0000
0000
0003
0000
0000
0000
0000
0000
0000
0000
0000
0000
0000
0000
0000
0000
0000
0000
0000
0000
0000
0000
0000
0000
0000
0000
0000
0000
0000
0000
0000
0000
0000
0000
0000
0000
0000
;
