#TITLE:Koi wo Shiyou Yo;
#SUBTITLE:;
#ARTIST:Chata;
#TITLETRANSLIT:;
#SUBTITLETRANSLIT:;
#ARTISTTRANSLIT:;
#GENRE:J-Pop;
#CREDIT:Ace Of Hearts;
#BANNER:Koi wo Shiyou Yo - bn.png;
#BACKGROUND:Koi wo Shiyou Yo - bg.jpg;
#LYRICSPATH:;
#CDTITLE:Ace Of Hearts.png;
#MUSIC:Koi wo Shiyouyo.ogg;
#OFFSET:2.460;
#SAMPLESTART:58.400;
#SAMPLELENGTH:14.000;
#SELECTABLE:YES;
#BPMS:0.000=138.000,108.000=276.000,108.500=138.000,110.000=276.000,110.250=138.000,110.750=276.000,111.250=138.000,112.000=276.000,112.500=138.000,114.000=276.000,114.250=138.000,114.750=276.000,115.250=138.000,116.000=276.000,116.500=138.000,118.000=276.000,118.250=138.000,118.750=276.000,119.250=138.000,120.000=276.000,120.500=138.000,122.000=276.000,124.500=138.000,126.000=276.000,126.250=138.000,126.750=276.000,127.250=138.000,128.000=276.000,128.500=138.000,130.000=276.000,130.250=138.000,130.750=276.000,131.250=138.000,132.000=276.000,132.500=138.000,134.000=276.000,134.250=138.000,134.750=276.000,135.250=138.000,136.000=276.000,136.500=138.000,138.000=276.000,140.000=138.000,176.000=69.000,184.000=138.000,200.000=276.000,200.500=138.000,202.000=276.000,202.250=138.000,202.750=276.000,203.250=138.000,204.000=276.000,204.500=138.000,206.000=276.000,206.250=138.000,206.750=276.000,207.250=138.000,208.000=276.000,208.500=138.000,210.000=276.000,210.500=138.000,210.750=276.000,211.250=138.000,212.000=276.000,212.500=138.000,214.000=276.000,216.500=138.000,218.000=276.000,218.250=138.000,218.750=276.000,219.250=138.000,220.000=276.000,220.500=138.000,222.000=276.000,222.250=138.000,222.750=276.000,223.250=138.000,224.000=276.000,224.500=138.000,226.000=276.000,226.250=138.000,226.750=276.000,227.250=138.000,228.000=276.000,228.500=138.000,230.000=276.000,232.000=138.000,264.000=69.000,292.000=138.000,298.500=276.000,299.000=138.000,314.000=276.000,316.500=138.000,318.000=276.000,318.250=138.000,318.750=276.000,319.250=138.000,320.000=276.000,320.500=138.000,322.000=276.000,322.250=138.000,322.750=276.000,323.250=138.000,324.000=276.000,324.500=138.000,326.000=276.000,326.250=138.000,326.750=276.000,327.250=138.000,328.000=276.000,329.250=138.000;
#DISPLAYBPM:69.000:138.000;
#STOPS:108.000=0.109
,110.000=0.054
,110.750=0.109
,112.000=0.109
,114.000=0.054
,114.750=0.109
,116.000=0.109
,118.000=0.054
,118.750=0.109
,120.000=0.109
,122.000=0.109
,122.500=0.109
,123.000=0.109
,123.500=0.109
,124.000=0.109
,126.000=0.054
,126.750=0.109
,128.000=0.109
,130.000=0.054
,130.750=0.109
,132.000=0.109
,134.000=0.054
,134.750=0.109
,136.000=0.109
,138.000=0.109
,138.500=0.109
,139.000=0.109
,139.500=0.109
,200.000=0.109
,202.000=0.054
,202.750=0.109
,204.000=0.109
,206.000=0.054
,206.750=0.109
,208.000=0.109
,210.000=0.109
,210.750=0.109
,212.000=0.109
,214.000=0.109
,214.500=0.109
,215.000=0.109
,215.500=0.109
,216.000=0.109
,218.000=0.054
,218.750=0.109
,220.000=0.109
,222.000=0.054
,222.750=0.109
,224.000=0.109
,226.000=0.054
,226.750=0.109
,228.000=0.109
,230.000=0.109
,230.500=0.109
,231.000=0.109
,231.500=0.109
,298.500=0.109
,314.000=0.109
,314.500=0.109
,315.000=0.109
,315.500=0.109
,316.000=0.109
,318.000=0.054
,318.750=0.109
,320.000=0.109
,322.000=0.054
,322.750=0.109
,324.000=0.109
,326.000=0.054
,326.750=0.109
,328.000=0.109
,328.500=0.109
,329.000=0.054
;
#BGCHANGES:;
#KEYSOUNDS:;

//---------------dance-single - Expert----------------
#NOTES:
     dance-single:
     Ace Of Hearts (2011):
     Challenge:
     11:
     0.696,0.000,0.444,0.617,0.650:
0000
0000
0000
0000
,
0000
0000
0000
0000
,
0000
0000
0000
0000
,
0000
0000
0000
0000
,
0000
0000
0000
0000
,
0000
0000
0000
0000
,
0000
0000
0000
0000
,
0000
0000
0000
0000
,
0000
0000
0000
0000
,
0000
0000
0000
0000
,
1002
0000
0000
0000
0023
0000
0000
0000
0230
0000
0000
0000
2300
0000
0000
3002
,
0000
0000
0000
0000
0000
0000
0000
0000
0003
0000
1000
0000
0010
0100
0000
0002
,
0000
0000
0000
0000
,
1003
0100
0010
0000
0002
0000
1003
0000
0010
0000
0100
0000
0002
0000
1003
0100
,
0020
0000
0000
0000
0230
0000
0000
0000
2300
0000
0000
0000
3002
0000
0000
0203
,
0000
0000
0000
0000
0000
0000
0000
0000
0300
0000
0020
0000
1030
0001
0000
0200
,
0000
0000
0000
0000
,
0301
0100
0010
0000
1000
0000
0001
0000
0010
0000
0001
0000
2000
0000
3010
0100
,
0001
1000
0000
0100
0010
0000
0100
1000
0000
0001
0100
0000
0020
0000
0000
0000
,
0030
0000
1000
0000
0010
0000
0100
0000
0001
0000
1000
0010
0000
0000
0000
0000
,
0100
0000
0010
0000
1000
0000
0001
0000
0010
0000
0100
1000
0000
0000
0000
0000
,
0000
0000
0001
0000
0100
0000
0010
0000
1000
0000
0001
0010
0000
0000
0000
0000
,
0001
0000
0000
4000
0000
0000
0000
0000
0000
3000
0000
0000
0040
4000
0000
0000
0000
0000
0000
0000
0000
0000
0000
0000
,
3030
0000
1000
0000
0001
0000
0100
0000
0010
0000
1000
0001
0000
0000
0100
0000
,
0120
0000
0000
0000
2030
0000
3000
1100
0000
0000
0011
0000
0011
0000
0001
0000
,
2000
0000
0000
0000
3020
0000
0030
0110
0000
0000
0200
0000
0000
0000
0301
0000
,
2000
0000
0000
0000
3010
0000
0000
0200
0000
0300
0101
0000
0101
0000
0001
0000
,
1001
0000
1000
0000
0200
0000
0300
0000
0010
0100
0000
2000
0000
0000
3001
0100
,
0010
0000
0100
0000
0004
0000
1003
0100
0010
0100
0000
4000
0000
0000
3010
0000
,
0110
0000
0100
0000
0001
0000
1000
0000
0100
0010
0100
2000
0000
0000
3001
0100
,
0020
0000
0130
0001
0000
0001
1000
0000
1100
0000
0110
0000
0011
0000
0101
0000
,
1010
0000
1000
0000
0002
0000
0000
1003
0010
0100
0000
0002
0000
0000
0103
0010
,
1000
0000
0001
0000
4000
0000
3100
0010
0001
1000
0000
0040
0000
0000
0130
0000
,
0101
0000
0001
0000
1000
0000
0100
0000
0010
0100
1000
0001
0000
0000
1000
0010
,
0100
0000
0001
0100
0000
0010
0100
0001
1001
0000
1010
0000
0110
0000
0101
0000
,
2001
0000
0000
3200
0000
0000
1300
0000
1002
0000
0000
0203
0000
0000
0310
0000
,
2000
0000
0000
0000
0000
0000
0000
0000
3001
0000
0000
0000
0000
0000
0000
0000
0010
0000
0000
0000
0000
0000
0000
0000
0100
0000
0000
0000
0000
0000
0000
0000
1000
0000
0000
0000
0000
0001
0000
0000
0100
0000
0000
0000
0000
0001
0000
0000
1000
0000
0000
0000
0000
0001
0000
0000
0100
0000
0000
0000
0000
0001
0000
0000
,
1000
0000
0000
1200
0000
0000
0310
0000
0011
0000
0000
0002
0000
0003
0000
0000
,
1001
0000
1000
0000
0010
0000
0100
0000
0102
0000
0000
4003
0000
0000
0000
3000
,
1200
0000
0000
0320
0000
0000
0031
0000
2001
0000
0000
3020
0000
0000
0130
0000
,
0101
0000
0000
0000
0000
0000
0000
0000
0001
0000
0000
0000
0000
0000
0000
0000
1000
0000
0000
0000
0000
0000
0000
0000
0010
0000
0000
0000
0000
0000
0000
0000
0100
0000
0000
0000
0000
0010
0000
0000
1000
0000
0000
0000
0000
0010
0000
0000
0100
0000
0000
0000
0000
0010
0000
0000
1000
0000
0000
0000
0000
0010
0000
0000
,
0100
0000
0000
0002
0000
0000
1003
0000
1100
0000
0100
0000
0010
0000
0001
0000
,
1001
0000
1000
0000
0020
0000
0130
0004
0000
0000
0000
0000
0000
0000
0003
0000
,
1000
0100
0000
0010
0000
0010
0100
0000
1000
0000
0001
0010
0001
0010
0100
0010
,
0002
0000
0000
0000
2003
0000
0000
0200
0000
0000
0001
0000
0001
0000
0300
0000
3002
0000
0000
0000
2003
0000
0000
0002
0000
0000
0010
0000
0010
0000
3000
0000
,
2003
0000
0000
0000
0000
0000
0000
0000
0000
0000
0000
0000
0000
0000
0000
0000
0000
0000
0000
0000
0000
0000
0000
0000
3002
0000
0000
0000
0000
0000
0000
0000
0000
0000
0000
0000
0000
0000
0000
0000
0000
0000
0200
0000
0000
0000
0000
0000
0000
0000
0000
0000
0000
0000
0000
0000
0000
0000
0000
0000
1000
0000
0000
0000
0000
0000
0000
0000
0000
0000
0000
0000
1000
0000
0000
0000
0000
0000
0000
0000
0000
0000
0000
0000
0303
0000
0000
0000
0000
0000
0000
0000
0000
0000
0000
0000
1001
0000
0000
0000
0000
0000
0000
0000
0000
0000
0000
0000
0004
0000
0000
0000
0000
0000
0000
0000
0000
0000
0000
0000
0000
0000
0000
0000
0000
0000
0000
0000
0000
0000
0000
0000
0003
0000
0000
0000
0000
0000
0000
0000
0000
0000
0000
0000
0040
0000
0000
0000
0400
0000
0000
0000
0000
0000
0000
0000
0000
0000
0000
0000
0000
0000
0000
0000
0000
0000
0000
0000
0000
0000
0000
0000
0000
0000
0000
0000
0000
0000
0000
0000
0330
0000
0000
0000
0000
0000
0000
0000
0000
0000
0000
0000
,
0000
0000
0100
0000
2000
0000
0000
0000
3001
0000
0001
0010
0000
0000
0100
0000
,
2100
0000
0000
0000
3002
0000
0000
0103
0000
0000
0110
0000
0110
0000
0010
0000
,
2000
0000
0000
0000
3002
0000
0000
0013
0000
0000
0200
0000
0000
0000
1300
0000
,
0002
0000
0000
0000
0013
0000
0000
0200
0000
0300
1100
0000
1100
0000
1000
0000
,
1001
0000
0001
0000
0200
0000
0000
0000
0310
1000
0000
0002
0000
0000
0013
0100
,
1000
0000
0001
0000
0400
0000
0310
1000
0001
1000
0000
0040
0000
0000
0130
0000
,
0101
0000
0001
0000
1000
0000
0100
0000
0010
0000
0100
1000
0000
0000
0001
0100
,
0010
0000
1000
0001
0000
0001
0010
0001
1001
0000
0101
0000
0110
0000
1010
0000
,
1001
0000
0001
0000
0020
0000
0000
0130
1000
0001
0000
0200
0000
0000
0310
0100
,
0001
0000
1000
0000
0400
0000
0310
0100
1000
0001
0000
0020
0000
0000
0130
0000
,
1100
0000
1000
0000
0001
0000
0100
0000
0010
0100
0010
1000
0000
0000
0001
0010
,
0100
0000
0010
0000
0001
2000
0000
3001
0101
0000
0110
0000
1010
0000
0101
0000
,
2001
0000
0000
0010
0000
0000
3001
0000
0012
0000
0000
1000
0000
0000
0103
0000
,
0120
0000
0000
0000
0000
0000
0000
0000
1030
0000
0000
0000
0000
0000
0000
0000
0001
0000
0000
0000
0000
0000
0000
0000
0010
0000
0000
0000
0000
0000
0000
0000
0100
0000
0000
0000
0000
1000
0000
0000
0001
0000
0000
0000
0000
1000
0000
0000
0100
0000
0000
0000
0000
1000
0000
0000
0001
0000
0000
0000
0000
1000
0000
0000
,
0100
0000
0000
0020
0000
0000
0130
0000
2000
0000
3001
0010
0000
0000
0000
0000
,
0110
0000
0100
0000
1000
0000
0001
0000
0101
0000
0000
0400
0000
0000
0000
0300
,
0120
0000
0000
1000
0000
0000
0130
0000
0102
0000
0000
1000
0000
0000
0013
0000
,
0110
0000
0000
0000
0000
0000
0000
0000
0100
0000
0000
0000
0000
0000
0000
0000
1000
0000
0000
0000
0000
0000
0000
0000
0001
0000
0000
0000
0000
0000
0000
0000
0100
0000
0000
0000
0000
0010
0000
0000
1000
0000
0000
0000
0000
0010
0000
0000
0100
0000
0000
0000
0000
0010
0000
0000
1000
0000
0000
0000
0000
0010
0000
0000
,
0100
0000
0000
0002
0000
0000
1003
0000
1100
0000
0100
0000
0010
0000
0001
0000
,
1001
0000
1000
0000
0010
0100
0001
4000
0000
0000
0000
0000
0000
0000
3000
0000
,
0002
0000
0000
0000
0000
0000
0000
0000
0000
0000
0000
0000
0000
0000
0000
0000
0000
0000
0000
0000
0000
0000
0000
0000
0013
0000
0000
0000
0000
0000
0000
0000
0100
0000
0000
0000
0000
0000
0000
0000
0100
0000
0000
0000
0000
0000
0000
0000
4000
0000
0000
0000
0000
0000
0000
0000
0000
0000
0000
0000
0000
0000
0000
0000
0000
0000
0000
0000
0000
0000
0000
0000
3001
0000
0000
0000
0000
0000
0000
0000
0000
0000
0000
0000
0000
0000
0000
0000
0040
0000
0000
0000
0000
0000
0000
0000
0000
0000
0000
0000
0000
0000
0000
0000
0000
0000
0000
0000
0000
0000
0000
0000
0000
0000
0000
0000
0000
0000
0000
0000
0031
0000
0000
0000
0000
0000
0000
0000
0000
0000
0000
0000
0000
0000
0000
0000
0000
0000
0010
0000
0000
0100
0000
0000
1000
0000
0000
0000
0000
0000
0000
0000
0000
0000
0000
0000
0000
0000
0000
0000
0001
0000
0000
0000
0000
0000
0000
0000
0000
0000
0000
0000
0000
0000
0000
0000
0000
0000
0000
0000
0000
0000
0000
0000
1000
0000
0000
0000
0000
0000
0000
0000
,
0010
0000
1000
0001
0010
0001
1000
0100
0010
0001
0010
0100
0010
0000
0100
1000
0000
0001
0100
0000
0010
1000
0000
0001
,
0010
0000
0000
0001
1000
1000
0010
1000
1000
0001
1000
1000
0010
0000
0000
0100
0000
0001
1000
0100
0010
0001
0010
0100
,
1000
0000
0001
0100
0000
0010
0100
0001
0001
1000
0001
0001
0100
0000
0001
1000
0000
0100
0010
0000
0100
1000
0000
0001
,
0200
0000
0000
0310
0000
1000
0004
0000
0000
0013
0000
0400
0000
0000
0000
0300
0000
1000
0001
0000
0100
0000
0000
0001
,
1000
0000
0001
0010
0001
0010
0100
1000
0100
1000
0001
1000
0010
0000
1000
0010
0000
0100
0001
0000
1000
0100
0000
0010
,
0100
0000
1000
0001
0010
0010
0100
0010
0010
0001
0010
0010
0100
0000
1000
0001
0000
0100
0001
1000
0100
0010
0001
0010
,
0100
0000
1000
0001
0100
0002
0003
0010
,
0100
0000
1000
0000
0002
0000
1003
0010
0000
0000
2000
0000
0000
0000
3001
0000
,
0101
0000
0100
0010
1000
0001
0010
0000
0001
1000
0010
0200
0000
0310
1000
0001
,
0010
0000
0001
1000
0010
0100
0002
0000
1003
0100
0010
0200
0000
1300
0100
0010
,
0001
0000
1000
0010
0100
0010
1000
0000
0001
0010
0100
2000
0000
3001
0100
0010
,
0100
0000
0001
2000
0000
3100
0010
0001
1001
0000
1100
0000
0110
0000
0011
0000
,
1001
0000
1000
0000
0002
0000
0000
0103
0010
1000
0000
1200
0000
0000
0310
0001
,
1000
0000
0010
0000
0400
0000
0301
1000
0100
0010
0000
0004
0000
0000
1003
0000
,
1010
0000
0010
0000
0100
0000
0001
0000
0100
0010
1000
0002
0000
0000
1003
0100
,
0010
0000
0100
0000
1000
0001
0100
0010
2000
0000
3002
0000
0023
0000
0230
0300
,
2100
0000
0000
0001
0000
0000
3010
0000
0210
0000
0000
1000
0000
0000
0301
0000
,
1001
0000
0000
0000
0000
0000
0000
0000
1000
0000
0000
0000
0000
0000
0000
0000
0010
0000
0000
0000
0000
0000
0000
0000
0100
0000
0000
0000
0000
0000
0000
0000
0001
0000
0000
0000
0000
0100
0000
0000
0010
0000
0000
0000
0000
0100
0000
0000
1000
0000
0000
0000
0000
0100
0000
0000
0010
0000
0000
0000
0000
0100
0000
0000
,
0001
0000
0000
2001
0000
0000
3100
0000
0010
0000
0000
0012
0000
0000
0003
0000
,
1001
0000
1000
0000
0010
0000
0100
0000
0102
0000
0000
4003
0000
0000
0000
3000
,
1200
0000
0000
0010
0000
0000
1300
0000
1002
0000
0000
0100
0000
0000
0013
0000
,
0110
0000
0000
0000
0000
0000
0000
0000
0100
0000
0000
0000
0000
0000
0000
0000
1000
0000
0000
0000
0000
0000
0000
0000
0001
0000
0000
0000
0000
0000
0000
0000
1000
0000
0000
0000
0000
0010
0000
0000
0100
0000
0000
0000
0000
0010
0000
0000
0001
0000
0000
0000
0000
0010
0000
0000
0100
0000
0000
0000
0000
0010
0000
0000
,
1000
0000
0000
1200
0000
0000
0310
0000
0001
0000
1000
0000
0010
0000
0100
0000
,
0101
0000
0001
0000
1000
0010
0100
0004
0000
0000
0000
0000
0000
0000
0003
0000
,
2001
0000
0000
0010
0000
0000
3001
0000
0012
0000
0000
1000
0000
0000
0103
0000
,
0110
0000
0000
0000
0000
0000
0000
0000
0010
0000
0000
0000
0000
0000
0000
0000
0100
0000
0000
0000
0000
0000
0000
0000
0001
0000
0000
0000
0000
0000
0000
0000
1000
0000
0000
0000
0000
0100
0000
0000
0001
0000
0000
0000
0000
0100
0000
0000
1000
0000
0000
0000
0000
0100
0000
0000
0001
0000
0000
0000
0000
0100
0000
0000
,
1000
0000
0000
0002
0000
0000
0103
0000
0120
0000
1030
0001
0000
0000
0000
0000
,
0101
0000
0100
0000
0010
0000
1000
0000
0001
0000
0000
0040
0000
0000
0000
0030
,
0210
0000
0000
1000
0000
0000
0310
0000
0012
0000
0000
0100
0000
0000
1003
0000
,
1100
0000
0000
0000
0000
0000
0000
0000
0100
0000
0000
0000
0000
0000
0000
0000
0010
0000
0000
0000
0000
0000
0000
0000
0001
0000
0000
0000
0000
0000
0000
0000
1000
0000
0000
0000
0000
0010
0000
0000
0001
0000
0000
0000
0000
0010
0000
0000
1000
0000
0000
0000
0000
0010
0000
0000
0001
0000
0000
0000
0000
0010
0000
0000
,
1000
0000
0000
0002
0000
0000
0013
0000
0110
0000
0100
0000
1000
0000
0001
0000
,
0100
0000
0010
0000
1000
0001
0010
0400
0000
0000
0000
0000
0000
0000
0300
0000
,
2100
0000
0000
0000
3002
0000
0000
0000
0203
0000
0000
0000
0320
0000
0000
0230
,
0000
0000
0000
0000
0000
0000
0000
0000
0300
0000
0001
0000
1000
0010
0000
2000
,
0000
0000
0000
0000
0000
0000
0000
3000
,
0001
0000
0010
0000
0100
0000
1000
0000
0001
0000
0100
0000
0020
0000
0000
0130
,
0002
0000
0000
0000
2003
0000
0000
0000
3200
0000
0000
0000
0320
0000
0000
0230
,
0000
0000
0000
0000
0000
0000
0000
0000
0300
0000
1000
0000
0001
0100
0000
0002
,
0000
0000
0000
0000
0000
0000
0000
0003
,
1000
0010
0100
0000
0001
0000
1000
0000
0010
0000
0100
0000
0001
0000
1000
0100
,
0010
0001
0000
0000
2000
0000
0000
0000
3200
0000
0000
0310
0000
0000
0001
0000
,
0000
1000
0000
0000
0020
0000
0000
0000
0230
0000
0000
0302
0000
0000
0013
0000
,
0000
0110
0000
0000
2200
0000
3300
0000
2002
0000
3003
0202
0000
0303
0110
0000
,
0010
0000
1000
0001
0100
0002
0000
0000
1003
0000
0000
0010
0000
0000
1001
0000
;

//---------------dance-single - Hard----------------
#NOTES:
     dance-single:
     Ace Of Hearts (2011):
     Hard:
     9:
     0.580,0.000,0.065,0.837,0.430: // measure 1
0000
0000
0000
0000
,  // measure 2
0000
0000
0000
0000
,  // measure 3
0000
0000
0000
0000
,  // measure 4
0000
0000
0000
0000
,  // measure 5
0000
0000
0000
0000
,  // measure 6
0000
0000
0000
0000
,  // measure 7
0000
0000
0000
0000
,  // measure 8
0000
0000
0000
0000
,  // measure 9
0000
0000
0000
0000
,  // measure 10
0000
0000
0000
0000
,  // measure 11
2000
0000
0000
0000
3020
0000
0000
0000
0230
0000
0000
0000
0302
0000
0000
2003
,  // measure 12
0000
0000
0000
0000
0000
0000
0000
0000
3000
0000
0001
0000
1000
0010
0000
0200
,  // measure 13
0000
0000
0000
0300
,  // measure 14
0001
0010
0001
0000
1000
0000
0010
0000
0100
0000
0001
0000
2000
0000
0000
0000
,  // measure 15
3200
0000
0000
0000
0320
0000
0000
0000
0230
0000
0000
0000
2300
0000
0000
3002
,  // measure 16
0000
0000
0000
0000
0000
0000
0000
0000
0003
0000
1000
0000
0010
1000
0000
0002
,  // measure 17
0000
0000
0000
0003
,  // measure 18
1000
0010
1000
0000
0001
0000
0010
0000
0001
0000
1000
0000
0002
0000
0000
0000
,  // measure 19
1003
0010
0000
1000
0001
0000
1000
0010
0000
1000
0001
0000
0200
0000
0000
0000
,  // measure 20
0300
0000
0001
0000
1000
0000
0100
0000
2000
0000
3001
0010
0000
0000
0000
0000
,  // measure 21
0001
0000
1000
0000
0010
0000
0100
0000
0010
0000
1000
0001
0000
0000
0000
0000
,  // measure 22
0000
0000
0010
0000
0001
0000
1000
0000
0010
0000
0100
0010
0000
0000
0000
0000
,  // measure 23
1000
0040
0000
0030
0400
0000
0000
0000
,  // measure 24
0300
0000
0001
0000
1000
0000
0010
0000
1000
0000
0001
0010
0000
0000
0100
0000
,  // measure 25
2000
0000
0000
0000
3002
0000
0000
0103
0000
0000
0000
0000
0000
0000
0010
0000
,  // measure 26
0200
0000
0000
0000
0302
0000
0000
1003
0000
0000
0200
0000
0000
0000
0310
0000
,  // measure 27
0002
0000
0000
0000
0013
0000
0000
0200
0000
0000
0000
0000
0000
0000
1300
0000
,  // measure 28
0001
0000
1000
0000
0200
0000
0000
0000
0310
0100
0000
2000
0000
0000
3001
0100
,  // measure 29
0001
0000
1000
0000
0100
0000
0010
0000
0100
1000
0000
0002
0000
0000
1003
0000
,  // measure 30
0100
0000
0010
0000
0100
0000
1000
0000
0001
0000
1000
0200
0000
0000
0310
0000
,  // measure 31
0001
0000
1000
0010
0000
0000
1000
0000
0001
0000
1000
0000
0100
0000
0010
0000
,  // measure 32
0011
0000
0001
0000
2000
0000
0000
0000
3001
0100
0000
0020
0000
0000
0130
0000
,  // measure 33
0001
0000
1000
0000
0100
0000
0010
0000
0100
1000
0000
0002
0000
0000
1003
0000
,  // measure 34
0100
0000
0010
0000
0001
0000
1000
0000
0010
0000
0100
0010
0000
0000
1000
0001
,  // measure 35
1000
0000
0100
0010
0000
0010
0001
0000
1000
0000
0100
0000
0010
0000
0001
0000
,  // measure 36
2001
0000
0000
3020
0000
0000
0130
0000
0002
0000
0000
2003
0000
0000
3100
0000
,  // measure 37
0010
0000
0000
0000
0000
0000
0000
0000
0100
0000
0000
0000
0000
0000
0000
0000
1000
0000
0000
0000
0000
0000
0000
0000
0001
0000
0000
0000
0000
0000
0000
0000
0200
0000
0000
0000
0000
0000
0000
0000
0000
0000
0000
0000
0000
0301
0000
0000
1000
0000
0000
0000
0000
0001
0000
0000
1000
0000
0000
0000
0000
0001
0000
0000
,  // measure 38
0100
0000
0000
0002
0000
0000
1003
0000
0200
0000
0000
0310
0000
0000
0000
0000
,  // measure 39
0100
0000
1000
0000
0001
0000
0100
0000
0020
0000
0000
0430
0000
0000
0000
0000
,  // measure 40
0302
0000
0000
2003
0000
0000
3100
0000
0020
0000
0000
0230
0000
0000
1300
0000
,  // measure 41
0001
0000
0000
0000
0000
0000
0000
0000
0100
0000
0000
0000
0000
0000
0000
0000
0010
0000
0000
0000
0000
0000
0000
0000
1000
0000
0000
0000
0000
0000
0000
0000
0002
0000
0000
0000
0000
0000
0000
0000
0000
0000
0000
0000
0003
0010
0000
0000
0100
0000
0000
0000
0000
0010
0000
0000
0100
0000
0000
0000
0000
0010
0000
0000
,  // measure 42
0002
0000
0000
2003
0000
0000
3100
0000
0010
0000
0100
0000
1000
0000
0001
0000
,  // measure 43
0010
0000
0001
0000
2000
0000
3001
0400
0000
0000
0000
0000
0000
0000
0300
0000
,  // measure 44
0001
0100
0000
0010
0000
0100
0001
0000
1000
0000
0001
0100
0000
0100
0001
0000
,  // measure 45
2000
0000
0000
0000
3020
0000
0000
0130
0000
0000
0101
0000
1010
0000
0000
0000
2000
0000
0000
0000
3002
0000
0000
0013
0000
0000
0110
0000
1001
0000
0000
0000
,  // measure 46
0002
0000
0000
0000
0023
0000
0000
0130
0000
0000
1100
0000
0011
0000
0000
0000
0000
0000
0004
0000
0000
0000
0003
0000
0400
0000
0000
0000
0000
0000
0300
0000
,  // measure 47
0000
0000
0001
0000
2000
0000
0000
0000
3010
0000
0100
0001
0000
0000
1000
0000
,  // measure 48
0200
0000
0000
0000
0320
0000
0000
0031
0000
0000
0101
0000
1010
0000
1000
0000
,  // measure 49
0002
0000
0000
0000
0023
0000
0000
0130
0000
0000
2000
0000
0000
0000
3001
0000
,  // measure 50
0200
0000
0000
0000
0310
0000
0000
2000
0000
0000
0000
0000
3000
0000
0001
0000
,  // measure 51
0100
0000
0010
0000
0200
0000
0000
0000
0301
1000
0000
0020
0000
0000
1030
0001
,  // measure 52
1000
0000
0100
0000
0010
0000
0100
0000
1000
0001
0000
0020
0000
0000
0031
0000
,  // measure 53
1000
0000
0010
0000
0100
0000
0001
0000
1000
0000
0100
0010
0000
0000
0100
0000
,  // measure 54
1000
0000
0001
0100
0000
0100
0010
0000
1000
0000
0010
0000
0100
0000
0001
0000
,  // measure 55
1001
0000
1000
0000
0020
0000
0000
0000
0130
0001
0000
2000
0000
0000
3100
0000
,  // measure 56
0010
0000
0001
0000
1000
0000
0010
0000
0100
0001
0000
2000
0000
0000
3010
0000
,  // measure 57
0100
0000
0001
0000
1000
0000
0100
0000
0010
0000
0100
1000
0000
0000
0001
0100
,  // measure 58
0001
0000
1000
0000
0100
0020
0000
0000
0031
0000
0010
0000
0100
0000
1000
0000
,  // measure 59
1002
0000
0000
0203
0000
0000
0310
0000
2000
0000
0000
3002
0000
0000
0103
0000
,  // measure 60
0010
0000
0000
0000
0000
0000
0000
0000
1000
0000
0000
0000
0000
0000
0000
0000
0001
0000
0000
0000
0000
0000
0000
0000
0010
0000
0000
0000
0000
0000
0000
0000
0200
0000
0000
0000
0000
0000
0000
0000
0000
0000
0000
0000
0000
1300
0000
0000
0001
0000
0000
0000
0000
1000
0000
0000
0100
0000
0000
0000
0000
1000
0000
0000
,  // measure 61
0002
0000
0000
0023
0000
0000
0031
0000
2000
0000
3001
0100
0000
0000
0000
0000
,  // measure 62
0010
0000
0100
0000
0001
0000
1000
0000
0100
0000
0000
0040
0000
0000
0000
0000
,  // measure 63
0032
0000
0000
2003
0000
0000
3010
0000
0200
0000
0000
0302
0000
0000
1003
0000
,  // measure 64
0100
0000
0000
0000
0000
0000
0000
0000
0010
0000
0000
0000
0000
0000
0000
0000
0100
0000
0000
0000
0000
0000
0000
0000
1000
0000
0000
0000
0000
0000
0000
0000
0002
0000
0000
0000
0000
0000
0000
0000
0000
0000
0000
0000
0000
1003
0000
0000
0100
0000
0000
0000
0000
1000
0000
0000
0001
0000
0000
0000
0000
1000
0000
0000
,  // measure 65
0200
0000
0000
0320
0000
0000
0130
0000
1000
0000
0001
0000
0100
0000
0010
0000
,  // measure 66
0100
0000
0001
0000
1000
0000
0001
0400
0000
0000
0000
0000
0000
0000
0300
0000
,  // measure 67
0020
0000
0000
2030
0000
0000
3002
0000
0000
1003
0000
0020
0000
0000
0000
0030
0000
0000
2000
0000
3001
0000
0000
0020
,  // measure 68
0000
0000
0000
0100
0000
0000
0000
0000
0100
0000
0000
0000
0030
0000
0000
0002
0000
1003
0100
0000
0010
0000
0000
0000
,  // measure 69
0200
0000
0000
2300
0000
0000
3002
0000
0000
1003
0000
0020
0000
0000
0000
0030
0000
0000
0200
0000
0301
0000
0000
2000
,  // measure 70
0000
0000
3200
0010
0000
0000
0000
0000
0010
0000
0000
0000
2300
0000
3001
0100
0000
0002
0000
0000
0000
0003
0000
0000
,  // measure 71
2000
0000
0000
3200
0000
0000
0320
0000
0000
0031
0000
2000
0000
0000
0000
3000
0000
0000
0020
0000
0130
0000
0000
0002
,  // measure 72
0000
0000
0000
2003
0000
3010
0100
0000
0010
0000
0000
0000
0000
0000
0000
2000
0000
3001
0010
0000
0001
0000
0000
0000
,  // measure 73
2000
0000
0000
3200
0000
0000
0320
0000
0000
0031
0000
2000
0000
0000
0000
3000
0000
0000
0002
0000
0103
0000
0000
0010
,  // measure 74
0000
0000
0100
0001
1000
0200
0000
0310
,  // measure 75
0001
0000
1000
0000
0001
0000
0100
0010
0000
0000
2000
0000
0000
0000
3010
0000
,  // measure 76
0100
0000
0001
0000
1000
0000
0100
0000
0010
0100
0000
2000
0000
0000
3001
0100
,  // measure 77
0002
0000
1003
0000
0100
0000
0010
0000
0001
1000
0000
0020
0000
0000
1030
0000
,  // measure 78
0001
0000
0010
0000
0100
0000
0010
0000
0001
0000
1000
0200
0000
0000
0310
0000
,  // measure 79
0100
0000
1000
0001
0000
0001
0100
0000
0010
0000
1000
0000
0001
0000
0010
0000
,  // measure 80
0110
0000
0100
0000
2000
0000
0000
0000
3001
0100
0000
0020
0000
0000
0130
0001
,  // measure 81
0100
0000
0010
0000
1000
0000
0001
0000
0010
0100
0000
2000
0000
0000
3001
0000
,  // measure 82
0100
0000
0010
0000
1000
0000
0001
0000
0010
0001
0000
1000
0000
0000
0001
0010
,  // measure 83
0001
1000
0010
0100
0002
2003
3020
0230
,  // measure 84
0302
0000
0000
2003
0000
0000
3100
0000
0020
0000
0000
0230
0000
0000
1300
0000
,  // measure 85
0001
0000
0000
0000
0000
0000
0000
0000
0100
0000
0000
0000
0000
0000
0000
0000
0010
0000
0000
0000
0000
0000
0000
0000
1000
0000
0000
0000
0000
0000
0000
0000
0002
0000
0000
0000
0000
0000
0000
0000
0000
0000
0000
0000
0000
0013
0000
0000
0100
0000
0000
0000
0000
0010
0000
0000
0001
0000
0000
0000
0000
0010
0000
0000
,  // measure 86
0200
0000
0000
2300
0000
0000
3001
0000
0200
0000
0000
0310
0000
0000
0000
0000
,  // measure 87
0100
0000
0001
0000
1000
0000
0100
0000
0020
0000
0000
0430
0000
0000
0000
0000
,  // measure 88
2300
0000
0000
3002
0000
0000
0103
0000
0020
0000
0000
2030
0000
0000
3001
0000
,  // measure 89
0010
0000
0000
0000
0000
0000
0000
0000
0100
0000
0000
0000
0000
0000
0000
0000
1000
0000
0000
0000
0000
0000
0000
0000
0001
0000
0000
0000
0000
0000
0000
0000
2000
0000
0000
0000
0000
0000
0000
0000
0000
0000
0000
0000
0000
3001
0000
0000
0100
0000
0000
0000
0000
0001
0000
0000
1000
0000
0000
0000
0000
0001
0000
0000
,  // measure 90
0200
0000
0000
0320
0000
0000
1030
0000
0001
0000
0010
0000
0100
0000
1000
0000
,  // measure 91
0100
0000
0010
0000
0001
0000
1000
0400
0000
0000
0000
0000
0000
0000
0300
0000
,  // measure 92
0020
0000
0000
0230
0000
0000
1300
0000
0002
0000
0000
0203
0000
0000
0310
0000
,  // measure 93
1000
0000
0000
0000
0000
0000
0000
0000
0001
0000
0000
0000
0000
0000
0000
0000
0010
0000
0000
0000
0000
0000
0000
0000
0100
0000
0000
0000
0000
0000
0000
0000
0020
0000
0000
0000
0000
0000
0000
0000
0000
0000
0000
0000
0000
0130
0000
0000
1000
0000
0000
0000
0000
0100
0000
0000
0010
0000
0000
0000
0000
0100
0000
0000
,  // measure 94
2000
0000
0000
3002
0000
0000
1003
0000
0020
0000
0130
0001
0000
0000
0000
0000
,  // measure 95
0100
0000
0010
0000
1000
0000
0001
0000
0200
0000
0000
0340
0000
0000
0000
0000
,  // measure 96
2030
0000
0000
3002
0000
0000
0013
0000
0200
0000
0000
0320
0000
0000
0031
0000
,  // measure 97
1000
0000
0000
0000
0000
0000
0000
0000
0010
0000
0000
0000
0000
0000
0000
0000
0100
0000
0000
0000
0000
0000
0000
0000
0001
0000
0000
0000
0000
0000
0000
0000
2000
0000
0000
0000
0000
0000
0000
0000
0000
0000
0000
0000
0000
3010
0000
0000
0100
0000
0000
0000
0000
0010
0000
0000
1000
0000
0000
0000
0000
0010
0000
0000
,  // measure 98
0200
0000
0000
0302
0000
0000
1003
0000
0100
0000
0010
0000
0001
0000
1000
0000
,  // measure 99
0010
0000
0100
0000
0001
0100
0001
4000
0000
0000
0000
0000
0000
0000
3000
0000
,  // measure 100
0002
0000
0000
0000
0023
0000
0000
0000
0032
0000
0000
0000
2003
0000
0000
3200
,  // measure 101
0000
0000
0000
0000
0000
0000
0000
0000
0300
0000
1000
0000
0001
0010
0000
0200
,  // measure 102
0000
0000
0000
0000
0000
0000
0000
0300
,  // measure 103
1000
0000
0001
0000
0100
0000
0010
0000
0100
0000
0001
0000
2000
0000
0000
3200
,  // measure 104
0000
0000
0000
0000
0320
0000
0000
0000
0032
0000
0000
0000
2003
0000
0000
3020
,  // measure 105
0000
0000
0000
0000
0000
0000
0000
0000
0030
0000
1000
0000
0001
0010
0000
0200
,  // measure 106
0000
0000
0000
0000
0000
0000
0000
0300
,  // measure 107
1000
0001
1000
0000
0010
0000
0100
0000
0010
0000
1000
0000
0002
0000
0000
1003
,  // measure 108
0100
0010
0000
0000
0002
0000
0000
0000
2003
0000
0000
3010
0000
0000
0100
0000
,  // measure 109
0000
0001
0000
0000
2000
0000
0000
0000
3200
0000
0000
0320
0000
0000
0031
0000
,  // measure 110
0000
1000
0000
0000
0020
0000
0000
0000
0230
0000
0000
0302
0000
0000
1003
0000
,  // measure 111
0100
0000
0010
0001
0010
0200
0000
0000
1300
0000
0000
0010
0000
0000
1001
0000
;

//---------------dance-single - Medium----------------
#NOTES:
     dance-single:
     Ace Of Hearts (2011):
     Medium:
     7:
     0.420,0.000,0.005,0.725,0.241:
0000
0000
0000
0000
,
0000
0000
0000
0000
,
0000
0000
0000
0000
,
0000
0000
0000
0000
,
0000
0000
0000
0000
,
0000
0000
0000
0000
,
0000
0000
0000
0000
,
0000
0000
0000
0000
,
0000
0000
0000
0000
,
0000
0000
0000
0000
,
0002
0000
0000
0000
0023
0000
0000
0000
0230
0000
0000
0000
2300
0000
0000
3002
,
0000
0000
0000
0000
0000
0000
0003
0000
0000
0000
1000
0000
0010
0000
0000
2000
,
0000
0000
0000
3000
,
0001
0010
0001
0010
0100
1000
0002
0000
,
2003
0000
0000
0000
3020
0000
0000
0000
2030
0000
0000
0000
3002
0000
0000
0023
,
0000
0000
0000
0000
0000
0000
0030
0000
0000
0000
0001
0000
1000
0000
0000
0200
,
0000
0000
0000
0300
,
1000
0000
0100
0000
1000
0000
0100
0000
0010
0000
0001
0000
2000
0000
0000
3100
,
0000
0000
0000
0000
0010
0000
0000
0001
0000
0000
1000
0000
0100
0000
0000
0000
,
0000
0000
1000
0000
0001
0000
0000
0000
0100
0000
0000
0010
0000
0000
0000
0000
,
1000
0000
0010
0000
0100
0000
0000
0000
0001
0000
0000
1000
0000
0000
0000
0000
,
0000
0000
0001
0000
1000
0000
0000
0000
0010
0000
0000
1000
0000
0000
0000
0000
,
0004
0000
0000
0003
0400
0000
0300
0000
,
0000
0000
0001
0000
1000
0000
0000
0000
0100
0000
0000
0010
0000
0000
0001
0000
,
2000
0000
0000
0000
3010
0000
0000
0100
0000
0000
0000
0000
0000
0000
0001
0000
,
0200
0000
0000
0000
0320
0000
0000
1030
0000
0000
0002
0000
0000
0000
1003
0000
,
0200
0000
0000
0000
0310
0000
0000
0200
0000
0000
0000
0000
0300
0000
1000
0000
,
0001
0000
0000
0000
2000
0000
0000
0000
3010
0000
0000
0200
0000
0000
0301
0000
,
1000
0000
0000
0000
0001
0000
0000
0000
0010
0000
0000
0200
0000
0000
1300
0000
,
0001
0000
0000
0000
2000
0000
0000
0000
3010
0000
0000
0100
0000
0000
0001
0000
,
1000
0000
0000
0001
0000
0000
0000
0000
1000
0000
0100
0000
0010
0000
0001
0000
,
0010
0000
0000
0000
0002
0000
0000
0000
1003
0000
0000
0200
0000
0000
0310
0000
,
0001
0000
0000
0000
1000
0000
0000
0000
0010
0000
0000
2000
0000
0000
3001
0000
,
0100
0000
0000
0000
0020
0000
0000
0000
1030
0000
0000
0001
0000
0000
1000
0000
,
0100
0000
0000
0010
0000
0000
0000
0000
0001
0000
0010
0000
0100
0000
1000
0000
,
0002
0000
0000
2003
0000
0000
3000
0000
0020
0000
0000
2030
0000
0000
3000
0000
,
0001
0100
0001
0000
4000
0000
3000
0000
,
0020
0000
0000
2030
0000
0000
3000
0000
0002
0000
0000
0013
0000
0000
0000
0000
,
0001
1000
0001
0000
0400
0000
0000
0000
,
0320
0000
0000
2030
0000
0000
3000
0000
0002
0000
0000
0023
0000
0000
0030
0000
,
0001
1000
0001
0000
0400
0000
0300
0000
,
0020
0000
0000
2030
0000
0000
3000
0000
0001
0000
0010
0000
0001
0000
0000
0000
,
1000
0000
0010
0000
1000
0000
0000
0001
0000
0000
0000
0000
0000
0000
0000
0000
,
0010
0000
0000
0001
0000
0000
1000
0000
0100
0000
0000
0000
1000
0000
0000
0000
,
0002
0000
0000
0000
2003
0000
0000
3010
0000
0000
0100
0000
0100
0000
0000
0000
0002
0000
0000
0000
2003
0000
0000
3100
0000
0000
0010
0000
0010
0000
0000
0000
,
0200
0000
0000
0000
2300
0000
0000
3001
0000
0000
0100
0000
0100
0000
0000
0000
0004
0000
0000
0000
0000
0000
0003
0000
4000
0000
0000
0000
0000
0000
3000
0000
,
0000
0000
0001
0000
0200
0000
0000
0000
0301
0000
0000
0001
0000
0000
0001
0000
,
2000
0000
0000
0000
3020
0000
0000
0130
0000
0000
0001
0000
0001
0000
1000
0000
,
0020
0000
0000
0000
1030
0000
0000
0001
0000
0000
0001
0000
0000
0000
1000
0000
,
0200
0000
0000
0000
0310
0000
0000
0002
0000
0000
0000
0000
0003
0000
1000
0000
,
0100
0000
0000
0000
2000
0000
0000
0000
3001
0000
0000
0200
0000
0000
0301
0000
,
1000
0000
0000
0000
0200
0000
0000
0000
1300
0000
0000
0002
0000
0000
1003
0000
,
0010
0000
0000
0000
1000
0000
0000
0000
0010
0000
0000
0100
0000
0000
0001
0000
,
0100
0000
0000
0010
0000
0000
0000
0000
1000
0000
0001
0000
1000
0000
0100
0000
,
0010
0000
0000
0000
0200
0000
0000
0000
1300
0000
0000
0002
0000
0000
1003
0000
,
0010
0000
0000
0000
1000
0000
0000
0000
0001
0000
0000
0200
0000
0000
0301
0000
,
1000
0000
0000
0000
0200
0000
0000
0000
0310
0000
0000
0001
0000
0000
1000
0000
,
0100
0000
1000
0000
0100
0010
0100
1000
,
0002
0000
0000
0203
0000
0000
0300
0000
0020
0000
0000
0230
0000
0000
0300
0000
,
0001
1000
0001
0000
0040
0000
0030
0000
,
0200
0000
0000
2300
0000
0000
3000
0000
0001
0000
0000
0001
0000
0000
0000
0000
,
1000
0010
1000
0000
0004
0000
0000
0000
,
2003
0000
0000
3200
0000
0000
0300
0000
0020
0000
0000
0230
0000
0000
0300
0000
,
1000
0100
1000
0000
0004
0000
0003
0000
,
2000
0000
0000
3020
0000
0000
0030
0000
1000
0000
0001
0000
1000
0000
0000
0000
,
0010
0000
1000
0000
0010
0000
0000
0100
0000
0000
0000
0000
0000
0000
0000
0000
,
0002
0000
0000
2003
0000
0000
3200
0000
0000
0310
0000
0002
0000
0000
0000
0000
0000
0000
2003
0000
3010
0000
0000
0200
,
0000
0000
0300
0000
,
0002
0000
0000
2003
0000
0000
3020
0000
0000
0130
0000
0002
0000
0000
0000
0003
0000
0000
2000
0000
3100
0000
0000
0020
,
0000
0230
0000
0000
0000
0000
0300
0000
0000
0000
0000
0000
,
2000
0000
0000
3002
0000
0000
0023
0000
0000
0130
0000
2000
0000
0000
0000
3000
0000
0000
0002
0000
0103
0000
0000
0020
,
0000
0000
0030
0000
,
2000
0000
0000
3020
0000
0000
2030
0000
0000
3001
0000
0020
0000
0000
0000
0030
0000
0000
2000
0000
3001
0000
0000
0010
,
0000
0000
0001
1000
0001
0200
0000
0301
,
1000
0000
0000
0000
0100
0000
0000
0010
0000
0000
0002
0000
0000
0000
0000
0000
,
0003
0000
1000
0000
0200
0000
0000
0000
1300
0000
0000
0002
0000
0000
0013
0000
,
0100
0000
0010
0000
0001
0000
0000
0000
1000
0000
0000
0020
0000
0000
1030
0000
,
0001
0000
0000
0000
0010
0000
0100
0000
1000
0000
0000
0002
0000
0000
1003
0000
,
0010
0000
0000
1000
0000
0000
0001
0000
1000
0000
0100
0000
0010
0000
0001
0000
,
1000
0000
0000
0000
0020
0000
0000
0000
1030
0000
0000
0002
0000
0000
0003
0000
,
0010
0000
0001
0000
0020
0000
0000
0000
0130
0000
0000
2000
0000
0000
3001
0000
,
0100
0000
0000
0000
0010
0000
0000
0000
1000
0000
0000
0001
0000
0000
1000
0000
,
0010
1000
0001
0000
0010
0100
1000
0001
,
2000
0000
0000
3020
0000
0000
0030
0000
0200
0000
0000
0320
0000
0000
0030
0000
,
1000
0001
0010
0000
0004
0000
0003
0000
,
2000
0000
0000
3200
0000
0000
0300
0000
2000
0000
0000
3001
0000
0000
0000
0000
,
1000
0010
1000
0000
0040
0000
0000
0000
,
0230
0000
0000
0302
0000
0000
0003
0000
2000
0000
0000
3002
0000
0000
0003
0000
,
0010
0001
0010
0000
0400
0000
0300
0000
,
2000
0000
0000
3002
0000
0000
0003
0000
0010
0000
0001
0000
0010
0000
0000
0000
,
0001
0000
1000
0000
0001
0000
0000
0100
0000
0000
0000
0000
0000
0000
0000
0000
,
0020
0000
0000
2030
0000
0000
3010
0000
0200
0000
0000
0302
0000
0000
1003
0000
,
0010
1000
0010
0000
0400
0000
0000
0300
,
0002
0000
0000
0203
0000
0000
0301
0000
2000
0000
0000
3010
0000
0000
0000
0000
,
1000
0001
0010
0001
4000
0000
0000
0000
,
3020
0000
0000
2030
0000
0000
3010
0000
0200
0000
0000
0320
0000
0000
1030
0000
,
0001
1000
0001
0000
0400
0000
0000
0300
,
0002
0000
0000
0203
0000
0000
0301
0000
1000
0000
0010
0000
1000
0000
0000
0000
,
0001
0000
0010
0000
0100
0000
0000
1000
0000
0000
0000
0000
0000
0000
0000
0000
,
0002
0000
0000
0000
0023
0000
0000
0000
0032
0000
0000
0000
2003
0000
0000
3002
,
0000
0000
0000
0000
0000
0000
0000
0000
0003
0000
1000
0000
0010
0000
0000
0200
,
0000
0000
0000
0300
,
0001
1000
0001
0010
0001
0010
0200
0000
,
2300
0000
0000
0000
3002
0000
0000
0000
0203
0000
0000
0000
0320
0000
0000
2030
,
0000
0000
0000
0000
0000
0000
0000
0000
3000
0000
0001
0000
0010
0000
0000
0200
,
0000
0000
0000
0300
,
1000
0001
1000
0001
0100
0001
1000
0000
,
0100
0000
0000
0000
0010
0000
0000
0000
0002
0000
0000
2003
0000
0000
3010
0000
,
0000
1000
0000
0000
0002
0000
0000
0000
0203
0000
0000
0320
0000
0000
1030
0000
,
0000
0001
0000
0000
0020
0000
0000
0000
0230
0000
0000
2300
0000
0000
3001
0000
,
1000
0000
0001
0100
0002
0000
0000
0000
0103
0000
0000
0010
0000
0000
1001
0000
;

//---------------dance-single - Easy----------------
#NOTES:
     dance-single:
     Ace Of Hearts (2011):
     Easy:
     5:
     0.205,0.000,0.005,0.056,0.000:
0000
0000
0000
0000
,
0000
0000
0000
0000
,
0000
0000
0000
0000
,
0000
0000
0000
0000
,
0000
0000
0000
0000
,
0000
0000
0000
0000
,
0000
0000
0000
0000
,
0000
0000
0000
0000
,
0000
0000
0000
0000
,
0000
0000
0000
0000
,
0001
0001
1000
1000
,
2000
0000
3000
0100
,
0200
0000
0000
0300
,
0010
0010
0010
0000
,
0100
0100
0100
0010
,
0020
0000
0030
0001
,
0002
0000
0000
0003
,
1000
1000
2000
0000
,
3000
0000
0000
0000
,
0000
0010
0010
0000
,
1000
1000
1000
0000
,
0000
0001
0001
0000
,
0100
0000
0400
0000
,
0300
0000
0001
0000
,
1000
1000
1000
0000
,
0001
0001
0001
0000
,
0010
0010
0010
0000
,
0001
0000
1000
0000
,
0010
0010
0010
0000
,
1000
0001
0001
0000
,
0100
0000
0100
0000
0010
0010
0010
0010
,
0010
0000
1000
0000
,
0001
0001
0001
0000
,
0010
0010
0100
0000
,
1000
0000
0000
0000
0001
0001
0001
0001
,
0001
0001
0010
0010
,
0100
0100
0100
0000
,
1000
1000
1000
0000
,
0001
0001
0004
0000
,
0003
0000
1000
0000
,
0010
0010
0010
0000
,
0100
0100
0100
0000
,
0001
0001
0001
0000
,
0100
0100
0100
0000
,
0010
0010
1000
1000
,
0001
0000
0001
0000
0400
0000
0000
0300
,
0000
0001
0001
0000
,
1000
1000
1000
0000
,
0100
0100
0100
0000
,
0010
0010
0010
0000
,
0001
0001
1000
0000
,
0010
0010
0010
0000
,
0100
0100
0100
0000
,
0001
0000
0000
0000
1000
1000
1000
1000
,
1000
0000
0001
0000
,
0010
0010
0010
0000
,
0100
0100
0100
0000
,
1000
0000
1000
0000
0001
0001
0001
0001
,
0001
0001
0001
0000
,
0100
0100
0100
0000
,
0010
0010
0010
0000
,
1000
1000
4000
0000
,
3000
0000
0001
0000
,
0010
0010
0010
0000
,
0100
0100
0100
0000
,
1000
1000
1000
0000
,
0001
0001
0001
0100
,
0200
0000
0300
0000
,
0010
0010
0010
1000
,
2000
0000
3000
0000
,
0001
0001
0001
0100
,
0200
0000
0300
0000
,
0010
0010
0010
1000
,
1000
0001
0001
0000
,
0010
0010
0010
0000
,
0000
0001
1000
1000
,
0010
0010
0010
0000
,
0100
0100
0100
0000
,
0001
0000
0001
0000
0100
0100
0100
0100
,
0100
0000
0010
0000
,
1000
1000
1000
0000
,
0001
0001
0001
0000
,
0010
0000
0010
0000
0100
0100
0100
0100
,
0100
0100
0100
0000
,
1000
1000
1000
0000
,
0001
0001
0001
0000
,
0010
0010
0040
0000
,
0030
0000
0100
0000
,
1000
1000
1000
0000
,
0001
0001
0001
0000
,
0100
0100
0100
0000
,
0010
0010
0010
0000
,
1000
1000
4000
3000
,
0001
0001
0001
0000
,
0010
0010
0040
0000
,
0030
0000
0001
0000
,
1000
1000
4000
3000
,
0010
0010
0010
0000
,
0100
0100
0100
0000
,
0001
0001
1000
1000
,
2000
0000
3000
0100
,
0200
0000
0000
0300
,
0010
0010
0001
0001
,
1000
1000
0010
0010
,
0020
0000
0030
0100
,
0200
0000
0000
0300
,
0001
0001
1000
1000
,
0100
0010
0001
0000
,
0000
1000
0100
0010
,
0000
0001
1000
0010
,
1000
1000
1000
0000
1000
0000
0000
1001
;

//---------------dance-single - Novice----------------
#NOTES:
     dance-single:
     Ace Of Hearts (2011):
     Beginner:
     2:
     0.112,0.000,0.005,0.065,0.000:
0000
0000
0000
0000
,
0000
0000
0000
0000
,
0000
0000
0000
0000
,
0000
0000
0000
0000
,
0000
0000
0000
0000
,
0000
0000
0000
0000
,
0000
0000
0000
0000
,
0000
0000
0000
0000
,
0000
0000
0000
0000
,
0000
0000
0000
0000
,
1000
0000
1000
0000
,
2000
0000
3000
0000
,
0002
0000
0000
0000
,
0003
0000
0000
0000
,
0010
0000
0010
0000
,
0020
0000
0030
0000
,
0002
0000
0000
0000
,
0003
0000
0000
0000
,
0000
0000
0000
0000
,
1000
0000
1000
0000
,
1000
0000
0000
0000
,
0010
0000
0010
0000
,
0010
0000
0000
0000
,
0100
0000
0100
0000
,
0100
0000
0000
0000
,
0001
0000
0001
0000
,
0001
0000
0000
0000
,
1000
0000
1000
0000
,
0001
0000
0001
0000
,
0100
0000
0100
0000
,
0100
0000
0040
0000
,
0030
0000
1000
0000
,
1000
0000
1000
0000
,
0001
0000
0001
0000
,
0001
0000
4000
0000
,
3000
0000
1000
0000
,
1000
0000
0000
0000
,
0010
0000
0010
0000
,
0010
0000
0000
0000
,
0100
0000
0100
0000
,
0100
0000
0000
0000
,
0001
0000
0001
0000
,
0001
0000
0000
0000
,
0000
0000
0000
0000
,
2000
3000
0020
0030
,
2000
0000
3000
0000
0004
0000
0000
0003
,
0000
0000
1000
0000
,
1000
0000
0000
0000
,
0010
0000
0010
0000
,
0010
0000
0000
0000
,
1000
0000
1000
0000
,
0001
0000
0001
0000
,
0100
0000
0100
0000
,
0100
0000
0040
0000
,
0030
0000
1000
0000
,
1000
0000
1000
0000
,
0001
0000
0001
0000
,
0100
0000
0400
0000
,
0300
0000
0100
0000
,
0100
0000
0000
0000
,
0001
0000
0001
0000
,
0001
0000
0000
0000
,
1000
0000
1000
0000
,
1000
0000
0000
0000
,
0100
0000
0100
0000
,
0100
0000
0000
0000
,
0010
0000
0010
0000
,
0002
0000
0003
0000
,
1000
0000
1000
0000
,
0200
0000
0300
0000
,
0010
0000
0010
0000
,
0002
0000
0003
0000
,
1000
0000
1000
0000
,
1000
0000
0000
0000
,
0010
0000
0000
0000
,
1000
0000
1000
0000
,
0001
0000
0001
0000
,
0100
0000
0100
0000
,
0100
0000
0004
0000
,
0003
0000
1000
0000
,
1000
0000
1000
0000
,
0010
0000
0010
0000
,
1000
0000
4000
0000
,
3000
0000
1000
0000
,
1000
0000
0000
0000
,
0001
0000
0001
0000
,
0001
0000
0000
0000
,
0010
0000
0010
0000
,
0010
0000
0000
0000
,
0100
0000
0100
0000
,
0100
0000
0000
0000
,
1000
0000
1000
0000
,
0001
0000
0001
0000
,
0010
0000
0010
0000
,
0010
0000
0040
0000
,
0030
0000
0001
0000
,
0001
0000
0001
0000
,
1000
0000
1000
0000
,
1000
0000
0000
0000
,
0010
0000
0010
0000
,
0020
0000
0030
0000
,
2000
0000
0000
0000
,
3000
0000
0000
0000
,
0001
0000
0001
0000
,
0002
0000
0003
0000
,
0200
0000
0000
0000
,
0300
0000
0000
0000
,
0010
0010
0010
0000
,
0000
1000
1000
0000
,
0000
0001
0001
0000
,
0100
0000
0100
0000
0100
0000
0000
1001
;
