#TITLE:If Heaven Were to Fall;
#SUBTITLE:(Nightcore Mix);
#ARTIST:E-Type;
#TITLETRANSLIT:;
#SUBTITLETRANSLIT:;
#ARTISTTRANSLIT:;
#GENRE:;
#CREDIT:Ace Of Hearts.png;
#BANNER:If Heaven Were to Fall - bn.png;
#BACKGROUND:If Heaven Were to Fall - bg.png;
#LYRICSPATH:;
#CDTITLE:Ace Of Hearts.png;
#MUSIC:If Heaven Were to Fall (Nightcore Mix).ogg;
#OFFSET:2.760;
#SAMPLESTART:52.600;
#SAMPLELENGTH:12.000;
#SELECTABLE:YES;
#BPMS:0.000=78.775,20.000=157.550,53.000=78.775,54.000=157.550,88.000=315.100,92.000=157.550,106.000=315.100,110.000=157.550,220.000=78.775,221.000=157.550,255.000=315.100,259.000=157.550,273.000=315.100,277.000=157.550,381.000=78.775,399.000=157.550;
#DISPLAYBPM:78.775:157.550;
#STOPS:20.000=1.142
,287.000=0.762
;
#BGCHANGES:;
#FGCHANGES:;
#KEYSOUNDS:;

//---------------dance-single - Hard----------------
#NOTES:
     dance-single:
     Ace Of Hearts (2011):
     Hard:
     9:
     0.581,0.392,0.155,0.845,0.039: // measure 1
0000
0000
0000
0000
,  // measure 2
0000
0000
0000
0000
,  // measure 3
0000
0000
0000
0000
,  // measure 4
2000
0000
3001
0020
0000
0000
0031
2000
0000
0000
3100
0020
0000
0000
0230
0000
,  // measure 5
2300
0000
0000
3002
0000
0000
0203
0000
0320
0000
1030
0001
0200
0000
0301
0000
,  // measure 6
2002
3003
0000
0000
0000
0000
0000
0000
1000
0000
0000
0000
1000
0000
0000
0000
0100
0000
0000
0000
0020
0000
0000
0000
0000
0000
0000
0000
0130
0000
0000
0000
,  // measure 7
1000
0002
0000
0000
0103
0020
0000
1030
,  // measure 8
0002
0000
0023
0000
0130
2000
0000
3001
,  // measure 9
0100
0010
2000
0000
3001
0010
0002
0000
,  // measure 10
0203
0000
0301
0001
1000
0200
0000
0310
,  // measure 11
0001
2000
0000
0000
3100
0020
0000
0130
,  // measure 12
1000
0001
0020
0000
0031
2000
0000
3010
,  // measure 13
0100
0100
0002
0000
1003
0010
0200
0000
,  // measure 14
0301
0000
40M0
000M
3M00
0001
1000
0010
,  // measure 15
0200
0000
0301
1000
0100
0001
0100
1000
,  // measure 16
0002
0000
0103
0010
1000
0100
0010
0001
,  // measure 17
1000
0010
0100
0010
0001
0010
0100
0010
,  // measure 18
1000
00M0
0M00
0002
,  // measure 19
0023
0000
0130
1000
0001
0100
1000
0100
,  // measure 20
0002
0000
1003
0100
0010
0001
1000
0100
,  // measure 21
0010
0000
0001
0000
0010
0100
0010
0000
0001
0000
1000
0000
0100
0000
1000
0000
,  // measure 22
0001
0M00
00M0
2000
,  // measure 23
0020
0000
0M00
0000
,  // measure 24
300M
0000
0130
0001
2000
0000
3010
0400
,  // measure 25
0000
0000
0300
0001
2000
0000
3100
0000
,  // measure 26
0020
0031
4000
000M
,  // measure 27
00M0
3002
0020
0000
,  // measure 28
0M00
0000
0000
0000
M003
0000
0130
0010
,  // measure 29
0002
0000
1003
0400
0000
0300
0000
1000
,  // measure 30
0002
0013
0100
1000
,  // measure 31
4040
0000
0000
3030
,  // measure 32
0210
0000
0300
0001
1000
0100
0020
0000
,  // measure 33
0130
1000
0001
0200
0000
0301
1000
0020
,  // measure 34
0000
0130
0001
2000
0000
3001
0010
0200
,  // measure 35
0000
0310
0002
0000
1003
0010
0100
0102
,  // measure 36
0000
1003
1000
0001
0100
1000
0100
0000
,  // measure 37
0020
1030
0001
0020
0000
0031
1000
0400
,  // measure 38
0000
0310
0001
0000
2000
3001
0010
0000
,  // measure 39
0220
0030
2000
3300
,  // measure 40
1002
0000
0000
1003
0010
0100
0001
1000
,  // measure 41
1020
0000
0130
0002
0000
0013
0100
2000
,  // measure 42
0000
3010
0100
0002
0000
1003
0010
0200
,  // measure 43
0000
0301
1000
0000
0100
0010
0001
4000
,  // measure 44
0000
3010
0100
1000
0100
0001
0100
0000
,  // measure 45
0020
1030
0001
2000
0000
3001
0010
0400
,  // measure 46
0000
1300
0001
0000
0100
0001
1000
0000
,  // measure 47
2002
0003
0020
3000
,  // measure 48
1030
1000
0100
0020
0000
0130
1000
0002
,  // measure 49
0000
0103
0010
2000
0000
0000
3002
0000
,  // measure 50
0013
0100
0010
0002
0000
1003
0020
0000
,  // measure 51
0130
0100
0001
1000
0200
0000
0320
0000
,  // measure 52
0130
0100
1000
0002
0000
0000
0103
0020
,  // measure 53
0000
1030
0001
0200
0000
0310
1000
0001
,  // measure 54
0020
0000
0130
2000
0000
3001
0100
0010
,  // measure 55
2000
0000
3001
0010
0200
0000
1300
0000
,  // measure 56
00M4
M000
0M03
1000
0100
0010
0200
0000
,  // measure 57
1300
0001
0100
1000
0100
0001
2000
0000
,  // measure 58
3100
0010
0001
0100
0010
0100
1000
0100
,  // measure 59
0010
0100
1000
0100
0010
1000
0001
0000
,  // measure 60
M000
00M0
0100
0020
,  // measure 61
1030
0001
0010
1000
0010
0001
2000
0000
,  // measure 62
3010
0100
0010
0001
0010
0100
0001
1000
,  // measure 63
0100
0010
0100
0000
1000
0000
0001
0000
0100
0000
0010
0000
0100
0000
0000
0000
,  // measure 64
00M0
M000
0002
2000
,  // measure 65
0000
00M0
0000
0M03
,  // measure 66
3010
0100
0002
0000
1003
0040
0000
0000
,  // measure 67
0030
1000
0002
0000
0013
0000
0001
0000
,  // measure 68
1000
1400
0000
0000
,  // measure 69
0320
0002
0000
0000
,  // measure 70
0000
0000
0030
0000
1003
0010
0200
0000
,  // measure 71
0301
4000
0000
3000
0000
0001
0020
0000
,  // measure 72
0230
1300
0001
0022
,  // measure 73
0000
0033
0210
0000
0000
1300
0001
0100
,  // measure 74
0010
1000
1002
0000
0013
0200
0000
1300
,  // measure 75
0001
0201
0000
0310
1000
0002
0000
0013
,  // measure 76
0100
2000
0000
3001
0100
0000
0010
0100
,  // measure 77
0001
2001
0000
3010
0010
1000
0100
0001
,  // measure 78
0100
0000
0020
0031
1000
0002
0000
1003
,  // measure 79
0010
0400
0000
0301
1000
0000
0100
0010
,  // measure 80
0001
2002
0003
0200
,  // measure 81
3000
0300
0120
0000
0000
0031
1000
0010
,  // measure 82
0100
0001
2001
0000
3100
0020
0000
0130
,  // measure 83
1000
0002
0000
0103
0010
2000
0000
3001
,  // measure 84
0100
0020
0000
0130
0001
0000
1000
0100
,  // measure 85
0010
0012
0000
1003
1000
0010
0100
1000
,  // measure 86
0100
0000
0020
1030
0001
0020
0000
0031
,  // measure 87
1000
0400
0000
0310
0001
0000
1000
0010
,  // measure 88
0100
0000
0202
0000
0300
0000
1003
0100
,  // measure 89
1000
1000
0001
0001
0100
0020
0000
1030
,  // measure 90
0001
0200
0000
0000
0310
2000
0000
3001
,  // measure 91
0010
0001
2000
0000
3010
0200
0000
0301
,  // measure 92
1000
1000
0200
0000
0310
0100
2000
0000
,  // measure 93
3002
0000
0103
0100
0010
2000
0000
3001
,  // measure 94
0010
0200
0000
0000
1300
0002
0000
0103
,  // measure 95
0010
1000
0002
0000
0013
0200
0000
1300
,  // measure 96
0001
0000
0100
0000
0002
0000
0000
0000
M003
0000
0000
0000
000M
0000
0000
0010
,  // measure 97
0200
0000
1300
0002
0000
0000
1003
0200
0000
0000
1300
0004
0000
0000
0000
0000
,  // measure 98
M003
0000
0000
0000
00M0
0000
0000
0000
0M00
0000
0000
0000
000M
0000
0000
1000
,  // measure 99
0100
0010
0100
0000
0020
0000
0031
2000
0000
0000
3001
0400
0000
0000
0000
0000
,  // measure 100
0300
000M
0M00
1020
,  // measure 101
0130
0001
1000
0100
0010
0001
2001
0000
,  // measure 102
3010
0200
0000
0301
1000
0200
0000
0310
,  // measure 103
0100
2000
0000
3001
0100
0020
0000
0130
,  // measure 104
0001
1000
0100
0010
0001
2001
0000
3010
,  // measure 105
0010
0100
0001
1000
0100
0000
0120
0031
,  // measure 106
1000
0020
0000
1030
0001
0400
0000
0310
,  // measure 107
1000
0000
0001
1000
0010
0000
0220
0000
,  // measure 108
0030
0002
0303
2001
,  // measure 109
0000
3100
0010
0001
0100
0010
2010
0000
,  // measure 110
3001
0020
0000
0130
1000
0002
0000
0103
,  // measure 111
0010
2000
0000
3001
0100
0020
0000
1030
,  // measure 112
0001
0010
0100
1000
0001
0201
0000
0310
,  // measure 113
0010
1000
0100
0001
0100
0000
0120
0031
,  // measure 114
1000
0002
0000
1003
0010
0400
0000
0301
,  // measure 115
1000
0000
0001
0010
0100
0000
2200
0000
,  // measure 116
0300
0002
3003
1201
,  // measure 117
0000
0000
0000
0000
,  // measure 118
0300
0000
0000
0000
;

//---------------dance-single - Expert----------------
#NOTES:
     dance-single:
     Ace Of Hearts (2011):
     Challenge:
     12:
     1.000,0.392,0.237,0.216,1.000:
0000
0000
0000
0000
,
0000
0000
0000
0000
,
0000
0000
0000
0000
,
0002
0000
0103
0020
0000
0000
1030
0002
0000
0000
1003
0020
0000
0000
0230
0000
,
0302
0000
0000
2003
0000
0000
3200
0000
0320
0000
0130
1000
0002
0000
0103
0000
,
0420
0330
0000
0000
0010
0000
0100
0001
1000
0000
1000
0100
0010
0100
0010
0100
,
1000
0000
1000
0010
0100
0000
0100
0001
1000
0000
1000
0010
0100
0010
0100
0001
,
1000
0000
1000
0100
0010
0000
0010
0001
1000
0000
1000
0001
1000
0001
0010
0100
,
1000
0000
1000
0010
0100
0000
0100
0001
1000
0000
1000
0100
0010
0001
0010
0100
,
1000
0000
1000
0100
0010
0000
0010
0001
1000
0000
1000
0010
0100
0010
0100
0001
,
1000
0000
1000
0010
0100
0000
0100
0001
1000
0000
1000
0010
0100
0001
0100
0010
,
1000
0000
1000
0001
0010
0000
0010
0100
1000
0000
1000
0001
0100
0010
0100
0010
,
1000
0000
1000
0001
0010
0000
0010
0100
1000
0000
1000
0001
0100
0001
0100
0010
,
1000
0000
1000
0100
0010
0001
1000
0010
0100
0000
0001
0000
1000
0000
0100
0000
,
0020
0031
1001
1000
0010
0100
0001
1000
,
0200
0310
0011
0001
1000
0010
0100
0010
,
1010
1000
1001
0001
0011
0010
0110
0100
,
1100
0000
0000
MMMM
0000
0000
1000
0000
,
1002
0000
0000
0003
0101
0000
0100
0000
0110
0000
0010
0000
1010
0000
1000
0000
,
1002
0000
0000
0003
0011
0000
0010
0000
0110
0000
0100
0000
1100
0000
1000
0000
,
1001
0000
0001
0000
0100
0010
1000
0000
1001
0000
0001
0000
0011
0000
0010
0000
,
0110
0000
0000
MMMM
0000
0000
M200
0000
,
002M
M000
000M
M000
,
030M
0000
0000
0000
0031
0000
1000
0000
0001
0010
0001
0010
0100
1000
0100
1000
,
0001
1000
0001
1000
0001
0100
0001
0100
0010
0100
0010
0100
0010
1000
0010
1000
,
0001
0010
0001
0010
0100
1000
0100
1000
0001
0100
0001
0100
0010
0100
0010
0100
,
0001
1000
0001
1000
0M02
0000
0000
0000
M020
0000
0000
0000
0M00
0000
0000
0000
,
M000
0000
0M00
0000
M003
0000
0130
1000
,
0001
0100
0001
0100
0010
1000
0010
1000
0001
1000
0001
1000
0010
1000
0010
1000
,
0001
0100
0001
0100
0001
1000
0001
1000
0100
1000
0100
1000
0001
0010
0001
0010
,
0400
4000
0000
0000
0000
0000
0000
0000
0000
0000
0000
0000
0000
0000
3300
0000
,
1002
0000
0103
0010
1000
0000
0001
0000
0010
0100
1000
0100
0010
0001
1000
0001
,
1000
0010
0100
0010
1000
0001
0010
0001
1000
0010
0100
0010
1000
0001
0010
0100
,
1000
0100
0010
0001
1000
0001
0100
0001
1000
0010
1000
0010
0100
0001
0100
0001
,
1000
0001
0010
0001
0010
0100
1000
0100
1000
0001
0100
0001
0100
0010
0100
0001
,
1000
0000
0001
0010
0100
0000
0010
0000
0001
1000
0001
0100
0001
0100
0010
1000
,
0010
0100
0010
1000
0001
0010
0001
0010
0100
1000
0100
0010
0001
1000
0001
0100
,
0001
1000
0100
0010
0001
0010
0100
1000
0001
1000
0100
1000
0100
0010
0001
0010
,
0001
1000
0010
0100
0010
1000
0001
0010
0100
0010
0001
1000
0001
1000
0010
1000
,
0001
0000
0010
0100
1000
0000
0001
0000
0100
0010
0100
0001
1000
0001
1000
0100
,
0010
0100
1000
0001
0100
0010
0100
0001
1000
0100
0010
0100
1000
0001
0100
0010
,
0100
0001
1000
0100
1000
0100
0010
0001
0010
0001
1000
0010
1000
0010
0100
0001
,
0100
0001
1000
0100
0010
0001
0010
0100
1000
0001
0100
0001
0100
0010
0100
0010
,
1000
0000
0001
0100
0010
0000
0100
0000
0001
1000
0100
1000
0100
0010
0001
0010
,
0100
1000
0100
0010
0001
1000
0001
0100
0010
0100
0001
1000
0100
0010
0100
1000
,
0001
0100
0010
0100
0001
1000
0001
0010
0100
1000
0100
0010
0001
1000
0010
1000
,
0001
0010
0100
1000
0001
0100
0010
1000
0001
0010
0100
0010
0001
1000
0001
0100
,
0001
0000
1000
0100
0010
0000
0010
0001
1000
0010
1000
0010
0100
0000
0100
0001
,
1000
0000
1000
0100
0010
0000
0010
0100
0010
0001
1000
0001
0100
0000
0100
0010
,
1000
0000
1000
0001
0010
0000
0010
0001
1000
0010
0100
0010
1000
0000
1000
0010
,
0100
0000
0100
0001
1000
0000
1000
0001
0010
0001
0010
0100
1000
0000
1000
0010
,
0100
0000
0100
0001
1000
0000
1000
0001
0010
0001
0010
0100
1000
0000
1000
0001
,
0100
0000
0100
0010
1000
0000
1000
0100
0010
0001
0010
0100
1000
0000
1000
0001
,
0010
0000
0010
0100
0010
0000
0010
0001
1000
0001
0100
0010
1000
0000
1000
0010
,
0100
0000
0100
0001
1000
0000
1000
0010
0100
0010
0100
0001
1000
0000
1000
0100
,
0010
0100
1000
0001
0100
0000
0010
0000
1000
0000
0001
0000
0020
0000
0000
0030
,
0110
0000
0100
0000
1000
0000
0001
0000
0100
0000
0010
0000
0200
0000
0000
0300
,
0101
0001
1001
1000
1100
0100
0110
0010
,
0011
0001
1001
1000
1010
0010
0110
0000
,
0000
0000
MMMM
0000
0000
0000
0000
0000
0010
0000
0000
0000
2010
0000
0000
3000
,
1001
0000
0001
0000
0101
0000
0100
0000
0110
0000
0010
0000
2010
0000
0000
3000
,
1001
0001
0011
0010
0110
0100
1100
1000
,
0001
0100
0010
0000
1010
0000
1000
0000
1001
0000
0001
0000
0101
0000
0000
0000
,
0000
MMMM
0000
0000
M200
0000
002M
0000
,
M000
000M
M000
030M
,
1M30
0000
0001
0000
0010
0001
1000
0001
0010
0100
1000
0001
1000
0001
0100
0010
,
0100
0001
1000
0100
0010
0100
1000
0001
0100
0010
0100
0001
1000
0001
0010
0100
,
1000
0001
0010
0001
1000
0001
0100
0010
0100
0001
1000
0001
0010
0100
0010
0001
,
2M00
002M
0M00
000M
,
0M00
0000
0000
0000
300M
0000
0000
0000
M130
0000
0001
0000
1000
0010
1000
0001
,
1000
0001
0010
0100
1000
0100
0010
0001
1000
0001
0100
0010
0100
0001
1000
0001
,
0010
0100
1000
0100
0010
0001
1000
0001
0100
0001
1000
0001
0020
0000
0000
0000
,
0000
0000
0030
0000
0110
0000
0100
1000
0001
0000
0100
0000
0010
0100
0001
1000
,
0100
0010
0100
1000
0001
0100
0001
0100
0001
1000
0010
1000
0010
1000
0001
0010
,
0001
0010
0100
1000
0100
1000
0001
0100
0010
0100
0001
1000
0100
0010
0100
1000
,
0001
0100
0001
0100
0010
1000
0010
1000
0001
0010
0001
1000
0001
0100
0001
0100
,
0010
1000
0001
0010
0100
0000
0010
0001
1000
0000
0010
0000
0100
0010
0100
0010
,
1000
0010
1000
0010
0100
0010
0100
0001
0100
0001
0100
0010
1000
0010
0100
0001
,
0100
0010
1000
0010
0100
0001
1000
0100
0010
0001
0010
0100
1000
0001
0100
0001
,
0100
0010
0100
0001
0100
0010
0100
0010
1000
0010
0100
0001
1000
0001
0010
0001
,
1000
0000
0010
0100
0001
0000
0100
0000
0010
1000
0010
0100
0001
1000
0001
0010
,
0100
1000
0100
0010
0001
0010
0100
1000
0001
0100
0001
1000
0010
1000
0001
0010
,
0100
1000
0100
0010
0001
1000
0010
1000
0001
1000
0001
0010
0001
0010
0100
1000
,
0100
1000
0001
0100
0010
1000
0010
0100
0001
1000
0100
0010
0001
1000
0001
0100
,
0001
1000
0100
0010
0100
0000
1000
0001
0100
0000
0010
0000
0100
0001
0100
0001
,
1000
0100
0010
0100
1000
0001
0100
0010
0100
0001
1000
0001
1000
0010
1000
0010
,
1000
0001
0010
0001
0010
0100
1000
0100
1000
0001
0100
0001
0100
0010
1000
0010
,
0100
0001
0100
0001
1000
0001
0010
0001
0010
0100
1000
0100
1000
0001
0100
0001
,
1000
0001
0010
0100
1000
0000
1000
0010
0100
0000
0100
0001
0100
0010
1000
0001
,
0010
0000
0010
0100
1000
0000
1000
0001
0100
0000
0100
0010
1000
0001
0010
0100
,
1000
0000
1000
0001
0100
0000
0100
0010
1000
0000
1000
0001
0010
0100
0010
0001
,
1000
0000
1000
0010
0100
0000
0100
0001
1000
0000
1000
0100
0010
0001
0010
0100
,
1000
0000
1000
0001
0100
0000
0100
0010
0100
0000
0100
0001
1000
0100
0010
0100
,
0010
0000
0010
0001
1000
0000
1000
0010
0100
0000
0100
0010
1000
0001
0010
0100
,
0010
0000
0010
0001
1000
0000
1000
0100
0010
0000
0010
0001
0010
0100
1000
0001
,
0100
0000
0010
0000
200M
0000
3010
0100
00M2
0000
1003
0000
0M00
0000
0000
0010
,
0200
0000
0301
2000
0000
0000
3100
0020
0000
0000
0130
4000
0000
0000
0000
0000
,
30M0
0000
0000
0000
M000
0000
0000
0000
000M
0000
0000
0000
0M00
0000
0000
0001
,
0100
0001
1000
0000
0020
0000
1030
0002
0000
0000
1003
0400
0000
0000
0000
0000
,
0300
0000
0000
0000
0000
0000
0000
0000
0000
0000
0000
0000
0010
0000
0000
0000
0010
0000
0000
0000
0010
0000
0000
0000
0200
0000
0000
0000
0000
0000
0000
0000
0300
0000
0000
0000
1100
0000
0000
0000
0000
0000
1000
0000
0000
0001
0000
0000
,
0100
0000
0010
0000
1000
0010
0100
0010
1000
0001
0010
0001
0010
0100
1000
0100
,
1000
0001
0100
0001
0100
0010
1000
0010
0100
0001
0100
0010
1000
0001
0010
0100
,
1000
0100
0010
0001
1000
0001
0100
0010
0100
0001
1000
0100
0010
0100
1000
0001
,
0100
0010
0100
0001
1000
0001
0010
0001
0010
0100
1000
0100
1000
0000
0001
0100
,
0010
0000
0100
0000
0001
1000
0001
1000
0100
1000
0100
0010
0001
0010
0100
1000
,
0001
0100
0001
0100
0010
1000
0010
0100
0010
1000
0001
1000
0001
0010
0100
1000
,
0100
0010
0001
1000
0001
0100
0010
0100
0001
1000
0001
0010
0100
0010
0001
1000
,
0001
0010
0100
0010
0001
1000
0100
0010
0100
1000
0001
0100
0010
0000
1000
0010
,
0100
0000
0001
0000
1000
0100
1000
0100
0010
0001
0010
0001
1000
0010
1000
0010
,
0100
0001
0100
0001
1000
0001
0010
0001
0010
0100
1000
0100
1000
0001
0100
0001
,
1000
0100
0010
0001
0010
0100
1000
0001
0100
0001
0100
0010
1000
0010
0100
0001
,
1000
0100
1000
0001
0100
0001
1000
0010
1000
0001
0010
0001
1000
0000
0010
0100
,
0001
0000
1000
0000
0100
0010
0100
1000
0001
1000
0001
0100
0001
0100
0010
1000
,
0010
0100
0001
1000
0001
0010
0100
1000
0100
0010
0001
1000
0001
0100
0010
0100
,
0001
1000
0100
0010
0100
1000
0001
0100
0001
1000
0100
0010
0002
0000
0000
0000
,
0000
0000
0000
0003
2002
0000
0000
0000
0000
0000
3003
0000
1221
0000
0000
0000
,
0000
0000
0000
0000
,
0330
0000
0000
0000
;

//---------------dance-single - Medium----------------
#NOTES:
     dance-single:
     Ace Of Hearts (2011):
     Medium:
     7:
     0.452,0.000,0.015,0.933,0.021: // measure 1
0000
0000
0000
0000
,  // measure 2
0000
0000
0000
0000
,  // measure 3
0000
0000
0000
0000
,  // measure 4
0000
0000
0000
0000
,  // measure 5
0000
0000
0000
0000
,  // measure 6
2002
3003
0000
0000
0000
0000
0000
0000
0002
0000
0000
0000
0000
0000
0000
0000
1003
0000
0000
0000
0200
0000
0000
0000
0000
0000
0000
0000
0000
0000
0000
0000
,  // measure 7
1300
0002
0000
0000
1003
0020
0000
0000
,  // measure 8
2030
0000
3002
0000
0000
0203
0000
0000
,  // measure 9
0302
0000
2003
0000
3010
1000
0020
0000
,  // measure 10
0230
0000
0302
0000
1003
0200
0000
0000
,  // measure 11
0310
0002
0000
0000
1003
0020
0000
0000
,  // measure 12
0230
0000
0302
0000
0000
2003
0000
0000
,  // measure 13
3020
0000
2030
0000
3001
0010
0002
0000
,  // measure 14
1003
0000
0000
0000
0000
0001
0010
0001
,  // measure 15
2000
0000
3010
0000
1000
0001
1000
0010
,  // measure 16
2000
0000
3001
0000
0010
0001
0010
0001
,  // measure 17
1000
0000
0010
1000
0010
0100
0010
1000
,  // measure 18
0001
0000
0000
1000
,  // measure 19
0002
0000
0013
0000
0001
1000
0001
1000
,  // measure 20
0020
0000
1030
0000
0001
0100
0001
1000
,  // measure 21
0010
0000
1000
0001
1000
0001
0010
0100
,  // measure 22
1000
0000
0000
0002
,  // measure 23
2000
0000
0000
0000
,  // measure 24
0003
0000
3010
1000
0002
0000
1003
0400
,  // measure 25
0000
0000
0300
1000
0001
0000
0100
0000
,  // measure 26
0001
1000
0040
0000
,  // measure 27
0030
2000
0002
0000
,  // measure 28
0000
0000
0000
0000
3000
0000
1003
0100
,  // measure 29
2000
0000
3001
0400
0000
0000
0300
0001
,  // measure 30
2000
3010
0100
0001
,  // measure 31
2000
0000
0000
0000
,  // measure 32
3000
0000
0000
0001
0200
0000
0310
0000
,  // measure 33
2000
0000
3001
0020
0000
0000
0130
2000
,  // measure 34
0000
0000
3001
0200
0000
0000
0301
2000
,  // measure 35
0000
0000
3010
0000
0200
0000
0301
2000
,  // measure 36
0000
3000
0000
0001
0100
0001
0100
0000
,  // measure 37
0020
0000
0130
0002
0000
0000
1003
0200
,  // measure 38
0000
0310
0002
1003
,  // measure 39
0020
0000
0200
0000
,  // measure 40
0330
0000
0000
0010
2000
0000
3001
0000
,  // measure 41
0020
0000
0130
2000
0000
0000
3001
0020
,  // measure 42
0000
0000
0130
2000
0000
0000
3001
0200
,  // measure 43
0000
0000
0310
0000
2000
0000
3001
0200
,  // measure 44
0000
0300
0000
0001
0100
0001
0100
0000
,  // measure 45
0020
0000
1030
0002
0000
0000
1003
0200
,  // measure 46
0000
1300
0001
0100
,  // measure 47
0002
0000
2000
0003
,  // measure 48
3020
0000
0130
0002
0000
0000
1003
0200
,  // measure 49
0000
0000
1300
0002
0000
0000
0203
0000
,  // measure 50
0320
0000
0000
0230
0000
0000
0302
0000
,  // measure 51
2003
0000
3001
0010
0002
0000
2003
0000
,  // measure 52
3200
0000
0310
0002
0000
0000
1003
0020
,  // measure 53
0000
0000
0130
0002
0000
0000
2003
0000
,  // measure 54
3020
0000
0000
0230
0000
0000
0302
0000
,  // measure 55
2003
0000
3010
1000
0020
0000
0130
0000
,  // measure 56
0000
0000
0000
0001
0100
0001
2000
0000
,  // measure 57
3001
0000
0010
0001
0010
0100
2000
0000
,  // measure 58
3001
0000
1000
0010
1000
0010
0100
0000
,  // measure 59
0001
0000
1000
0100
0010
0100
1000
0000
,  // measure 60
0000
0000
0001
0200
,  // measure 61
0310
0000
1000
0010
1000
0010
0200
0000
,  // measure 62
0301
0000
1000
0001
1000
0000
0010
1000
,  // measure 63
0010
0000
1000
0001
0010
0001
1000
0000
,  // measure 64
0000
0000
0002
0020
,  // measure 65
0000
0000
0000
0003
,  // measure 66
0130
1000
0002
0000
1003
0400
0000
0000
,  // measure 67
0300
1000
0002
0000
0103
0000
0010
0000
,  // measure 68
1000
0004
0000
0003
,  // measure 69
2000
0020
0000
0000
,  // measure 70
0000
0000
3000
0000
0130
0001
2000
0000
,  // measure 71
3001
0400
0000
0000
0300
0010
2000
0000
,  // measure 72
3001
0010
0100
2000
,  // measure 73
0000
0000
3000
0000
0000
0001
0020
0000
,  // measure 74
0130
0000
2000
0000
3001
0200
0000
0000
,  // measure 75
0301
2000
0000
0000
3001
0020
0000
0000
,  // measure 76
0130
2000
0000
0000
3010
0000
0200
0000
,  // measure 77
0301
2000
0000
3000
0000
0001
0100
0001
,  // measure 78
0100
0000
0020
0000
1030
0002
0000
0000
,  // measure 79
0013
0200
0000
0000
1300
0000
0001
0000
,  // measure 80
0100
0020
0000
2030
,  // measure 81
0000
0000
3000
0000
0000
0001
0020
0000
,  // measure 82
0031
0000
2000
0000
3001
0200
0000
0000
,  // measure 83
0310
2000
0000
0000
3001
0020
0000
0000
,  // measure 84
0130
2000
0000
0000
3002
0000
0023
0000
,  // measure 85
0130
2000
0000
3000
0000
0001
0100
0001
,  // measure 86
0100
0000
0020
0000
1030
0002
0000
0000
,  // measure 87
0013
0200
0000
0000
0310
0000
0001
0000
,  // measure 88
1000
0002
0000
0200
,  // measure 89
0003
0000
0320
0000
1030
0002
0000
0000
,  // measure 90
1003
0200
0000
0000
0310
0002
0000
0000
,  // measure 91
2003
0000
3020
0000
0000
0230
0000
0000
,  // measure 92
0302
0000
2003
0000
3001
0100
0002
0000
,  // measure 93
2003
0000
3200
0000
0310
0002
0000
0000
,  // measure 94
1003
0200
0000
0000
0310
0002
0000
0000
,  // measure 95
2003
0000
3020
0000
0000
0230
0000
0000
,  // measure 96
0302
0000
0000
0000
2003
0000
0000
0000
3000
0000
0000
0000
0000
0000
0000
0001
,  // measure 97
0010
0000
0001
2000
0000
0000
3001
0200
0000
0000
0301
4000
0000
0000
0000
0000
,  // measure 98
3000
0000
0000
0000
0000
0000
0000
0000
0000
0000
0000
0000
0000
0000
0000
0001
,  // measure 99
1000
0001
1000
0000
0020
0000
1030
0002
0000
0000
0013
0400
0000
0000
0000
0000
,  // measure 100
0300
0000
0000
1100
,  // measure 101
0000
1000
0002
0000
2003
0000
3020
0000
,  // measure 102
0130
0002
0000
0000
1003
0200
0000
0000
,  // measure 103
1300
0002
0000
0000
1003
0020
0000
0000
,  // measure 104
0230
0000
0302
0000
1003
0200
0000
0000
,  // measure 105
0300
0010
0100
0010
0100
0000
0020
0000
,  // measure 106
0031
2000
0000
0000
3001
0200
0000
0000
,  // measure 107
0310
1000
0001
0020
,  // measure 108
0000
0230
0000
0300
,  // measure 109
0000
1000
0002
0000
0203
0000
0320
0000
,  // measure 110
1030
0002
0000
0000
1003
0020
0000
0000
,  // measure 111
0130
0002
0000
0000
1003
0200
0000
0000
,  // measure 112
0320
0000
0230
0000
1300
0002
0000
0000
,  // measure 113
0003
1000
0100
1000
0100
0000
0020
0000
,  // measure 114
0130
2000
0000
0000
3001
0200
0000
0000
,  // measure 115
0320
2030
3001
0020
,  // measure 116
0000
0200
0330
2002
,  // measure 117
0000
0000
0000
0000
,  // measure 118
3003
0000
0000
0000
;

//---------------dance-single - Easy----------------
#NOTES:
     dance-single:
     Ace Of Hearts (2011):
     Easy:
     4:
     0.239,0.000,0.005,0.356,0.000: // measure 1
0000
0000
0000
0000
,  // measure 2
0000
0000
0000
0000
,  // measure 3
0000
0000
0000
0000
,  // measure 4
0000
0000
0000
0000
,  // measure 5
0000
0000
0000
0000
,  // measure 6
0000
0001
0000
0001
,  // measure 7
0000
0010
0000
0010
,  // measure 8
0000
0100
0000
0100
,  // measure 9
0000
1000
1000
1000
,  // measure 10
0000
0001
0000
0001
,  // measure 11
0000
0100
0000
0100
,  // measure 12
0000
0010
0000
0010
,  // measure 13
0000
0100
0100
0100
,  // measure 14
0000
0000
0000
0000
,  // measure 15
0001
0001
0001
0000
,  // measure 16
0010
0010
0010
0000
,  // measure 17
0001
0001
1000
1000
,  // measure 18
1000
0000
0000
0000
,  // measure 19
0010
0010
0010
0000
,  // measure 20
1000
1000
1000
0000
,  // measure 21
0001
0001
0100
0100
,  // measure 22
0100
0000
0000
0020
,  // measure 23
0000
0000
0000
0000
,  // measure 24
0030
0000
1000
1000
,  // measure 25
1000
0000
0001
0001
,  // measure 26
0100
0100
0100
0000
,  // measure 27
0000
0002
0000
0000
,  // measure 28
0000
0000
0003
0000
,  // measure 29
0100
0100
0100
0000
,  // measure 30
0010
0010
1000
1000
,  // measure 31
0020
0000
0000
0000
,  // measure 32
0030
0000
1000
1000
,  // measure 33
2000
0000
3002
0000
,  // measure 34
0023
0000
0032
0000
,  // measure 35
1003
1000
1000
0000
,  // measure 36
0100
0000
0010
0010
,  // measure 37
0020
0000
0032
0000
,  // measure 38
2003
0000
3010
0010
,  // measure 39
0020
0000
2030
0000
,  // measure 40
3000
0000
0010
0010
,  // measure 41
0020
0000
2030
0000
,  // measure 42
3002
0000
0203
0000
,  // measure 43
0301
0001
0002
0000
,  // measure 44
1003
0000
0010
0010
,  // measure 45
0020
0000
0230
0000
,  // measure 46
0302
0000
1003
1000
,  // measure 47
2000
0000
3200
0000
,  // measure 48
0310
0000
0010
0000
,  // measure 49
0001
0000
0001
0000
,  // measure 50
1000
0000
1000
0000
,  // measure 51
0100
0100
0100
0000
,  // measure 52
0010
0000
0010
0000
,  // measure 53
0100
0000
0100
0000
,  // measure 54
1000
0000
1000
0000
,  // measure 55
0001
0001
0001
0000
,  // measure 56
0000
0000
1000
1000
,  // measure 57
0000
0100
0100
0100
,  // measure 58
0000
0010
0010
0010
,  // measure 59
0000
0001
0001
0001
,  // measure 60
0000
0000
1000
1000
,  // measure 61
0000
0010
0010
0010
,  // measure 62
0000
0100
0100
0100
,  // measure 63
0000
0001
0001
0001
,  // measure 64
0000
0000
2000
0000
,  // measure 65
0000
0000
0000
3000
,  // measure 66
0000
0010
0010
0010
,  // measure 67
0000
1000
1000
0001
,  // measure 68
0001
0200
0000
0300
,  // measure 69
0002
0000
0000
0000
,  // measure 70
0000
0003
0000
1000
,  // measure 71
1000
1000
0000
0010
,  // measure 72
0010
1000
1000
0001
,  // measure 73
0000
0000
0000
1000
,  // measure 74
1000
2000
0000
3020
,  // measure 75
0000
0230
0000
0320
,  // measure 76
0000
1030
1000
2000
,  // measure 77
0000
3001
0000
0010
,  // measure 78
0010
0020
0000
0230
,  // measure 79
0000
2300
0000
3001
,  // measure 80
0001
0002
0000
0203
,  // measure 81
0000
0300
0000
0010
,  // measure 82
0010
0020
0000
2030
,  // measure 83
0000
3002
0000
0023
,  // measure 84
0000
0031
0001
0002
,  // measure 85
0000
1003
0000
0010
,  // measure 86
0010
0020
0000
0230
,  // measure 87
0000
0302
0000
1003
,  // measure 88
1000
2000
0000
3200
,  // measure 89
0000
0310
0000
0010
,  // measure 90
0000
0001
0000
0001
,  // measure 91
0000
1000
0000
1000
,  // measure 92
0000
0010
0010
0010
,  // measure 93
0000
0100
0000
0100
,  // measure 94
0000
0010
0000
0010
,  // measure 95
0000
1000
0000
1000
,  // measure 96
0000
0002
0003
0000
,  // measure 97
1000
1000
1000
2000
,  // measure 98
3000
0000
0000
0000
,  // measure 99
0100
0100
0100
0200
,  // measure 100
0300
0000
0000
0000
,  // measure 101
0000
0010
0010
0020
,  // measure 102
0000
0032
0000
2003
,  // measure 103
0000
3020
0000
0130
,  // measure 104
0100
0200
0000
0301
,  // measure 105
0000
1000
1000
2000
,  // measure 106
0000
3002
0000
0203
,  // measure 107
0000
0310
0010
0020
,  // measure 108
0000
2030
0000
3000
,  // measure 109
0000
0001
0001
0002
,  // measure 110
0000
2003
0000
3020
,  // measure 111
0000
2030
0000
3001
,  // measure 112
0001
0002
0000
0013
,  // measure 113
0000
0100
0100
0200
,  // measure 114
0000
2300
0000
3002
,  // measure 115
0000
0103
0100
0200
,  // measure 116
0000
0310
0000
2002
,  // measure 117
0000
3003
0000
0000
;

//---------------dance-single - Novice----------------
#NOTES:
     dance-single:
     Ace Of Hearts (2011):
     Beginner:
     1:
     0.083,0.000,0.005,0.098,0.000: // measure 1
0000
0000
0000
0000
,  // measure 2
0000
0000
0000
0000
,  // measure 3
0000
0000
0000
0000
,  // measure 4
0000
0000
0000
0000
,  // measure 5
0000
0000
0000
0000
,  // measure 6
0000
1000
0000
0000
,  // measure 7
0000
1000
0000
0000
,  // measure 8
0000
2000
0000
0000
,  // measure 9
0000
3000
0000
0000
,  // measure 10
0000
0001
0000
0000
,  // measure 11
0000
0001
0000
0000
,  // measure 12
0000
0002
0000
0000
,  // measure 13
0000
0003
0000
0000
,  // measure 14
0000
0000
0000
0000
,  // measure 15
1000
0000
0000
0000
,  // measure 16
1000
0000
0000
0000
,  // measure 17
0001
0000
0000
0000
,  // measure 18
0001
0000
0000
0000
,  // measure 19
0010
0000
0000
0000
,  // measure 20
0010
0000
0000
0000
,  // measure 21
0100
0000
0000
0000
,  // measure 22
0100
0000
0000
0000
,  // measure 23
2000
0000
0000
0000
,  // measure 24
3000
0000
0001
0000
,  // measure 25
0000
0000
0001
0000
,  // measure 26
0000
0000
0001
0000
,  // measure 27
0000
0000
0020
0000
,  // measure 28
0000
0000
0030
0000
,  // measure 29
0100
0000
0000
0000
,  // measure 30
0100
0000
0000
0000
,  // measure 31
0200
0000
0000
0000
,  // measure 32
0300
0000
0000
0000
,  // measure 33
0010
0000
0000
0000
,  // measure 34
0010
0000
0000
0000
,  // measure 35
0001
0000
0000
0000
,  // measure 36
0001
0000
0000
0000
,  // measure 37
1000
0000
0000
0000
,  // measure 38
1000
0000
0000
0000
,  // measure 39
0020
0000
0000
0000
,  // measure 40
0030
0000
0000
0000
,  // measure 41
1000
0000
0000
0000
,  // measure 42
1000
0000
0000
0000
,  // measure 43
0001
0000
0000
0000
,  // measure 44
0001
0000
0000
0000
,  // measure 45
0010
0000
0000
0000
,  // measure 46
0010
0000
0000
0000
,  // measure 47
0200
0000
0000
0000
,  // measure 48
0300
0000
0000
0000
,  // measure 49
1000
0000
0000
0000
,  // measure 50
2000
0000
0000
0000
,  // measure 51
3000
0000
0000
0000
,  // measure 52
0001
0000
0000
0000
,  // measure 53
0001
0000
0000
0000
,  // measure 54
0002
0000
0000
0000
,  // measure 55
0003
0000
0000
0000
,  // measure 56
0000
0000
0000
1000
,  // measure 57
0000
0000
0000
1000
,  // measure 58
0000
0000
0000
0010
,  // measure 59
0000
0000
0000
0010
,  // measure 60
0000
0000
0000
0100
,  // measure 61
0000
0000
0000
0100
,  // measure 62
0000
0000
0000
0001
,  // measure 63
0000
0000
0000
0001
,  // measure 64
0000
0000
0000
2000
,  // measure 65
0000
0000
0000
3000
,  // measure 66
0000
0001
0000
0000
,  // measure 67
0000
0001
0000
0000
,  // measure 68
0000
0001
0000
0000
,  // measure 69
0000
0020
0000
0000
,  // measure 70
0000
0030
0000
0001
,  // measure 71
0000
0000
0000
0001
,  // measure 72
0000
0000
0000
0001
,  // measure 73
0000
0000
0000
0000
,  // measure 74
0000
1000
0000
0000
,  // measure 75
0000
1000
0000
0000
,  // measure 76
0000
0001
0000
0000
,  // measure 77
0000
0001
0000
0000
,  // measure 78
0000
0100
0000
0000
,  // measure 79
0000
0100
0000
0000
,  // measure 80
0000
0020
0000
0000
,  // measure 81
0000
0030
0000
0000
,  // measure 82
0000
0100
0000
0000
,  // measure 83
0000
0100
0000
0000
,  // measure 84
0000
0001
0000
0000
,  // measure 85
0000
0001
0000
0000
,  // measure 86
0000
1000
0000
0000
,  // measure 87
0000
1000
0000
0000
,  // measure 88
0000
0200
0000
0000
,  // measure 89
0000
0300
0000
0000
,  // measure 90
0000
0010
0000
0000
,  // measure 91
0000
0020
0000
0000
,  // measure 92
0000
0030
0000
0000
,  // measure 93
0000
0001
0000
0000
,  // measure 94
0000
0001
0000
0000
,  // measure 95
0000
0002
0000
0000
,  // measure 96
0000
0003
0000
0000
,  // measure 97
0000
2000
0000
3000
,  // measure 98
0000
0000
0000
0000
,  // measure 99
0000
0200
0000
0300
,  // measure 100
0000
0000
0000
0000
,  // measure 101
0000
0000
0000
0010
,  // measure 102
0000
0000
0000
0010
,  // measure 103
0000
0000
0000
0001
,  // measure 104
0000
0000
0000
0001
,  // measure 105
0000
0000
0000
1000
,  // measure 106
0000
0000
0000
1000
,  // measure 107
0000
0000
0000
0020
,  // measure 108
0000
0000
0000
0030
,  // measure 109
0000
0000
0000
0100
,  // measure 110
0000
0000
0000
0100
,  // measure 111
0000
0000
0000
0001
,  // measure 112
0000
0000
0000
0001
,  // measure 113
0000
0000
0000
0100
,  // measure 114
0000
0000
0000
0100
,  // measure 115
0000
0000
0000
0002
,  // measure 116
0000
0003
0000
1001
;
