#TITLE:Guruppo;
#SUBTITLE:;
#ARTIST:Barbarian on the Groove feat. Chata;
#TITLETRANSLIT:;
#SUBTITLETRANSLIT:;
#ARTISTTRANSLIT:;
#GENRE:J-Pop;
#CREDIT:Ace Of Hearts;
#BANNER:Guruppo - bn.png;
#BACKGROUND:Guruppo - bg.jpg;
#LYRICSPATH:;
#CDTITLE:Ace Of Hearts.png;
#MUSIC:Guruppo.ogg;
#OFFSET:1.120;
#SAMPLESTART:57.400;
#SAMPLELENGTH:12.000;
#SELECTABLE:YES;
#DISPLAYBPM:180.000;
#BPMS:0.000=180.000,203.500=360.000,207.500=180.000,235.500=360.000,239.500=180.000;
#STOPS:203.500=0.167
,204.500=0.167
,205.500=0.167
,206.500=0.167
,235.500=0.167
,236.500=0.167
,237.500=0.167
,238.500=0.167
;
#BGCHANGES:6.250=Like a Butler OP.avi=1.000=0=0=1=====,
322.500=Guruppo - bg.jpg=1.000=0=0=1=Centered====,
99999=-nosongbg-=1.000=0=0=0 // don't automatically add -songbackground-
;
#KEYSOUNDS:;

//---------------dance-single - Ace Of Hearts (2011)----------------
#NOTES:
     dance-single:
     Ace Of Hearts (2011):
     Hard:
     9:
     0.680,0.000,0.393,0.977,0.009:
0000
0000
0000
0000
,
0000
0000
0000
0000
,
1002
0000
2003
0000
3100
0020
0000
0230
,
0000
1300
0001
0100
0001
0000
2000
3000
,
1200
0000
2300
0000
3001
0200
0000
0302
,
0000
1003
0100
1000
0002
0000
0203
0300
,
0120
0000
0230
0000
0310
2000
0000
3002
,
0000
0013
0100
0010
0002
0000
2003
3000
,
1020
0030
0210
0300
,
0400
0004
0000
0000
0000
0000
0000
0000
0000
0000
0000
0000
0000
0000
0000
0000
0000
0000
0303
0000
0000
2002
0000
0000
,
0000
0003
3020
0000
1030
0001
0010
0100
,
0010
0001
0000
1000
0000
0010
1000
0200
,
0000
0000
0000
0000
0000
0000
0000
0320
,
0000
0031
1000
0010
0100
0001
1000
1200
,
0000
0000
0320
0000
0130
1000
0001
0100
,
0010
0100
0000
0001
0000
0010
0001
2001
,
0000
0000
0000
0000
,
3000
0100
0010
0001
0010
0100
1000
1001
,
0000
0000
2000
0000
3020
0000
0230
0302
,
0000
0203
0320
2030
,
3002
0000
1003
0020
0000
0000
0000
0030
,
2000
0000
0000
3002
0000
0103
0010
1000
,
0002
0000
0013
0100
0000
0000
0000
1000
,
0002
0000
1003
0100
0000
0020
0000
0000
,
0130
0000
1000
0002
0000
0000
0000
0000
,
1003
0020
0000
0130
0000
0010
0000
2010
,
0000
0000
3002
0000
0023
0000
0130
2000
,
0000
3002
0203
0320
,
0230
0000
0301
1000
0000
0100
0000
0020
,
0000
0000
0000
0030
0000
0100
1000
0001
,
0200
0000
0310
0000
1000
0000
0001
0020
,
0000
0031
1000
0010
0200
0000
0301
2000
,
0000
3100
0010
0000
0100
2000
3000
1001
,
0000
0001
0000
0100
0010
0000
2000
0000
,
3001
0100
0010
M000
0100
0001
1000
00M0
,
0001
0010
0001
1000
0100
00M0
000M
0000
,
1000
0100
0010
000M
0100
0010
0001
0M00
,
1000
0010
1000
0001
0100
00M0
M000
0000
,
0001
0100
0010
M000
0100
0010
1000
0M00
,
0001
1000
0001
0010
0100
000M
00M0
2100
,
0000
0000
3001
0201
0000
0000
0310
2010
,
0000
0000
3001
0021
0000
0000
0130
2100
,
0000
3001
0100
0010
0100
0001
1000
1020
,
0000
0100
0000
1030
0001
0000
0010
0000
,
0110
0000
0100
0000
2100
0000
3001
0200
,
0000
0310
0100
0001
2000
0000
3100
0000
,
0000
1000
0001
0100
0020
0000
0130
0002
,
0000
1003
0100
0000
0020
0000
0031
0000
,
2000
0000
3010
0100
0001
1000
0100
0020
,
0000
0130
1000
0001
0200
0000
0310
0000
,
0000
0100
0001
1000
0200
0000
0310
0011
,
0000
0110
0000
1100
0000
1001
0000
0102
,
0000
0000
2003
0000
3020
0000
0130
0002
,
0000
1003
0000
0010
0200
0000
0301
0000
,
0000
1000
0010
0100
0002
0000
0013
0200
,
0000
1300
0001
1000
0200
0000
0310
0000
,
0002
0000
2003
0000
3010
0100
0001
2000
,
0000
3100
0010
0100
2000
0000
3001
0000
,
0000
0010
0001
1000
0020
0000
0130
0101
,
0000
0110
0000
1010
0000
1100
0000
0012
,
0000
0000
0203
0000
0310
0000
0100
0102
,
0000
0000
1003
0000
0200
0000
0310
0002
,
0000
0000
0103
0000
0010
0100
0001
2000
,
0000
3001
0100
0020
0000
0000
0030
0210
,
0000
0301
1000
0100
0010
0000
0100
2100
,
0000
3001
0100
0010
1000
0001
0100
0020
,
0000
0000
0000
0000
0030
0000
0000
2010
,
0000
3001
0010
0100
1000
0001
0010
0200
,
0000
0000
0310
0000
0001
1000
0010
0100
,
0010
1000
0000
0010
0000
0000
0100
0102
,
0000
0000
0000
0000
0000
0003
0000
0011
,
0000
0010
0100
1000
0001
0010
0001
2001
,
0000
0000
3010
0000
0100
0001
0100
0001
,
1000
0100
0000
0010
0000
0100
1000
1002
,
0000
0103
0010
1000
0001
0010
0100
1000
,
0001
0010
0001
1000
0001
0100
0010
2010
,
0000
3001
0010
0210
0000
1300
0001
0201
,
0000
0310
1000
1200
0000
0310
0001
2001
,
0000
0000
3010
0000
0400
0004
0000
0000
0000
0000
0000
0000
0000
0000
0000
0000
,
0000
0000
0000
0000
0000
0000
0303
1001
;

//---------------dance-single - Ace Of Hearts (2011)----------------
#NOTES:
     dance-single:
     Ace Of Hearts (2011):
     Challenge:
     11:
     0.981,0.074,0.585,0.904,0.324: // measure 1
0000
0000
0000
0000
,  // measure 2
0000
0000
0000
0000
0000
0000
0000
0000
0000
0000
0000
0000
0000
0000
0001
0100
,  // measure 3
0020
0000
2030
0000
3001
0020
0031
2000
,  // measure 4
3010
0200
0301
2000
3200
0310
0002
0103
,  // measure 5
0120
1030
0002
0013
0200
2300
3001
0020
,  // measure 6
0130
0000
2000
0000
3001
0000
0200
0000
0320
0000
1030
0000
0002
0000
0013
0100
,  // measure 7
2000
0000
3002
0000
0203
0320
1030
0002
,  // measure 8
0103
0000
0020
0000
0130
0000
0002
0000
2003
0000
3100
0000
0020
0000
0130
1000
,  // measure 9
0002
0000
0203
0300
0120
0000
2030
3001
,  // measure 10
1000
0100
1000
0100
0010
0001
0010
0001
1000
0010
1000
0010
0100
0001
2000
0000
,  // measure 11
0000
0000
3020
0000
0130
0001
0100
0001
,  // measure 12
1000
0000
0100
0000
0000
0000
0110
0000
0000
0000
0010
0001
1000
0000
2001
0000
,  // measure 13
0000
3010
0100
0001
1000
0100
0010
0002
,  // measure 14
0000
0000
0103
0001
1000
0000
0100
0000
0010
0001
1000
0000
0010
0000
0210
0000
,  // measure 15
0000
0000
0301
0000
1000
0100
0010
0100
,  // measure 16
1000
0000
0001
0000
0000
0000
0101
0000
0000
0000
0100
0010
1000
0000
2010
0000
,  // measure 17
0000
3001
0010
0100
0010
0001
1000
1010
,  // measure 18
0000
0000
0010
0000
0100
0000
0001
0000
1000
0001
0010
0000
0100
0000
1100
0000
,  // measure 19
0000
1000
1001
0000
0001
0100
0010
2000
,  // measure 20
0000
3001
0010
0001
0100
0010
1000
0001
,  // measure 21
0010
0100
1000
0002
0000
0103
0010
1000
,  // measure 22
1200
0310
0001
2000
0000
3010
0100
0001
,  // measure 23
1000
0010
0100
0002
0000
1003
0010
0100
,  // measure 24
0010
1000
0001
0010
0000
0100
1000
0001
,  // measure 25
0201
0310
1000
0002
0000
0013
0100
1000
,  // measure 26
1001
0001
0100
0110
0010
1010
1000
1002
,  // measure 27
0000
0013
0100
1000
0010
0100
0001
2000
,  // measure 28
0000
3100
0010
0100
1000
0001
0100
0010
,  // measure 29
1000
0001
0010
0100
0010
0001
1000
0020
,  // measure 30
0000
1030
0001
1000
0100
0010
0001
0100
,  // measure 31
0020
0000
1030
0000
1100
0000
0100
0120
,  // measure 32
0000
0000
0031
0000
1000
0000
0010
0000
0100
0001
1000
0100
0010
0000
0012
0000
,  // measure 33
0000
1003
0010
0000
0110
0200
0301
1001
,  // measure 34
0000
0000
1000
0000
0100
0000
0010
0000
0100
1000
0001
0000
1001
0000
0000
0000
,  // measure 35
1000
0100
M001
0MM0
M001
0100
100M
00M0
,  // measure 36
100M
0010
0001
0010
1000
0000
MMMM
0000
,  // measure 37
0001
0010
100M
0MM0
100M
0010
M001
0M00
,  // measure 38
M001
0100
1000
0100
0001
0000
MMMM
0000
,  // measure 39
1000
0100
M001
0MM0
M001
0100
100M
00M0
,  // measure 40
0M01
0010
1000
0010
0001
1000
0010
0210
,  // measure 41
0000
0301
1000
1200
0000
0310
0001
0201
,  // measure 42
0000
0310
1000
1200
0000
0310
0001
0201
,  // measure 43
0000
0000
0310
0000
1000
0001
0010
0000
0100
0000
1000
0000
0001
0000
0201
0000
,  // measure 44
0000
0010
0000
0301
1000
0000
1110
0000
,  // measure 45
0012
0000
2003
3000
1020
0130
0001
2000
,  // measure 46
0000
0000
3100
0000
0010
0000
0001
0000
0100
0010
1000
0000
0001
0100
0010
0000
,  // measure 47
1010
1000
0001
0010
0100
1000
0001
0200
,  // measure 48
0000
0000
0310
1000
0001
0000
0010
0000
0100
1000
0001
0000
0100
0010
1000
0000
,  // measure 49
0001
0000
0010
0000
0100
0000
0010
0000
0001
1000
0010
0000
0100
0000
0102
0000
,  // measure 50
0000
0000
1003
0000
0100
0000
0010
0000
0001
1000
0010
0000
0100
0001
1000
0000
,  // measure 51
0100
0010
0100
1000
0002
0013
0100
1100
,  // measure 52
0000
1000
0000
1110
0000
1000
0000
1112
,  // measure 53
0000
0000
2003
0000
3010
0100
0001
2000
,  // measure 54
0000
0000
3100
0010
0001
0000
1000
0000
0010
0100
0001
0000
1000
0010
0100
0000
,  // measure 55
0102
1003
0100
0010
0001
0100
0010
2000
,  // measure 56
0000
0000
3001
0100
0010
0000
1000
0000
0001
0010
0100
0000
0010
0001
1000
0000
,  // measure 57
1020
0000
0230
0000
0301
1000
0100
0020
,  // measure 58
0000
0000
0130
1000
0001
0000
0100
0000
0010
0100
0001
0000
1000
0100
0010
0000
,  // measure 59
0012
1003
0010
0100
0001
1000
0100
0110
,  // measure 60
0000
0010
0000
0111
0000
0001
0000
2111
,  // measure 61
0000
0000
0000
0000
3020
0000
0000
0030
0110
0000
0100
0001
1000
0000
1200
0000
,  // measure 62
0000
0000
0310
0000
0100
0000
1000
0000
0001
0000
0100
0010
1000
0000
1002
0000
,  // measure 63
0000
0000
0013
0000
0100
0000
1000
0000
0001
0000
1000
0100
0010
0000
0012
0000
,  // measure 64
0000
0000
1003
0000
0010
0000
0210
0000
0000
0000
0301
1000
0100
0000
0120
0000
,  // measure 65
0000
0130
1000
0001
0100
0010
1000
1200
,  // measure 66
0000
0000
0310
0000
0001
0000
1000
0010
0100
0000
0001
0000
0100
0000
0120
0000
,  // measure 67
0000
1030
0001
0010
0100
0010
0001
0201
,  // measure 68
0000
0000
0310
0000
1000
0000
0100
0010
0001
0000
1000
0000
0100
0000
0120
0000
,  // measure 69
0000
0130
1000
0000
0001
0100
0001
0100
,  // measure 70
0010
0000
1000
0000
0000
0000
1001
0000
0000
0000
0001
0100
0010
0000
2020
0000
,  // measure 71
0030
3001
0010
0000
0001
1000
0010
0110
,  // measure 72
0000
0000
0100
0001
1000
0000
0001
0000
0010
0100
1000
0000
0001
0000
0201
0000
,  // measure 73
0000
0310
1000
0000
0001
0010
0001
0010
,  // measure 74
0100
1000
0000
1010
0000
0010
0100
0202
,  // measure 75
0300
0000
1003
0000
0100
0000
0010
0000
0100
0000
1000
0000
0001
0000
0100
0010
,  // measure 76
1000
0000
0001
0000
0010
0100
1000
0100
0010
0001
1000
0010
0100
0000
0202
0000
,  // measure 77
0300
0000
0013
0100
1000
0000
2200
0000
3000
0000
0310
0001
1000
0000
2020
0000
,  // measure 78
3000
0000
0130
0001
1000
0000
2200
0000
3000
0000
0310
0100
1000
0000
2002
0000
,  // measure 79
3000
0000
0103
0010
0100
0001
1000
0100
0010
0100
1000
0001
0010
0100
0010
0001
,  // measure 80
1000
0010
0100
0010
1000
0001
1000
0100
0010
0001
1000
0100
1000
0000
1002
0000
,  // measure 81
MMM0
0M00
0M03
0M00
0M00
0000
0M0M
0M0M
0MMM
0M0M
0M0M
0000
0000
0000
0000
0000
;

//---------------dance-single - Ace Of Hearts (2011)----------------
#NOTES:
     dance-single:
     Ace Of Hearts (2011):
     Medium:
     7:
     0.471,0.000,0.046,0.859,0.009:
0000
0000
0000
0000
,
0000
0000
0000
0000
,
0220
0000
0000
0000
,
0330
0000
0000
0000
,
2002
0000
0000
0000
,
3003
0000
0000
0000
,
0220
0000
0000
0000
,
0330
0000
0000
0000
,
2002
3003
2002
3003
,
4000
0004
0000
0000
0000
0000
0000
0000
0000
0000
0000
0000
3003
0000
0000
0000
,
0000
1000
1000
0010
,
1000
0001
0000
1000
0000
0010
0000
0200
,
0000
0000
0000
0000
0300
0000
0000
0002
,
0000
0000
1003
0000
0010
0000
1000
0002
,
0000
1003
0100
0010
,
0100
1000
0000
0001
0000
1000
0000
0020
,
0000
0000
0000
0000
0030
0000
0000
1000
,
0000
0001
0010
0000
0001
0000
1000
0100
,
0000
0000
1000
0000
0002
0000
1003
0200
,
0000
1300
0001
0100
,
0002
0000
1003
0020
0000
0000
0000
0000
,
0030
0000
0000
0000
0000
1000
0001
0000
,
0020
0000
0031
1000
0000
0000
0000
0001
,
0200
0000
0301
1000
0000
0002
0000
0000
,
1003
0000
0010
0020
0000
0000
0030
0000
,
0100
0000
0000
0100
0000
0001
0000
2000
,
0000
0000
3001
0000
0200
0000
0301
2000
,
0000
3010
0200
0301
,
2000
0000
3001
0010
0000
0001
0000
2000
,
0000
0000
0000
3000
0000
0010
1000
0000
,
0002
0000
1003
0000
0100
0000
0010
0002
,
0000
1003
0010
0000
1000
0000
0001
0200
,
0000
0000
0000
0300
,
0000
0000
0000
0000
,
M001
0001
10M0
1000
,
0M10
1000
0001
0MM0
,
M010
0010
010M
0100
,
10M0
0001
0100
00MM
,
M010
0010
010M
0100
,
M001
0000
1000
0000
0010
0000
0000
2000
,
0000
0000
3001
0020
0000
0000
0031
2000
,
0000
0000
3001
0020
0000
0000
0130
2000
,
0000
3001
0100
0000
0001
0000
1000
0100
,
0000
0010
0000
0100
1000
0000
0001
0000
,
2000
0000
3020
0000
0230
0000
0301
2000
,
0000
3002
0000
1003
0200
0000
0320
0000
,
0000
0130
2000
0000
3002
0000
1003
0020
,
0000
1030
0002
0000
2003
0000
3020
0000
,
0230
0000
0302
0000
2003
0000
3001
0020
,
0000
0031
2000
0000
3020
0000
0230
0000
,
0000
0301
1000
0000
0002
0000
0103
0010
,
0000
1000
0000
0001
0000
0010
0000
0200
,
0000
0000
2300
0000
3002
0000
0013
0200
,
0000
1300
0000
0001
0200
0000
0301
0000
,
0000
1000
0100
0000
0020
0000
0130
2000
,
0000
3001
0100
0000
0020
0000
2030
0000
,
3002
0000
0023
0000
0230
0000
0310
0002
,
0000
1003
0010
0000
2000
0000
3002
0000
,
0000
0013
0200
0000
2300
0000
3001
0100
,
0000
0010
0000
1000
0000
0001
0000
0020
,
0000
0000
0130
0000
1000
0000
0001
0200
,
0000
0000
0301
0000
2000
0000
3001
0200
,
0000
0000
0310
0000
1000
0000
0001
0200
,
0000
0000
0000
0300
0000
0000
0000
0020
,
0000
1030
0001
0000
0010
0000
0001
2000
,
0000
3001
0100
0000
0010
0000
1000
0002
,
0000
0000
0000
0000
0003
0000
0000
2000
,
0000
3001
0100
0000
0010
0000
1000
0002
,
0000
0013
0010
0100
,
0010
0001
0000
1000
0000
0010
0000
0200
,
0000
0000
0000
0000
0300
0000
0000
0002
,
0000
1003
0010
0000
1000
0000
0001
0020
,
0000
0031
1000
0001
,
0010
0100
0000
0010
0000
0001
0000
2000
,
0000
0000
0000
0000
3000
0000
0000
0020
,
0000
1030
0001
0000
0100
0000
0001
2000
,
0000
0000
3010
0200
0000
0000
0301
2000
,
0000
0000
3001
0020
0000
0000
0130
2000
,
0000
0000
0000
0000
3004
0040
0000
0000
0000
0000
0000
0000
0000
0000
0000
0000
,
0000
0000
0000
0000
0000
0000
0000
0033
;

//---------------dance-single - Ace Of Hearts (2011)----------------
#NOTES:
     dance-single:
     Ace Of Hearts (2011):
     Easy:
     5:
     0.235,0.000,0.046,0.301,0.000:
0000
0000
0000
0000
,
0000
0000
0000
0000
,
2002
0000
0000
0000
,
3003
0000
0000
0000
,
0220
0000
0000
0000
,
0330
0000
0000
0000
,
2002
0000
0000
0000
,
3003
0000
0000
0000
,
1001
0000
1001
0000
,
4000
0000
0000
0000
0000
0000
0000
3000
,
0000
0000
0001
0000
,
0001
0000
0000
0001
0000
0000
0000
2000
,
0000
0000
0000
0000
3000
0000
0000
0010
,
0000
0000
0000
0000
0010
0000
0000
0020
,
0000
0000
0130
0000
,
0100
0000
0000
0100
0000
0000
0000
0002
,
0000
0000
0000
0000
0003
0000
0000
1000
,
0000
0000
0000
0000
1000
0000
0000
1000
,
0000
0000
0000
0000
0010
0000
0000
0010
,
0000
0000
1000
0000
,
1000
0000
0000
2000
0000
0000
0000
0000
,
3000
0000
0000
0000
,
0010
0000
0000
0010
0000
0000
0000
0000
,
0100
0000
0000
0100
0000
0000
0000
0000
,
0001
0000
0000
0002
0000
0000
0000
0000
,
0000
0003
0000
0000
,
0000
0000
0000
0000
1000
0000
0000
1000
,
0000
0000
1000
0000
,
0010
0000
0000
0010
0000
0000
0000
0020
,
0000
0000
0030
0000
,
0100
0100
0100
0000
,
0001
0000
0001
0000
0001
0000
0000
2000
,
0000
0000
0000
0000
0000
0000
0000
3000
,
0000
0000
0000
0000
,
0001
0000
0001
0000
,
0100
0100
0100
M000
,
0010
0000
0010
0000
,
1000
1000
1000
000M
,
0100
0000
0100
0000
,
0010
0000
0010
0000
0010
0000
0000
0002
,
0000
0000
0000
2003
0000
0000
0000
3020
,
0000
0000
0000
0230
0000
0000
0000
0302
,
0000
0000
1003
0000
1000
0000
0000
0001
,
0000
0001
0000
0000
0010
0000
0000
0000
,
0001
0001
0001
0000
,
0100
0100
0100
0000
,
0000
0010
0010
0000
,
1000
1000
1000
0000
,
0001
0001
0001
0000
,
0010
0000
0010
0000
,
0000
0000
0100
0000
0100
0000
0000
1000
,
0000
1000
0000
1000
0000
1000
0000
2000
,
0000
0000
0000
0000
3000
0000
0000
0002
,
0000
0000
0003
0000
,
0000
0100
0100
0000
,
0010
0010
0010
0000
,
1000
1000
1000
0000
,
0001
0000
0001
0000
,
0000
0000
0100
0000
0100
0000
0000
0010
,
0000
0010
0000
0010
0000
0010
0000
0020
,
0000
0000
0000
0000
0030
0000
0000
0200
,
0000
0000
0000
0000
0300
0000
0000
0002
,
0000
0000
0000
0000
0003
0000
0000
1000
,
0000
0000
0000
1000
0000
0000
0000
0001
,
0000
0000
0000
0000
0001
0000
0000
0100
,
0000
0000
0000
0000
0100
0000
0000
0200
,
0000
0000
0000
0000
0300
0000
0000
0001
,
0000
0000
0000
0000
0001
0000
0000
0002
,
0000
1003
1000
0000
,
0010
0000
0000
0010
0000
0000
0000
0020
,
0000
0000
0000
0000
0030
0000
0000
1000
,
0000
0000
0001
0000
0001
0000
0000
0002
,
0000
0013
0010
0000
,
0100
0000
0000
0100
0000
0000
0000
0200
,
0000
0000
0000
0000
0000
0000
0000
0300
,
0000
0000
0000
0000
0000
0000
0000
2000
,
0000
0000
0000
3002
0000
0000
0000
0023
,
0000
0000
0000
0230
0000
0000
0000
2300
,
0000
3004
0000
0000
,
0000
0000
0000
0000
0000
0000
0000
0003
;

//---------------dance-single - Ace Of Hearts (2011)----------------
#NOTES:
     dance-single:
     Ace Of Hearts (2011):
     Beginner:
     2:
     0.151,0.000,0.037,0.265,0.000:
0000
0000
0000
0000
,
0000
0000
0000
0000
,
2002
0000
0000
0000
,
3003
0000
0000
0000
,
2002
0000
0000
0000
,
3003
0000
0000
0000
,
2002
0000
0000
0000
,
3003
0000
0000
0000
,
0001
0000
0001
0000
,
0004
0000
0000
0000
0000
0000
0000
0003
,
0000
0000
1000
0000
,
2000
0000
0000
0000
0000
0000
0000
3000
,
0000
0000
0000
0000
,
0010
0000
0010
0000
,
0020
0000
0000
0000
,
0030
0000
0000
0000
,
2000
0000
3000
0000
,
0002
0000
0000
0000
0000
0000
0000
0003
,
0000
0000
0010
0000
,
0010
0000
0001
0000
,
0002
0000
0000
0000
,
0003
0000
0000
0000
,
1000
0000
1000
0000
,
1000
0000
0000
0000
,
0020
0000
0000
0000
,
0000
0000
0000
0000
0000
0000
0000
0030
,
0000
0000
0100
0000
,
0100
0000
0001
0000
,
0002
0000
0000
0000
,
0003
0000
0000
0000
,
1000
0000
0000
0000
,
0010
0000
0010
0000
,
0020
0000
0000
0000
0000
0000
0000
0030
,
0000
0000
0000
0000
,
0100
0000
0100
0000
,
0100
0000
0000
0000
,
0001
0000
0001
0000
,
0001
0000
0000
0000
,
1000
0000
1000
0000
,
1000
0000
0000
0000
0000
0000
0000
0002
,
0000
0000
0000
0003
0000
0000
0000
2000
,
0000
0000
0000
3000
0000
0000
0000
2002
,
0000
0000
0000
0000
0000
0000
0000
3003
,
0000
0000
0000
0000
,
1000
0000
1000
0000
,
1000
0000
0000
0000
,
0000
0000
0010
0000
,
0010
0000
0000
0000
,
0100
0000
0100
0000
,
0100
0000
0000
0000
,
0002
0000
0000
0000
0003
0000
0000
2000
,
0000
0000
0000
0000
0000
0000
0000
3000
,
0000
0000
0000
0000
,
0010
0000
0010
0000
,
0000
0000
0100
0000
,
0200
0000
0300
0000
,
0001
0000
0001
0000
,
0002
0000
0003
0000
,
2000
0000
0000
0000
3000
0000
0000
0020
,
0000
0000
0000
0000
0000
0000
0000
0030
,
0000
0000
0000
0000
,
1000
0000
1000
0000
,
1000
0000
0000
0000
,
0002
0000
0003
0000
,
0100
0000
0100
0000
,
0100
0000
0000
0000
,
0020
0000
0030
0000
,
1000
0000
1000
0000
,
2000
0000
0000
0000
,
0000
0000
0000
0000
,
3000
0000
0000
0000
,
0001
0000
0001
0000
,
0010
0000
0010
0000
,
0010
0000
0000
0000
,
0002
0000
0003
0000
,
2000
0000
3000
0000
,
0010
0000
0010
0000
,
1000
0000
1000
0000
,
0004
0000
0000
0000
,
0000
0000
0000
0000
0000
0000
0000
0003
;
