#TITLE:Aka no Sora;
#SUBTITLE:;
#ARTIST:Rita;
#TITLETRANSLIT:;
#SUBTITLETRANSLIT:;
#ARTISTTRANSLIT:;
#GENRE:Fusion;
#CREDIT:Ace Of Hearts;
#BANNER:Aka no Sora - bn.png;
#BACKGROUND:Aka no Sora - bg.png;
#LYRICSPATH:;
#CDTITLE:Ace Of Hearts.png;
#MUSIC:Aka no Sora.ogg;
#OFFSET:7.880;
#SAMPLESTART:81.500;
#SAMPLELENGTH:12.000;
#SELECTABLE:YES;
#BPMS:0.000=85.000,41.500=138.000,80.000=69.000,112.000=138.000,142.000=276.000,144.000=138.000,245.000=69.000,247.000=34.500;
#DISPLAYBPM:85.000:138.000;
#STOPS:41.000=0.353
,112.000=0.870
,142.000=0.163
,142.750=0.163
,143.500=0.109
,206.000=0.435
;
#BGCHANGES:11.000=OniUta OP.avi=1.000=1=0=1===CrossFade==,
99999=-nosongbg-=1.000=0=0=0 // don't automatically add -songbackground-
;
#KEYSOUNDS:;

//---------------dance-single - Hard----------------
#NOTES:
     dance-single:
     Ace Of Hearts (2011):
     Hard:
     8:
     0.473,0.000,0.096,0.753,0.166:
0000
0000
0000
0000
,
0000
0000
0000
0000
,
0000
0000
0000
0000
,
0001
1000
0020
0000
1030
0001
2000
0000
,
3001
0000
0010
0000
0002
0000
0000
1003
0100
0000
1000
0000
0002
0000
0003
0000
,
0010
0100
2000
3000
0001
0100
0010
0100
,
0001
1000
0400
0000
0000
0000
0300
0000
,
0010
0100
2000
0000
3001
0100
0010
0000
,
0100
0001
2000
0000
3002
0000
0023
0000
,
0230
2300
0000
0000
,
3000
0000
1001
0001
0010
0100
1000
0002
,
0013
0000
0001
1000
0001
0000
2000
0000
0000
0000
3010
0000
1000
0000
0001
0010
,
0002
0000
0000
2003
0000
0000
3020
0000
,
0230
0000
0000
0000
0000
0000
0000
0000
0000
0000
0000
0000
0301
0000
1000
0010
,
2000
0000
0000
0000
3001
0010
0100
1000
,
0002
0000
0000
0000
0000
0000
0000
0000
0000
0000
0000
0000
0000
0000
1003
0010
,
2000
0000
3200
0320
,
0230
0000
0000
0000
0000
0000
0000
0000
0000
0000
0000
0000
0300
0000
1000
0100
,
2000
3002
0023
0430
,
4300
0004
0000
0000
0000
0000
0000
0000
3003
0000
0000
0000
0001
0000
1000
0000
,
0002
0000
1003
0400
0000
0300
1000
0100
0020
0000
0130
4000
0000
3000
0002
0000
,
0203
0000
0310
4000
0000
3001
0010
0001
2000
0000
0000
3001
0200
0000
0301
0000
,
2000
0000
0000
3001
0020
0000
0030
0000
0200
0000
1300
0000
0001
0000
1000
0000
,
0400
0000
0300
0010
0004
0000
0000
0000
0003
0000
0000
0000
0000
0000
1000
0010
,
2000
0000
0000
0000
3001
0000
0010
0000
0000
0000
0000
0000
0001
0000
1000
0000
0002
0000
0000
1003
0100
0000
0020
0000
0000
0000
0030
0000
0001
0000
0000
0000
,
2000
0000
3010
0200
0000
0301
0100
0010
2000
0000
0000
0000
3100
0000
0010
0000
,
0002
0000
0000
1003
0020
0000
0030
1000
0002
0000
0013
0000
0100
0000
0010
0000
,
0002
0000
1003
0000
0010
2000
0000
3002
0000
0000
0000
0000
0003
0000
0000
0000
,
2001
0010
3002
0203
,
0301
1000
0000
0200
0010
0000
1000
0000
,
0310
0001
0000
1000
0002
0000
0203
0000
,
0310
2000
0000
3002
0100
0000
1000
0000
,
0103
0000
0010
0000
0000
0000
1000
0001
2000
0000
0000
0000
3200
0000
0000
0000
,
0320
0000
0032
0003
1001
0000
0101
0000
,
1010
1001
0202
0000
,
0000
0000
0000
0000
0303
0000
0000
0000
0110
0000
0000
0010
0000
0000
1000
0000
,
0002
0000
0013
0100
2000
0000
3001
0100
,
0020
0000
0000
0000
0130
0000
0001
0000
2000
0000
0000
3100
0010
0000
0100
0000
,
1000
0000
0001
0010
0100
0000
0010
0001
,
2000
0000
3001
0010
0001
0000
0010
0000
0200
0000
0000
1300
0001
0000
1000
0000
,
0200
0000
0310
0100
2000
0000
3001
0100
,
0010
0000
0000
0000
1000
0000
0010
0000
0200
0000
0000
0301
1000
0000
0010
0000
,
0100
0000
0001
1000
0100
0000
0010
0100
,
1000
0001
0010
0100
0020
0000
0032
0000
,
2003
0000
3100
0010
0002
0000
1003
0100
,
0020
0000
0000
0000
0130
0000
1000
0000
0002
0000
0000
0103
0010
0000
1000
0000
,
0001
0000
0100
0001
2000
0000
3001
1000
,
0100
0000
1000
0000
0001
0000
0010
0000
0200
0000
0000
0310
0001
0000
1000
0000
,
0002
0000
1003
0100
0020
0000
0130
1000
,
0001
0000
1000
0100
0020
0030
0011
0000
,
2001
0000
0000
0000
3010
0000
0000
0000
0220
0000
0000
0000
0030
0000
0301
0100
,
0001
0000
1000
0000
0100
0000
0010
0000
0012
0003
1000
0000
0001
0000
0100
0000
,
0010
0000
0100
0000
0002
0000
1003
0010
1000
0000
0002
0000
0000
0000
1003
0000
,
0010
0000
1000
0001
2000
0000
0000
0000
0000
0000
3200
0000
0000
0000
0000
0000
,
0320
0230
0000
0300
,
1000
0000
0001
0100
0002
0000
0000
0000
0000
0000
0000
0000
1003
0000
0010
0000
,
0100
0000
0001
0000
2000
0000
3001
0010
0001
0000
2000
0000
0000
0000
3010
0000
,
1000
0000
0001
0100
0002
0000
0000
0000
0000
0000
0000
0000
2003
0000
0000
0000
,
3020
0000
0000
0000
0130
0000
0001
1000
0001
0000
1000
0000
0010
0000
0100
0000
,
0010
0000
1000
0001
2000
0000
0000
0000
3020
0000
0000
0000
0230
0000
0000
0000
,
0304
0000
0000
0000
4003
0040
0000
0000
0000
0000
0000
0000
0000
0000
0000
0000
,
0000
3030
2002
0000
0000
0000
0000
0000
,
3000
0000
0000
0000
0000
0000
0000
0003
0000
0000
0000
0000
0000
0000
0000
0000
0000
0000
0000
0000
0000
0000
0000
0000
0000
0000
0000
0000
0000
0000
0000
0000
;

//---------------dance-single - Expert----------------
#NOTES:
     dance-single:
     Ace Of Hearts (2011):
     Challenge:
     10:
     0.802,0.000,0.443,0.723,0.646:
0000
0000
0000
0000
,
0000
0000
0000
0000
,
0000
0000
0000
0000
,
1000
0000
0010
0000
0210
0000
0301
0000
1000
0000
0100
0000
0120
0000
0031
1000
,
0001
0000
0100
0000
0120
0000
1030
0001
1000
0000
0001
0000
0201
0000
0310
1000
,
0001
0000
0000
0000
0000
0000
0001
0000
0000
0000
0000
0000
0021
0000
0000
0000
0000
0000
0130
0000
0000
1000
0000
0000
0001
0000
0000
0000
0000
0000
1000
0000
0000
0000
0000
0000
1020
0000
0000
0000
0000
0000
0130
0000
0001
0000
0100
0000
,
0001
1000
0010
0000
0210
0000
0301
1000
0100
0000
0010
0000
0210
0000
1300
0001
,
0100
0000
0010
0000
2010
0000
3001
0010
0100
0000
1000
0000
1002
0000
0103
0010
,
1000
0000
0100
0000
0120
0000
0031
1000
0100
0000
1000
0000
1002
0000
0013
0100
,
1000
0000
0001
0000
0201
0000
0310
1000
0001
0000
0100
0000
0120
0000
1030
0000
,
0001
0000
0000
0000
1000
0000
0000
0000
2200
3300
0000
0000
0100
0000
0000
0000
0010
0000
0000
0000
0100
0000
1000
0000
0001
0000
0000
0000
0100
0000
0000
0000
,
0120
0000
1030
0001
0010
0000
0100
0000
2100
0000
0001
3000
0001
0000
0100
0010
,
2000
0000
3001
0010
0001
0000
1000
0000
0010
0100
0001
0000
1001
0000
1000
0100
,
0020
0000
0000
0000
0000
0000
0031
0000
0000
1000
0000
0000
0100
0000
0000
0000
0000
0000
1000
0000
0000
0000
0000
0000
0001
0000
0000
0100
0000
0000
0010
0000
0000
0000
0000
0000
1000
0000
0001
0000
1000
0000
0001
0000
0000
0100
0000
0000
,
0020
0000
1030
0001
0100
0000
0010
0000
2010
0000
3002
0000
0023
0000
0230
0300
,
2100
0000
3001
0100
0010
0000
2000
3000
1001
0000
0001
0000
0010
0000
0100
1000
,
0002
0000
0103
0010
1000
0000
0001
0000
0010
0001
1000
0000
1010
0000
0010
0100
,
0002
0000
1003
0100
0010
0000
0001
0000
0010
0100
1000
0000
1001
0000
0001
0100
,
0020
0000
0130
0001
1000
0000
0001
0010
0001
1000
0100
1000
0004
0000
0000
0000
,
1003
0010
0100
0010
1000
0000
0001
0010
0100
0010
0001
1000
0010
1000
0001
0010
,
0200
0000
1300
0004
0000
0003
1000
0010
0200
0000
0301
4000
0000
3000
0002
0003
,
2001
0000
3010
0400
0000
0301
1000
0100
0120
0000
0000
0031
2000
0000
0100
0000
,
3002
0000
0000
0103
0020
0000
0030
0000
2010
0000
3001
0000
0020
0000
0130
0000
,
4100
0000
3000
0001
0010
0100
1000
0001
0100
0001
1000
0020
0000
0030
0100
0001
,
2001
0000
0000
3001
0010
0000
0100
0000
1000
0100
1000
0000
0001
0000
0100
0000
0120
0000
0000
0130
0001
0000
1000
0000
0001
0010
0001
0000
1000
0000
0010
0000
,
0210
0000
0000
0301
1000
0000
0010
0000
1000
0001
1000
0000
0100
0000
0010
0000
0012
0000
0000
1003
0100
0000
0010
0000
0001
0010
0001
0000
1000
0000
0010
0000
,
0210
0000
0000
0301
1000
0000
0010
0000
1000
0001
1000
0000
0100
0000
0010
0000
0012
0000
0000
1003
0100
0000
1000
0000
0001
0100
0001
0000
1000
0000
0010
0000
,
0210
0000
0000
0301
1000
0000
0010
0000
0100
0001
0100
0000
0010
0000
2010
0000
0000
0000
3001
0000
0010
0000
0001
1000
0001
1000
0001
0000
0010
0000
0000
0000
,
2200
0000
0000
0000
0010
0000
3300
0000
1002
0000
0103
0010
1000
0000
0001
0000
,
0021
0000
0130
0000
1000
0000
0001
0000
0100
0000
0010
1000
0001
0000
0010
0001
,
0010
0100
1000
0000
1001
0000
0001
0000
0201
0000
0310
1000
0001
0000
0010
0000
,
0100
0000
1000
0100
0010
0000
0001
0000
1000
0000
0010
0100
0001
0000
1000
0010
,
1000
0001
0010
0000
0110
0000
0100
1000
0002
0000
0000
0000
2003
0000
0000
3000
,
1010
0202
0010
1000
,
1010
0000
0000
0000
0010
0000
0303
0000
0001
0010
0001
1000
0010
0000
0010
1000
,
0001
0010
0001
1000
0010
0100
0001
0200
0020
0000
0000
1000
0030
0000
0301
0000
,
1000
0100
0010
0000
0010
0001
1000
0000
1020
0000
0000
0000
0130
0000
0001
0000
,
0021
0000
0000
0000
0130
0000
1000
0000
1020
0000
0000
0130
0001
0000
1000
0000
,
0100
0010
0100
1000
0001
0000
0100
0001
1000
0000
0000
0000
0020
0000
0130
0000
,
0102
0000
0000
0000
0000
0000
1003
0000
0100
0000
1000
0000
0001
0000
0000
0000
0000
0000
0010
0000
0000
0000
0000
0000
0210
0000
0000
0000
0000
0000
1300
0000
0000
0100
0000
0000
0010
0000
0000
0000
0000
0000
0001
0000
0000
0000
0000
0000
,
0100
0010
1000
0000
0001
0000
0010
0000
0210
0000
0000
0000
1300
0000
0001
0000
,
0201
0000
0000
0000
0310
0000
1000
0000
1200
0000
0000
0310
0001
0000
1000
0000
,
0010
0100
0010
1000
0001
0000
0010
0000
0210
0000
1300
0001
1000
0000
0010
0000
,
0210
0000
0301
1000
0001
0000
0010
0000
0100
1000
0100
0010
0001
0000
1000
0010
,
0100
0010
1000
0001
0010
0000
0100
1000
0002
0000
0000
0000
1003
0000
0100
0000
,
0120
0000
0000
0000
0031
0000
1000
0000
1020
0000
0000
0130
0001
0000
1000
0000
,
0100
0010
0100
1000
0001
0000
0100
0000
0010
1000
0001
0000
0010
0000
0100
0000
,
0010
0000
0000
0000
0000
0000
0001
0000
0010
0000
0001
0000
1000
0000
0000
0000
0000
0000
0010
0000
0000
0000
0000
0000
0200
0000
0000
0000
0000
0000
0301
0000
0000
0100
0000
0000
0010
0000
0000
0000
0000
0000
1000
0000
0000
0000
0000
0000
,
0100
0010
0001
0000
1000
0000
0010
0100
0020
0000
0000
0000
1030
0000
0001
0000
,
0021
0000
0130
1000
0002
0000
0023
0000
,
0230
0000
0000
0000
2300
0000
0000
0000
3001
0000
0100
0000
0010
0000
1000
0010
,
0100
0000
0010
0000
1000
0000
0000
0000
0001
0000
0000
0000
0010
0000
0000
0000
0220
0330
0000
0000
0100
0000
0000
0000
1000
0000
0000
0000
0001
0000
0000
0000
,
0100
0000
0040
0000
1030
0000
0001
0010
0100
0000
2000
0000
3001
0000
0010
0000
,
0100
0000
1000
0100
0020
0000
0031
0010
0100
0000
2000
0000
3001
0100
0001
0000
,
1000
0000
0100
0000
0020
0000
0130
1000
0001
0000
0100
0000
0010
0000
1000
0000
,
0001
0000
0100
0000
0001
0000
0100
0000
0000
0010
0000
0000
2000
0000
0000
0000
0000
0000
3001
0000
0000
0010
0000
0000
0100
0000
0000
0000
0000
0000
0010
0000
0000
0000
0000
0000
0002
0000
0000
0000
0000
0000
0023
0000
0000
0000
0000
0000
,
0230
0000
2300
3000
1002
0000
0103
0010
1000
0000
0002
0000
0103
0000
0010
0000
,
1000
0000
0100
0010
0002
0000
0013
0100
1000
0000
0001
0000
0100
0010
1000
0000
,
0001
0000
0010
0000
0200
0000
0310
0001
1000
0000
0010
0000
0100
0010
1000
0000
,
0001
0000
1000
0100
0010
0001
1000
0010
1000
0000
0001
0010
0100
0010
0001
1000
,
0040
0000
0000
0000
1030
0000
0001
0010
0100
0000
0010
0001
1000
0010
0100
0010
,
1000
0001
1000
0000
2200
0000
0000
0000
0000
0000
0000
0000
0000
0000
0000
0000
,
3000
0000
0000
0000
0000
0000
0000
0300
0000
0000
0000
0000
0000
0000
0000
0000
0000
0000
0000
0000
0000
0000
0000
0000
0000
0000
0000
0000
0000
0000
0000
0000
;

//---------------dance-single - Medium----------------
#NOTES:
     dance-single:
     Ace Of Hearts (2011):
     Medium:
     6:
     0.334,0.000,0.022,0.738,0.030:
0000
0000
0000
0000
,
0000
0000
0000
0000
,
0000
0000
0000
0000
,
1000
0010
2000
0000
3001
0010
0002
0000
,
1003
0000
0020
0000
1030
0001
1000
0000
,
0001
0010
0001
0000
1000
0000
0010
0100
,
0010
2000
0000
3000
,
0001
0100
0002
0000
1003
0010
2000
0000
,
3001
0100
0002
0000
2003
0000
3020
0000
,
0230
0302
0000
0000
,
0003
0000
2002
3003
0000
0000
0000
0000
,
2000
0000
3001
0020
0000
0000
0000
0031
,
2000
0000
0000
3200
0000
0000
0320
0000
,
0230
0000
0000
0000
0300
0000
1000
0001
,
2000
0000
3000
0000
,
0002
0000
0000
0000
0000
0000
0003
1000
,
0020
0000
0230
0302
,
2003
0000
0000
0000
0000
0000
0000
3001
,
0020
0230
2300
3002
,
4003
0000
3000
0010
,
2000
0000
0000
3001
0000
0000
0010
0000
0002
0000
0000
1003
0000
0000
0010
0000
,
2000
0000
0000
3001
0000
0000
0100
0000
0002
0000
0000
0000
1003
0000
0100
0000
,
2000
0000
3001
0000
2000
3000
0010
1000
,
0020
0000
0230
0000
0300
0000
0000
0001
,
2000
0000
0000
3100
0000
0000
0010
0000
0200
0000
0000
1300
0000
0000
0001
0000
,
2000
0000
0000
3100
0000
0000
0010
0000
0200
0000
0000
0000
1300
0000
0001
0000
,
2000
0000
3020
0000
2030
0000
3010
0100
,
0020
0000
0030
0000
1000
0000
0000
0002
0000
0000
0000
0000
0003
0000
0000
0000
,
2001
0001
3002
0203
,
0301
1000
0000
0200
0000
0000
0000
0000
,
0300
0000
0020
0032
,
1003
0020
0000
2030
0000
0000
0000
0000
,
3000
0000
0002
0023
,
0032
2003
3020
2030
,
3002
0023
0230
0000
,
0000
0000
0000
0000
0300
0000
0000
0000
2000
0000
0000
3200
0000
0000
0320
0000
,
0032
0000
1003
0010
2000
0000
3001
0010
,
0002
0000
1003
0000
0010
0000
1000
0001
,
1000
0002
0103
0010
,
0100
0001
0100
0000
0002
0000
0000
0000
,
0003
0000
1000
0100
2000
0000
3001
0010
,
0002
0000
1003
0000
0100
0000
0010
0001
,
0010
0001
1000
0010
,
1000
0001
1000
0000
0020
0000
0000
0000
,
0030
0000
1000
0010
2000
0000
3001
0100
,
0001
0000
1000
0000
0010
0000
0100
0010
,
0100
0001
1000
0010
,
1000
0001
1000
0000
0200
0000
0000
0000
,
0300
0000
0010
0001
0020
0000
0031
1000
,
0001
0000
1000
0001
2000
0000
3020
0000
,
0230
0302
2003
0000
,
0000
0000
3001
0000
,
0000
0000
0020
0000
0031
2000
0000
0000
,
0000
3001
0020
0000
0000
0230
0000
0000
,
2300
3002
0000
0003
,
1000
0010
2000
0000
0000
0000
3000
0000
,
0000
0002
0000
0000
,
0003
1000
0020
0000
0000
0000
2030
0000
,
3002
0203
0000
0000
,
0300
0001
2000
0000
3200
0000
0320
0000
,
0032
4003
0000
0000
,
3000
2002
0000
0000
,
3003
0000
0000
0000
;

//---------------dance-single - Easy----------------
#NOTES:
     dance-single:
     Ace Of Hearts (2011):
     Easy:
     3:
     0.169,0.000,0.022,0.184,0.000:
0000
0000
0000
0000
,
0000
0000
0000
0000
,
0000
0000
0000
0000
,
1000
1000
0010
0010
,
0000
2000
0000
3001
,
0010
0010
0001
0001
,
0000
2000
0000
3000
,
0010
0010
1000
1000
,
0000
0001
0001
0010
,
0010
0200
0000
0000
,
0000
0300
0000
0000
,
1000
1000
1000
0000
,
0001
0000
0100
0100
,
0200
0000
0300
0001
,
0002
0000
0003
0000
,
0010
0010
0010
0000
,
0001
0000
1000
1000
,
2000
0000
3000
0000
,
0020
0000
0000
0000
,
0030
0000
0000
0000
,
1000
1000
0001
0001
,
0010
0000
0001
0001
,
1000
0000
0010
0010
,
0200
0000
0300
0000
,
0010
0010
1000
1000
,
0001
0000
0010
0010
,
0001
0001
1000
0000
,
0100
0100
0200
0000
,
0300
0000
0010
0010
,
0010
0000
0000
0002
0000
0000
0000
0000
,
0003
0000
1000
1000
,
1000
0000
0000
0200
0000
0000
0000
0000
,
0300
0000
0010
0010
,
0010
0000
0001
0001
,
0001
0000
2002
0000
,
3003
0000
2200
0000
,
3300
0000
1000
1000
,
1000
0000
0001
0001
,
0001
0000
1000
0000
,
0010
0010
0020
0000
,
0030
0000
0100
0100
,
0100
0000
0001
0001
,
0001
0000
1000
0000
,
0100
0100
0200
0000
,
0300
0000
0010
0010
,
0010
0000
0100
0100
,
0100
0000
1000
0000
,
0001
0001
0002
0000
,
0003
0000
1000
1000
,
1000
0000
0010
0010
,
0010
0000
2000
0000
,
0000
0000
3000
0000
,
0000
0010
0010
0010
,
0000
1000
0000
0001
,
0001
0002
0000
0003
,
0010
0020
0000
0030
,
0000
0001
0001
0001
,
0000
1000
0000
0100
,
0100
0200
0000
0300
,
0000
2000
0000
0000
,
0000
3000
0000
0000
,
0000
2002
0000
0000
,
3003
0000
0000
0000
;

//---------------dance-single - Novice----------------
#NOTES:
     dance-single:
     Ace Of Hearts (2011):
     Beginner:
     1:
     0.101,0.000,0.007,0.162,0.000:
0000
0000
0000
0000
,
0000
0000
0000
0000
,
0000
0000
0000
0000
,
0000
0001
0000
0001
,
0000
0001
0000
0000
,
0000
0100
0000
0100
,
0000
0100
0000
0000
,
0000
0010
0000
0010
,
0000
0020
0000
0000
,
0000
0030
0000
0000
,
0000
0000
0000
0000
,
2000
0000
3000
0000
,
0001
0000
0001
0000
,
0002
0000
0000
0000
,
0003
0000
0000
0000
,
0020
0000
0030
0000
,
0100
0000
0100
0000
,
0200
0000
0000
0000
,
0300
0000
0000
0000
,
0000
0000
0000
0000
,
1000
0000
1000
0000
,
0001
0000
0001
0000
,
0010
0000
0010
0000
,
0020
0000
0030
0000
,
0100
0000
0100
0000
,
1000
0000
1000
0000
,
0001
0000
0001
0000
,
0002
0000
0003
0000
,
0000
0000
1000
0000
,
1000
0000
2000
0000
,
3000
0000
0010
0000
,
0010
0000
0020
0000
,
0030
0000
1000
0000
,
1000
0000
1000
0000
,
0000
0000
0002
0000
,
0003
0000
0020
0000
,
0030
0000
0001
0000
,
0001
0000
0001
0000
,
0000
0000
0100
0000
,
0100
0000
0200
0000
,
0300
0000
0001
0000
,
0001
0000
0001
0000
,
0000
0000
1000
0000
,
1000
0000
2000
0000
,
3000
0000
0010
0000
,
0010
0000
0010
0000
,
0000
0000
1000
0000
,
1000
0000
2000
0000
,
3000
0000
0001
0000
,
0001
0000
0002
0000
,
0003
0000
0020
0000
,
0000
0000
0030
0000
,
0000
0002
0000
0003
,
0000
1000
0000
1000
,
0000
2000
0000
0000
,
0000
3000
0000
0000
,
0000
0020
0000
0030
,
0000
0100
0000
0100
,
0000
0200
0000
0000
,
0000
0000
0000
0000
,
0000
0300
0000
0000
,
0000
2002
0000
0000
,
3003
0000
0000
0000
;

//---------------dance-double - Hard----------------
#NOTES:
     dance-double:
     Ace Of Hearts (2011):
     Hard:
     8:
     0.435,0.000,0.103,0.775,0.133: // measure 1
00000000
00000000
00000000
00000000
,  // measure 2
00000000
00000000
00000000
00000000
,  // measure 3
00000000
00000000
00000000
00000000
,  // measure 4
10000000
01000000
00200000
00000000
01300000
10000000
00020000
00000000
,  // measure 5
01030000
00000000
00010000
00000000
20000000
00000000
00000000
31000000
00100000
00000000
00001000
00000000
00010000
00000000
00000000
00000000
,  // measure 6
00000010
00001000
00000001
00000000
00000010
00000100
00001000
00000001
,  // measure 7
00000100
00000010
00020000
00000000
00000000
00000000
00030000
00000000
,  // measure 8
00001000
01000000
00020000
00000000
10030000
01000000
00100000
00000000
,  // measure 9
00001000
00010000
00000020
00000000
00002030
00000000
00003002
00000000
,  // measure 10
00000023
00000230
00000000
00000000
,  // measure 11
00000300
00000000
00011000
00010000
00000100
00010000
00000100
00010000
,  // measure 12
00002000
00000000
00000000
00103000
01000000
00000000
20000000
00000000
00000000
00000000
30010000
00000000
00010000
00000000
00100000
00010000
,  // measure 13
00200000
00000000
00000000
02300000
00000000
00000000
23000000
00000000
,  // measure 14
30020000
00000000
00000000
00000000
00000000
00000000
00000000
00000000
00030000
00000000
00000000
00000000
10000000
00000000
00010000
00100000
,  // measure 15
00020000
00000000
00000000
00030000
00100000
00001000
00010000
00000010
,  // measure 16
00002000
00000000
00000000
00003001
00000010
00000000
00000200
00000000
00000000
00000000
00001300
00000000
00001000
00000000
00000001
00000010
,  // measure 17
00000002
00000000
00002003
00003020
,  // measure 18
00020030
00000000
00000000
00000000
00000000
00000000
00000000
00000000
00000000
00000000
00000000
00000000
00030000
00000000
00001000
00010000
,  // measure 19
00002000
00203000
00320000
20030000
,  // measure 20
34000000
00000000
00000000
00000000
03000000
00000000
00100000
00010000
,  // measure 21
20000000
00000000
30010000
01000000
00000000
00000000
00010000
10000000
00020000
00000000
00130000
00001000
00000000
00000000
00020000
00000000
,  // measure 22
00030020
00000000
00001030
00000001
00000000
00000010
00000001
00000010
00000200
00000000
00000000
00000000
00010300
00000000
00001000
00000000
,  // measure 23
02000000
00000000
00000000
03010000
20000000
00000000
30000000
00000000
02000000
00000000
03100000
00000000
00001000
00000000
00010000
00000000
,  // measure 24
00000400
00000000
00000300
00000010
00000020
00000000
00000000
00000000
00000030
00000000
00000000
00000000
00000000
00000000
00000001
00000010
,  // measure 25
00000002
00000000
00001003
00000100
00000000
00000000
00010000
00001000
00020000
00000000
00031000
00100000
00000000
00000000
00010000
00000000
,  // measure 26
20000000
00000000
30010000
01000000
00000000
00000000
00100000
01000000
00200000
00000000
00000000
00000000
10300000
00000000
00010000
00000000
,  // measure 27
00200000
00000000
00000000
00301000
00020000
00000000
00030000
00000010
00002000
00000000
00003002
00000000
00000013
00000000
00000100
00000000
,  // measure 28
00002000
00000000
00003002
00000000
00000103
00000010
00000000
00020000
00000000
00000000
00000000
00000000
00030000
00000000
00000000
00000000
,  // measure 29
00020200
00030300
00000000
00000000
00000000
00000000
00000000
00000000
00011000
00000000
00000000
00000000
00000000
00000000
00000000
00000000
00020000
00000000
00000000
00000000
00000000
00000000
00000000
00000000
00030020
00000000
00000000
00000000
00000000
00000000
00000000
00000000
,  // measure 30
00001030
00000001
00000000
00000200
00000000
00000000
00000000
00000000
,  // measure 31
00000300
00000000
00000020
00020030
,  // measure 32
00030100
00010000
00000000
00002000
00000000
00000000
00000000
00000000
,  // measure 33
00003000
00000000
01001000
01010000
,  // measure 34
01100000
10100000
10010000
00110000
,  // measure 35
00101000
00011000
00020200
00000000
,  // measure 36
00000000
00000000
00000000
00000000
00030300
00000000
00000000
00000000
00000200
00000000
00000000
00000320
00000000
00000000
00000031
00000000
,  // measure 37
00002000
00000000
00003010
00000100
00000002
00000000
00000013
00000100
,  // measure 38
00002000
00000000
00000000
00000000
00003010
00000000
00010000
00000000
00002000
00000000
00000000
00103000
00010000
00000000
00100000
00000000
,  // measure 39
01000000
00000000
00100000
00010000
10000000
00000000
00100000
01000000
,  // measure 40
00020000
00000000
00000000
10030000
00100000
00000000
01000000
00000000
00002000
00000000
00000000
00000000
00000000
00000000
00000000
00000000
,  // measure 41
00003000
00000000
00010000
00000010
00002000
00000000
00003001
00000100
,  // measure 42
00000020
00000000
00000000
00000000
00001030
00000000
00000100
00000000
00020000
00000000
00000000
00030100
00010000
00000000
00001000
00000000
,  // measure 43
01000000
00000000
00100000
10000000
00020000
00000000
00130000
01000000
,  // measure 44
10000000
00010000
01000000
00100000
20000000
00000000
32000000
00000000
,  // measure 45
03200000
00000000
00301000
00010000
00000020
00000000
00001030
00000001
,  // measure 46
00000200
00000000
00000000
00000000
00000310
00000000
00001000
00000000
00000002
00000000
00000000
00001003
00000010
00000000
00010000
00000000
,  // measure 47
00001000
00000000
00100000
00001000
00010000
00000000
00001000
00100000
,  // measure 48
00020000
00000000
00000000
10030000
00100000
00000000
01000000
00000000
00020000
00000000
00000000
00000000
00000000
00000000
00000000
00000000
,  // measure 49
00030000
00000000
10000000
01000000
00200000
00000000
00301000
00010000
,  // measure 50
00000200
00000000
00000310
00000100
00002000
00000000
00003002
00000000
,  // measure 51
00000203
00000320
00020030
00000000
,  // measure 52
00000000
00000000
00000000
00000000
00000000
00000000
00000000
00000000
00030000
00000000
00000000
00000000
00000000
00000000
00000000
00000000
00022000
00033000
00000000
00000000
00001000
00000000
00000000
00000000
00100000
00000000
00000000
00000000
00001000
00000000
00000000
00000000
,  // measure 53
00010000
00000000
00000100
00000000
00000020
00000000
00000000
00000130
00001000
00000000
00000002
00000000
00000000
00000000
00001003
00000000
,  // measure 54
00001000
00000000
00000010
00001000
00000020
00000000
00000000
00000000
00000000
00000000
00000230
00000000
00000000
00000000
00000000
00000000
,  // measure 55
00000302
00002003
00000000
00003000
,  // measure 56
00000100
00000000
00010000
00001000
00020000
00000000
00000000
00000000
00000000
00000000
00000000
00000000
00031000
00000000
00100000
00000000
,  // measure 57
00010000
10000000
02000000
00000000
00000000
23000000
00000000
00000000
,  // measure 58
00000000
00000000
30010000
01000000
00020000
00000000
00000000
00000000
00000000
00000000
00000000
00000000
00230000
00000000
00000000
00000000
,  // measure 59
00302000
00023000
00000000
00000000
,  // measure 60
00030000
00000000
00000010
00001000
00000020
00000000
00000000
00000000
00000230
00000000
00000000
00000000
00000302
00000000
00000000
00000000
,  // measure 61
00002003
00003400
00000000
00000000
,  // measure 62
00000300
02000200
00000000
00000000
,  // measure 63
00000000
00000000
00000000
00000000
00000000
00000000
00000000
03000300
00000000
00000000
00000000
00000000
00000000
00000000
00000000
00000000
00000000
00000000
00000000
00000000
00000000
00000000
00000000
00000000
00000000
00000000
00000000
00000000
00000000
00000000
00000000
00000000
;
