#TITLE:You Are An Idiot!;
#SUBTITLE:;
#ARTIST:Oniku1234;
#TITLETRANSLIT:;
#SUBTITLETRANSLIT:;
#ARTISTTRANSLIT:;
#GENRE:;
#CREDIT:Ace Of Hearts;
#BANNER:This is the Banner, You Idiot.png;
#BACKGROUND:This is the Background, You Idiot.png;
#LYRICSPATH:;
#CDTITLE:Ace Of Hearts.png;
#MUSIC:You Are An Idiot!.ogg;
#OFFSET:2.720;
#SAMPLESTART:75.260;
#SAMPLELENGTH:12.000;
#SELECTABLE:YES;
#BPMS:0.000=172.290,352.000=66.000;
#STOPS:;
#BGCHANGES:3.750=This is the Video^ You Idiot.avi=1.000=0=0=1=====,
99999=-nosongbg-=1.000=0=0=0 // don't automatically add -songbackground-
;
#FGCHANGES:;
#KEYSOUNDS:;

//---------------dance-single - Expert Insanity!----------------
#NOTES:
     dance-single:
     Ace Of Hearts (2011):
     Challenge:
     11:
     1.000,0.000,0.359,0.487,1.000:
0000
0000
0000
0000
,
0000
0000
0000
0000
,
0000
0000
0000
0000
,
1000
1000
1000
1000
,
0001
0000
0100
0001
0100
0000
0010
1000
0010
0100
0010
1000
0001
0000
1000
0010
,
1000
0000
0001
0100
0001
0000
1000
0001
1000
0100
0010
0100
1000
0000
0001
0000
,
0100
0000
0001
1000
0001
0000
0100
0001
1000
0100
0010
0001
1000
0000
0100
0010
,
0001
0000
1000
0001
0010
0000
0100
1000
0001
0010
0100
1000
0001
1000
0001
0100
,
0020
0000
1030
0001
0100
0000
0001
1000
0001
0010
0001
1000
0010
0000
0100
0001
,
0010
0000
0100
1000
0001
0000
1000
0010
0100
0001
0100
0010
1000
0000
0001
0000
,
0010
0000
0001
1000
0010
0000
0100
0010
1000
0001
0010
0100
1000
0000
0001
0000
,
0100
0000
0010
0000
0100
0000
0001
0000
1000
0100
0010
0001
0010
0100
1000
0001
,
0100
0000
0010
0000
0100
0001
2000
0000
3001
0010
0200
0000
0310
0001
2000
0000
,
3001
0100
0020
0000
1030
0001
0200
0000
0301
1000
0020
0000
1030
0001
2000
0000
,
3001
0010
0200
0000
0310
0001
2000
0000
3010
0100
0002
0000
1003
0010
0200
0000
,
0310
1000
0002
0000
0013
0100
2000
0000
3001
0010
0100
1000
0100
0010
0001
1000
,
0001
0000
0200
0000
0310
1000
0002
0000
0013
0100
2000
0000
3001
0100
0020
0000
,
1030
0001
0200
0000
0301
1000
0002
0000
0013
0100
2000
0000
3001
0100
0020
0000
,
0130
0001
1000
0001
0100
0010
1000
0001
1000
0100
0010
0100
1000
0001
0100
0010
,
2000
0000
0000
0000
0000
0000
0000
3000
,
1010
0000
0010
1000
1001
0001
0010
0000
,
0110
0000
0010
0100
1100
1000
0001
0000
,
0101
0000
0100
0010
1010
1000
0001
0000
,
0011
0000
0000
0000
0010
0000
0100
0000
1100
0000
1000
0000
0100
0010
0001
0010
,
0100
0000
1000
0001
0101
0100
0010
0000
,
1010
0000
0010
0100
0101
0001
1000
0001
,
0011
0000
0010
0100
1100
1000
0001
0000
,
0101
0000
0000
0000
0100
0000
0010
0000
1010
0000
1000
0000
0001
0010
0100
0010
,
0001
0000
1000
0010
0110
0100
0001
0000
,
0011
0000
0010
0100
1100
1000
0001
1000
,
1100
0000
0100
0010
0110
0100
1000
0000
,
1001
0000
0000
0000
0001
0000
0100
0000
0110
0000
0010
0000
1000
0001
0100
0001
,
1000
0000
0100
0010
0011
0001
1000
0000
,
1010
0000
0000
0000
0010
0000
0100
0000
0110
0000
0010
0000
1000
0000
0001
0100
,
0001
0000
0000
1000
0000
0000
0001
0000
0000
0010
0000
0000
0001
0000
0000
1000
0000
0000
0100
0000
0000
0010
0000
0000
0100
0000
0000
1000
0000
0000
0001
0000
0000
0100
0000
0000
0001
0000
0000
1000
0000
0000
0100
0000
1000
0000
0100
0000
,
1000
0000
0000
0000
0000
0000
0001
0000
0000
0000
0000
0000
1000
0000
0000
0010
0000
0000
0000
0000
1000
0000
0000
0000
0000
0000
0000
0001
0000
0000
0100
0000
0000
0000
0000
0000
0001
0000
1000
0000
0001
0000
1000
0000
0000
0010
0000
0000
,
0100
0001
0000
0001
1000
0000
0010
0100
0010
0000
0010
0000
0200
0000
0000
0301
,
1000
0010
0000
0010
0100
0000
0001
1000
0010
0000
0010
0000
2000
0000
0000
3100
,
0010
0001
0000
0001
0100
0000
0100
0010
1000
0000
1000
0000
0200
0000
0000
0310
,
0001
1000
0000
1000
0010
0000
0010
0100
0001
0000
0001
0000
0010
0001
1000
0010
,
0100
0001
0000
0001
0100
0000
0100
0010
1000
0000
1000
0000
0002
0000
0000
0013
,
0100
1000
0000
1000
0010
0000
0010
0100
0001
0000
0001
0000
0200
0000
0000
0310
,
1000
0001
0000
0001
0010
0000
0010
0100
1000
0000
1000
0000
0020
0000
0000
1030
,
0001
0010
0000
0010
0001
0000
0001
1000
0010
0000
0010
0000
0200
0000
0000
0000
,
0301
1000
0000
1000
0100
0000
0100
0010
0001
0000
0001
0000
2000
0000
0000
3010
,
0100
0001
0000
0001
1000
0000
1000
0100
0010
0000
0010
0000
0200
0000
0000
1300
,
0001
0100
0000
0100
0010
0000
0010
1000
0001
0000
0001
0000
0020
0000
0000
0031
,
1000
0010
0000
0010
0100
0000
0100
0001
1000
0000
1000
0000
0001
0100
0010
0100
,
0001
1000
0000
1000
0100
0000
1000
0001
0100
0000
0010
0000
2000
0000
0000
3001
,
0100
0010
0000
0010
1000
0000
1000
0001
0010
0000
0010
0000
0200
0000
0000
1300
,
0001
0100
0001
1000
0100
0010
0001
0010
0100
1000
0001
0100
0010
1000
0001
0010
,
0200
0000
0000
0300
,
1100
0000
1000
0001
0101
0100
0010
0000
,
1010
0000
0000
0010
0100
0000
0001
0000
1000
0000
0100
0000
0020
0000
0030
0000
,
0110
0100
1000
0001
0200
0000
0300
0000
,
0001
0000
1000
0000
0100
0000
0010
0100
1000
0001
0100
0010
0100
0001
1000
0100
,
0010
0000
0100
1000
1001
0001
0100
0000
,
0110
0000
0000
0010
1000
0000
0001
0000
0010
0000
0100
0000
2000
0000
3000
0000
,
1010
0000
0010
0000
0100
0000
0001
0000
0200
0000
0000
0000
0301
1000
0001
0100
,
0001
1000
0001
1000
0001
1000
0001
1000
,
1010
0000
0010
0100
0101
0001
1000
0000
,
1100
0000
0000
0100
0010
0000
0001
0000
1000
0000
0010
0000
0200
0000
0300
0000
,
0101
0001
1000
0100
0020
0000
0030
0000
,
0100
0000
1000
0000
0001
0000
1000
0010
0100
0001
0100
0010
1000
0001
0010
0100
,
1000
0000
0001
0100
0110
0010
1000
0000
,
1100
0000
0000
0100
0010
0000
0001
0000
0010
0000
0100
0000
2000
0000
3000
0000
,
1010
0000
0010
0000
0100
0000
0001
0000
0200
0000
0000
0000
0310
0100
0001
1000
,
0100
0000
0000
0010
0000
0000
0001
0000
0000
0000
0000
0000
0010
0000
0000
0100
0000
0000
1000
0000
0000
0000
0000
0000
0001
0000
0000
0100
0000
0000
0010
0000
0000
1000
0000
0000
0001
0000
0010
0000
0001
0000
0010
0000
0001
0000
0010
0000
,
0001
0000
1000
0010
0110
0100
0001
0000
,
0101
0000
0000
0000
0100
0000
0010
0000
1010
0000
1000
0000
0100
0000
0010
0001
,
1000
0000
0000
0000
0000
0000
0010
0000
0000
0100
0000
0000
0110
0000
0000
0000
0000
0000
1010
0000
0000
1000
0001
1000
,
0001
0000
0000
0000
0000
0000
0010
0000
0000
0000
0000
0000
0001
0000
0000
1000
0000
0000
0000
0000
0001
0000
0000
0000
0000
0000
0000
1000
0000
0000
0100
0000
0000
0000
0000
0000
0010
0000
0100
0000
0010
0000
0100
0000
0000
0000
0000
0000
,
1000
0001
0000
0001
0010
0000
0100
0010
0001
0000
1000
0000
0020
0000
0000
0130
,
0001
1000
0000
1000
0100
0000
0100
0010
0001
0000
0001
0000
2000
0000
0000
3010
,
0100
0001
0000
0001
1000
0000
0100
0010
0001
0000
1000
0000
0020
0000
0000
0130
,
0001
1000
0000
1000
0100
0000
0100
1000
0001
0000
0001
0000
0100
0010
1000
0001
,
1000
0001
0000
0001
0010
0000
0010
0001
1000
0000
1000
0000
0020
0000
0000
0130
,
0001
1000
0000
1000
0100
0000
0100
0010
0001
0000
0001
0000
2000
0000
0000
3010
,
0100
0001
0000
0001
1000
0000
1000
0010
0100
0000
0100
0000
0002
0000
0000
1003
,
0100
0010
0000
0010
0100
0000
0100
1000
0001
0000
0001
0000
0200
0000
0000
0000
,
0310
1000
0000
1000
0001
0000
0001
0010
0100
0000
0100
0000
0020
0000
0000
0031
,
1000
0010
0000
0010
0100
0000
0100
0001
1000
0000
1000
0000
0200
0000
0000
0310
,
0001
1000
0000
1000
0001
0000
0001
0100
0010
0000
0010
0000
2000
0000
0000
3001
,
0010
0100
0000
0100
0010
0000
0010
0001
1000
0000
1000
0000
0010
1000
0001
0100
,
0020
0000
0000
0000
0030
0000
1000
0001
1000
0100
0010
0001
1000
0001
0010
0100
,
2000
3001
0010
0001
1000
0010
0100
0010
1000
0001
0010
0100
1000
0100
0010
0001
,
2000
3010
0100
0010
1000
0001
0010
0100
0020
0031
1000
0001
0100
0010
1000
0001
,
2000
0000
0000
0000
0000
0000
0000
0000
0000
0000
0000
0000
3001
0100
0001
0100
0001
0100
0001
0100
0001
1000
0000
0000
,
2002
0000
0000
0000
,
0000
0000
3003
0000
;

//---------------dance-single - Hard Idiocy----------------
#NOTES:
     dance-single:
     Ace Of Hearts (2011):
     Hard:
     9:
     0.693,0.000,0.024,0.319,0.283: // measure 1
0000
0000
0000
0000
,  // measure 2
0000
0000
0000
0000
,  // measure 3
0000
0000
0000
0000
,  // measure 4
0001
0001
0001
0001
,  // measure 5
1000
0010
1000
0001
0010
0001
1000
0010
,  // measure 6
0100
0010
1000
0001
0010
0100
1000
0100
,  // measure 7
0010
0001
1000
0001
0100
0010
0100
0001
,  // measure 8
1000
0000
0100
0000
0010
0000
0001
0000
0010
0000
0100
0000
1000
0001
1000
0001
,  // measure 9
1000
0010
0100
0001
1000
0001
0010
0100
,  // measure 10
1000
0001
0010
0001
1000
0010
0100
0010
,  // measure 11
1000
0001
0010
0100
1000
0001
0100
0001
,  // measure 12
1000
0000
0001
0000
0010
0000
0100
0000
1000
0000
0001
0000
1000
0001
1000
0001
,  // measure 13
1000
0010
1000
0010
0100
0001
1000
0100
,  // measure 14
0010
0100
1000
0001
0010
0100
1000
0100
,  // measure 15
0010
0001
1000
0001
0100
0010
1000
0001
,  // measure 16
0010
0000
0001
0000
1000
0000
0010
0000
0100
0000
0001
0000
1000
0001
1000
0001
,  // measure 17
1000
0010
1000
0001
0010
0100
0010
0001
,  // measure 18
1000
0010
0100
0010
1000
0001
0010
0100
,  // measure 19
4000
0004
0000
0000
0000
0000
0000
0000
0000
0000
0000
0000
0000
0000
3003
0000
,  // measure 20
2002
0000
0000
0000
0000
0000
0000
3003
,  // measure 21
1000
0000
0010
0100
0010
0010
1000
0000
,  // measure 22
0001
0000
0010
0001
1000
1000
0010
0000
,  // measure 23
0100
0000
0001
1000
0100
0100
0010
0000
,  // measure 24
0100
0000
0000
0000
1000
0000
0001
0000
0100
0000
0100
0000
0010
1000
0010
0000
,  // measure 25
0100
0000
0001
1000
0100
0100
0010
0000
,  // measure 26
0001
0000
1000
0010
0100
0100
0001
0000
,  // measure 27
0010
0000
0001
1000
0010
0010
1000
0000
,  // measure 28
0001
0000
0000
0000
0010
0000
0100
0000
1000
0000
1000
0000
0001
1000
0001
0000
,  // measure 29
0100
0000
0010
0100
0001
0001
1000
0000
,  // measure 30
0010
0000
1000
0001
0010
0010
0100
0000
,  // measure 31
0010
0000
0001
1000
0010
0010
0100
0000
,  // measure 32
0010
0000
0000
0000
1000
0000
0001
0000
0010
0000
0010
0000
0100
1000
0100
0000
,  // measure 33
0010
0000
0001
1000
0001
0001
0100
0000
,  // measure 34
0010
0000
0100
0010
1000
1000
0001
0000
,  // measure 35
0010
0000
0001
1000
0001
0001
0040
0000
,  // measure 36
0030
0000
0000
0004
,  // measure 37
1003
0010
0000
0010
1000
0000
0010
0000
0100
0000
0001
0000
2000
0000
0000
0000
,  // measure 38
3001
0010
0000
0010
0001
0000
1000
0000
0010
0000
0100
0000
0002
0000
0000
0000
,  // measure 39
1003
0100
0000
0100
1000
0000
0001
0000
0100
0000
0010
0000
0200
0000
0000
0000
,  // measure 40
0310
1000
0000
1000
0010
0000
0100
0000
0001
0000
1000
0000
0002
0000
0000
0000
,  // measure 41
0013
0100
0000
0100
0010
0000
0001
0000
1000
0000
0010
0000
2000
0000
0000
0000
,  // measure 42
3010
0100
0000
0100
0010
0000
1000
0000
0001
0000
0010
0000
0200
0000
0000
0000
,  // measure 43
1300
0001
0000
0001
1000
0000
0010
0000
0100
0000
0001
0000
0200
0000
0000
0000
,  // measure 44
0301
1000
0000
1000
0001
0000
0010
0000
0100
0000
0010
0000
0002
0000
0000
0000
,  // measure 45
1003
0010
0000
0010
1000
0000
0001
0000
0010
0000
0100
0000
2000
0000
0000
0000
,  // measure 46
3001
0100
0000
0100
0010
0000
1000
0000
0001
0000
1000
0000
0200
0000
0000
0000
,  // measure 47
0310
0001
0000
0001
1000
0000
0010
0000
0100
0000
0010
0000
2000
0000
0000
0000
,  // measure 48
3001
0010
0000
0010
0100
0000
1000
0000
0001
0000
1000
0000
0020
0000
0000
0000
,  // measure 49
1030
0001
0000
0001
0010
0000
0001
0000
1000
0000
0010
0000
0200
0000
0000
0000
,  // measure 50
0301
1000
0000
1000
0010
0000
0100
0000
0010
0000
1000
0000
0002
0000
0000
0000
,  // measure 51
4003
0040
0000
0000
0000
0000
0000
0000
0000
0000
0000
0000
0000
0000
3030
0000
,  // measure 52
0220
0000
0000
0330
,  // measure 53
0100
0000
0001
1000
0100
0100
0010
0000
,  // measure 54
0001
0000
0000
1000
0010
0000
1000
0000
0001
0000
0010
0000
0002
0000
0000
0000
,  // measure 55
1003
0010
0100
0001
2000
0000
3000
0000
,  // measure 56
0001
0010
0100
0010
0001
0000
1000
0000
,  // measure 57
0010
0000
0100
0010
1000
0001
0010
0000
,  // measure 58
0100
0000
0000
0010
0001
0000
1000
0000
0001
0000
1000
0000
0020
0000
0000
0000
,  // measure 59
1030
0001
0010
0100
2000
0000
3001
0000
,  // measure 60
0010
0001
0010
0001
0010
0001
0010
0001
,  // measure 61
1000
0000
0010
1000
0001
0001
0010
0000
,  // measure 62
0001
0000
0000
1000
0010
0000
0100
0000
0010
0000
1000
0000
0002
0000
0000
0000
,  // measure 63
1003
0100
0010
0001
2000
0000
3000
0000
,  // measure 64
0010
1000
0010
1000
0010
0000
0100
0000
,  // measure 65
0001
0000
1000
0100
0010
0010
0100
0000
,  // measure 66
1000
0000
0000
0001
0100
0000
0010
0000
0100
0000
0001
0000
2000
0000
0000
0000
,  // measure 67
3001
0010
0001
1000
0020
0000
1030
0010
,  // measure 68
1000
0000
0001
0000
0010
0001
0040
0000
,  // measure 69
0130
0000
1000
0001
0100
0100
0010
0000
,  // measure 70
1000
0000
0001
0010
0001
0001
1000
0010
,  // measure 71
0100
0000
0001
1000
0100
0100
4000
0000
,  // measure 72
3000
0000
0000
0004
,  // measure 73
1003
0100
0000
0100
0010
0000
0001
0000
1000
0000
0010
0000
0200
0000
0000
0000
,  // measure 74
0301
1000
0000
1000
0100
0000
0010
0000
0100
0000
1000
0000
0002
0000
0000
0000
,  // measure 75
0103
0010
0000
0010
1000
0000
0001
0000
0010
0000
0001
0000
2000
0000
0000
0000
,  // measure 76
3010
0100
0000
0100
0001
0000
1000
0000
0001
0000
0010
0000
0200
0000
0000
0000
,  // measure 77
0310
0001
0000
0001
1000
0000
0010
0000
0100
0000
0001
0000
2000
0000
0000
0000
,  // measure 78
3001
0010
0000
0010
0100
0000
0010
0000
0001
0000
1000
0000
0002
0000
0000
0000
,  // measure 79
1003
0010
0000
0010
0100
0000
0001
0000
1000
0000
0100
0000
0020
0000
0000
0000
,  // measure 80
0130
1000
0000
1000
0001
0000
0100
0000
0010
0000
1000
0000
0002
0000
0000
0000
,  // measure 81
1003
0100
0000
0100
0010
0000
0100
0000
1000
0000
0001
0000
0200
0000
0000
0000
,  // measure 82
0310
1000
0000
1000
0001
0000
0010
0000
0001
0000
1000
0000
0020
0000
0000
0000
,  // measure 83
0130
0001
0000
0001
1000
0000
0100
0000
0010
0000
0100
0000
2000
0000
0000
0000
,  // measure 84
3001
0100
0000
0100
0010
0000
0100
0000
0001
0000
1000
0000
0100
0000
0010
0000
,  // measure 85
0001
0000
0000
0000
0000
0000
0000
0000
4000
0004
0000
0000
0000
0000
0000
0000
,  // measure 86
3003
0000
0000
0000
0004
4000
0000
0000
0000
0000
0000
0000
0000
0000
0000
0000
,  // measure 87
3003
0000
0000
0000
4000
0004
0000
0000
0000
0000
0000
0000
0000
0000
3003
0000
,  // measure 88
0002
0000
0000
0000
0000
0000
0000
0000
0000
0000
0000
0000
4003
0040
0000
0000
0000
0000
0000
0000
0000
3030
0000
0000
,  // measure 89
2002
0000
0000
0000
,  // measure 90
0000
0000
3003
0000
;

//---------------dance-single - Medium Debauchery----------------
#NOTES:
     dance-single:
     Ace Of Hearts (2011):
     Medium:
     7:
     0.447,0.000,0.008,0.112,0.000:
0000
0000
0000
0000
,
0000
0000
0000
0000
,
0000
0000
0000
0000
,
0000
0000
0000
0000
,
0001
0010
0001
0010
,
0100
1000
0100
1000
,
0001
1000
0001
1000
,
0010
0000
1000
0000
0010
0000
1000
0001
,
1000
0010
0100
0001
,
1000
0010
1000
0001
,
0010
0100
1000
0001
,
1000
0000
0010
0000
0100
0000
0001
1000
,
0001
1000
0100
1000
,
0001
0100
0010
0100
,
0001
1000
0100
0010
,
0001
0000
1000
0000
0010
0000
1000
0010
,
1000
0001
0010
0100
,
0010
0001
1000
0001
,
0400
0000
0000
0300
,
0020
0000
0000
0030
,
1000
0000
0001
0100
0001
0000
1000
0000
,
0010
0000
1000
0001
1000
0000
0010
0000
,
1000
0000
0001
0010
0001
0000
1000
0000
,
0010
0000
0100
0001
0100
0000
0010
0000
,
1000
0000
0001
0010
0001
0000
1000
0000
,
0100
0000
0010
0001
0010
0000
0100
0000
,
1000
0000
0001
0100
0001
0000
1000
0000
,
0010
0000
0100
0001
0100
0000
0010
0000
,
1000
0000
0001
0010
0001
0000
1000
0000
,
0001
0000
0010
0100
0010
0000
0001
0000
,
1000
0000
0010
1000
0010
0000
0100
0000
,
0001
0000
1000
0001
1000
0000
0100
0000
,
0010
0000
0001
1000
0001
0000
0100
0000
,
0010
0000
1000
0010
1000
0000
0001
0000
,
0010
0000
0001
1000
0001
0000
0100
0000
,
0010
0000
0000
0000
,
1000
0001
1000
0000
0010
0000
0100
0000
,
0001
1000
0001
0000
0010
0000
0100
0000
,
1000
0001
1000
0000
0010
0000
0100
0000
,
0001
0100
0001
0000
1000
0000
0010
0000
,
0100
0001
0100
0000
0010
0000
1000
0000
,
0001
0010
0001
0000
1000
0000
0100
0000
,
1000
0001
1000
0000
0010
0000
1000
0000
,
0001
0100
0001
0000
1000
0000
0010
0000
,
1000
0001
1000
0000
0001
0000
0010
0000
,
0100
0010
0100
0000
1000
0000
0001
0000
,
1000
0010
1000
0000
0001
0000
0100
0000
,
0010
0100
0010
0000
1000
0000
0001
0000
,
0010
0001
0010
0000
0100
0000
1000
0000
,
0001
1000
0001
0000
0100
0000
0010
0000
,
4000
0000
0000
3000
,
0002
0000
0000
0003
,
1000
0000
0010
1000
0010
1000
0010
0000
,
1000
0000
0001
0100
0001
0100
0002
0000
,
1003
0010
1000
0010
2000
0000
3000
0000
,
0001
0010
0002
0003
,
1000
0000
0001
0010
0001
0010
0001
0000
,
1000
0000
0010
1000
0010
1000
0020
0000
,
1030
0001
1000
0001
2000
0000
3000
0000
,
0010
0010
0010
0010
,
1000
0000
0001
0100
0001
0100
0001
0000
,
1000
0000
0001
0010
0001
0010
0002
0000
,
1003
0100
1000
0100
2000
0000
3000
0000
,
0001
1000
0010
1000
,
0001
0000
0100
0001
0100
0001
0100
0000
,
0010
0000
1000
0001
1000
0001
2000
0000
,
3010
0100
0010
0100
0020
0000
0030
0000
,
1000
0000
1000
0000
0001
0010
0001
0000
,
1000
0000
0001
0100
0001
0000
1000
0000
,
0001
0000
1000
0010
1000
0000
0010
0000
,
0100
0001
1000
0001
,
1000
0000
0000
0000
,
0010
1000
0010
0000
1000
0000
0001
0000
,
0010
0100
0010
0000
0001
0000
1000
0000
,
0010
1000
0010
0000
0100
0000
0010
0000
,
1000
0001
1000
0000
0001
0000
0010
0000
,
0100
1000
0100
0000
0010
0000
0001
0000
,
1000
0001
1000
0000
0010
0000
0100
0000
,
0010
1000
0010
0000
1000
0000
0001
0000
,
0010
0001
0010
0000
0001
0000
1000
0000
,
0010
1000
0010
0000
0100
0000
0001
0000
,
1000
0010
1000
0000
0001
0000
0010
0000
,
0100
0010
0100
0000
1000
0000
0001
0000
,
1000
0001
1000
0000
0100
0000
0010
0000
,
0001
0010
0001
0000
4000
0000
0000
0000
,
3000
0040
0000
0000
,
0030
0400
0000
0300
,
0002
0000
0000
0000
4003
0000
0000
3000
,
2002
0000
0000
0000
,
3003
0000
0000
0000
;

//---------------dance-single - Easy Stupidity----------------
#NOTES:
     dance-single:
     Ace Of Hearts (2011):
     Easy:
     5:
     0.252,0.000,0.008,0.056,0.000:
0000
0000
0000
0000
,
0000
0000
0000
0000
,
0000
0000
0000
0000
,
0000
0000
0000
0000
,
1000
0000
1000
0000
,
0010
0000
0010
0000
,
0100
0000
0100
0000
,
0001
0000
0001
0000
,
1000
0000
1000
0000
,
0100
0000
0100
0000
,
0010
0000
0010
0000
,
0001
0000
0001
0000
,
1000
1000
1000
0000
,
0001
0001
0001
0000
,
0010
0010
0010
0000
,
0001
0001
0001
0000
,
1000
1000
1000
0000
,
0010
0010
0010
0000
,
4000
0000
0000
0000
,
3002
0000
0003
0000
,
1000
1000
1000
0000
,
0010
0010
0010
0000
,
0100
0100
0100
0000
,
0001
0001
0001
0000
,
1000
1000
1000
0000
,
0001
0001
0001
0000
,
0010
0010
0010
0000
,
0100
0100
0100
0000
,
1000
1000
1000
0000
,
0001
0001
0001
0000
,
0100
0100
0100
0000
,
0010
0010
0010
0000
,
1000
1000
1000
0000
,
0001
0001
0001
0000
,
0010
0010
0010
0000
,
0000
0000
0000
0000
,
0001
1000
0001
0000
,
1000
0010
1000
0000
,
0001
0010
0001
0000
,
1000
0010
1000
0000
,
0001
0100
0001
0000
,
1000
0001
1000
0000
,
0001
0010
0001
0000
,
1000
0100
1000
0000
,
0001
1000
0001
0000
,
0010
0001
0010
0000
,
0001
1000
0001
0000
,
0100
0001
0100
0000
,
0001
1000
0001
0000
,
1000
0100
1000
0000
,
0004
0000
0000
0000
,
0003
0000
0000
0000
,
1000
1000
1000
0000
,
0010
1000
0010
0000
,
0100
0100
0100
0000
,
0000
0000
0000
0000
,
0001
0001
0001
0000
,
0010
0001
0010
0000
,
0100
0100
0100
0000
,
2000
0000
3000
0000
,
0001
0001
0001
0000
,
1000
0010
1000
0000
,
0010
0010
0010
0000
,
0000
0000
0000
0000
,
0100
0100
0100
0000
,
0001
1000
0001
0000
,
0010
0010
0010
0000
,
0004
0000
0000
0003
,
1000
1000
1000
0000
,
0010
0010
0010
0000
,
1000
0000
1000
0000
,
1000
0000
0000
0000
,
0001
0010
0001
0000
,
1000
0100
1000
0000
,
0001
0100
0001
0000
,
1000
0010
1000
0000
,
0001
1000
0001
0000
,
0010
0001
0010
0000
,
0100
1000
0100
0000
,
1000
0001
1000
0000
,
0010
1000
0010
0000
,
0100
0001
0100
0000
,
0001
1000
0001
0000
,
0010
0001
0010
0000
,
0002
0000
0003
0000
,
2000
0000
3000
0000
,
0100
0000
0100
0000
,
0020
0000
0030
0000
,
2002
0000
3003
0000
;

//---------------dance-single - Novice Noobishness----------------
#NOTES:
     dance-single:
     Ace Of Hearts (2011):
     Beginner:
     2:
     0.173,0.000,0.008,0.311,0.000:
0000
0000
0000
0000
,
0000
0000
0000
0000
,
0000
0000
0000
0000
,
0000
0000
0000
0000
,
0001
0000
0000
0000
,
0001
0000
0000
0000
,
1000
0000
0000
0000
,
1000
0000
0000
0000
,
0010
0000
0000
0000
,
0010
0000
0000
0000
,
1000
0000
0000
0000
,
1000
0000
0000
0000
,
0001
0000
0001
0000
,
0010
0000
0010
0000
,
0001
0000
0001
0000
,
1000
0000
1000
0000
,
0010
0000
0010
0000
,
1000
0000
1000
0000
,
0002
0000
0000
0000
,
0003
0000
0000
0000
,
1000
0000
1000
0000
,
0010
0000
0010
0000
,
1000
0000
1000
0000
,
0001
0000
0001
0000
,
0010
0000
0010
0000
,
0001
0000
0001
0000
,
1000
0000
1000
0000
,
0010
0000
0010
0000
,
1000
0000
1000
0000
,
0001
0000
0001
0000
,
0100
0000
0100
0000
,
0001
0000
0001
0000
,
1000
0000
1000
0000
,
0001
0000
0001
0000
,
0010
0000
0010
0000
,
0000
0000
0000
0000
,
0002
0000
0003
0000
,
2000
0000
3000
0000
,
0020
0000
0030
0000
,
0200
0000
0300
0000
,
0002
0000
0003
0000
,
2000
0000
3000
0000
,
0200
0000
0300
0000
,
0020
0000
0030
0000
,
0002
0000
0003
0000
,
2000
0000
3000
0000
,
0020
0000
0030
0000
,
2000
0000
3000
0000
,
0002
0000
0003
0000
,
0020
0000
0030
0000
,
0002
0000
0000
0000
,
0003
0000
0000
0000
,
1000
0000
1000
0000
,
0010
0000
0010
0000
,
0020
0000
0030
0000
,
0000
0000
0000
0000
,
0100
0000
0100
0000
,
0001
0000
0001
0000
,
0002
0000
0003
0000
,
2000
0000
3000
0000
,
0001
0000
0001
0000
,
0010
0000
0010
0000
,
0020
0000
0030
0000
,
0000
0000
0000
0000
,
0001
0000
0001
0000
,
1000
0000
1000
0000
,
2000
0000
3000
0000
,
0020
0000
0030
0000
,
1000
0000
1000
0000
,
0001
0000
0001
0000
,
0010
0000
0001
0000
,
0000
0000
0000
0000
,
2000
0000
3000
0000
,
0020
0000
0030
0000
,
2000
0000
3000
0000
,
0002
0000
0003
0000
,
0020
0000
0030
0000
,
0002
0000
0003
0000
,
2000
0000
3000
0000
,
0020
0000
0030
0000
,
2000
0000
3000
0000
,
0002
0000
0003
0000
,
0020
0000
0030
0000
,
0002
0000
0003
0000
,
2000
0000
3000
0000
,
0020
0000
0030
0000
,
1000
0000
1000
0000
,
2000
0000
3000
0000
,
2002
3003
0000
0000
;
