#TITLE:Weeeek;
#SUBTITLE:;
#ARTIST:News;
#TITLETRANSLIT:;
#SUBTITLETRANSLIT:;
#ARTISTTRANSLIT:;
#GENRE:J-Capella;
#CREDIT:Ace Of Hearts;
#BANNER:Weeeek - Bn.png;
#BACKGROUND:Weeeek - Bg.jpg;
#LYRICSPATH:;
#CDTITLE:Ace Of Hearts.png;
#MUSIC:Weeeek.ogg;
#OFFSET:1.030;
#SAMPLESTART:71.000;
#SAMPLELENGTH:17.000;
#SELECTABLE:YES;
#BPMS:0.000=109.880,179.500=54.940,194.500=109.880;
#STOPS:194.500=0.546
;
#BGCHANGES:0.000=Weeeek Video.avi=1.000=0=0=0=StretchNoLoop====,
290.000=Weeeek - Bg.jpg=1.000=0=0=1=Centered====,
99999=-nosongbg-=1.000=0=0=0 // don't automatically add -songbackground-
;
#KEYSOUNDS:;

//---------------dance-single - Ace Of Hearts (2011)----------------
#NOTES:
     dance-single:
     Ace Of Hearts (2011):
     Challenge:
     12:
     0.827,0.402,0.730,0.601,0.776: // measure 1
0000
0000
0000
0000
,  // measure 2
2000
0000
0000
0000
3001
0010
0001
0000
1000
0000
0010
0000
1000
0000
0001
0000
1000
0100
1000
0000
0001
0010
0001
0000
1000
0000
0010
0000
0100
0000
0001
0000
,  // measure 3
1000
0000
0010
0000
1000
0000
0001
0010
0001
0000
1000
0000
0100
0000
1000
0000
0001
0100
0001
0000
1000
0010
1000
0000
0001
0000
0100
0000
0010
0000
0100
0000
,  // measure 4
0002
0000
1003
0000
0100
0000
0010
0001
0010
0000
0100
0000
1000
0000
0001
0000
1000
0010
1000
0000
0001
0100
0001
0000
1000
0000
0010
0000
1000
0000
0001
0000
,  // measure 5
1000
0000
1010
0000
0000
0000
1000
0000
1001
0000
0000
0000
0001
0000
0000
0000
1000
0000
0001
0100
0001
0000
1000
0000
0100
0000
0010
0000
0100
0000
1000
0000
,  // measure 6
1001
0000
0001
0000
0201
0000
0310
1000
1001
0000
0001
0000
0021
0000
0130
1000
,  // measure 7
1001
0001
0100
0010
1000
0001
0000
0100
0110
0000
0020
0000
0030
0000
1000
0001
,  // measure 8
0011
0000
0000
0001
1001
1000
1010
0010
0110
0000
0200
0000
0301
0000
1000
0000
,  // measure 9
1000
1100
1110
1111
0000
1000
1020
0130
,  // measure 10
0101
0000
0001
0000
2001
0000
3100
0010
0011
0000
0001
0000
2001
0000
3010
0100
,  // measure 11
0101
0001
1000
0100
0010
0100
0000
0010
0011
0000
0002
0000
0003
0000
1000
0010
,  // measure 12
0110
0000
0000
0100
0101
0001
1001
1000
1100
0000
0200
0000
0310
0000
0001
0000
,  // measure 13
0011
0000
0110
0000
1100
0000
1001
0000
0000
0000
0001
0000
1000
0000
0100
1000
,  // measure 14
0001
0100
0001
1000
0100
0010
0100
1000
0001
0100
0010
0100
0001
1000
0100
0010
,  // measure 15
0100
1000
0001
0100
0010
0100
0001
1000
0100
0010
0100
1000
0001
0100
0010
0100
,  // measure 16
0001
1000
0100
0010
0100
1000
0001
0100
0010
0100
0001
1000
0100
0010
0001
1000
,  // measure 17
0010
1000
0001
0010
0001
1000
0020
0000
0000
0000
0130
0000
0102
0000
1003
0100
,  // measure 18
0001
0000
0001
0100
1000
0000
1000
0010
0100
0010
1000
0001
0100
0000
0000
0010
,  // measure 19
1000
0001
0010
1000
0010
0001
1000
0001
0010
0000
0100
0000
1000
0000
0000
0001
,  // measure 20
0100
0000
1000
0100
0001
0000
1000
0001
1000
0100
0001
0100
1000
0000
0000
0000
,  // measure 21
0001
0000
0020
0000
0130
1000
0010
0100
0001
0000
0001
0100
1000
0000
1000
0100
,  // measure 22
0001
1000
0001
0010
0100
0000
2000
0000
3001
0010
1000
0010
0001
0000
0000
0010
,  // measure 23
0100
1000
0001
0100
1000
0100
0001
1000
0100
0010
1000
0010
0001
1000
0001
0100
,  // measure 24
0020
0000
0130
0000
0001
1000
0100
0010
0100
0000
2000
0000
3010
0000
0000
0100
,  // measure 25
0002
0000
1003
0100
0020
0000
0130
1000
0001
0000
0200
0000
0310
0000
1000
0000
,  // measure 26
0200
0000
0000
0000
0020
0000
0300
0000
2000
0030
0002
3000
0200
0003
0020
0300
,  // measure 27
0002
0030
2000
0003
0020
3000
0002
0030
2000
0003
0200
0000
3000
0000
0000
0000
,  // measure 28
0302
0000
0020
0003
2000
0030
0002
3000
0200
0000
0003
0000
0000
0000
2300
0000
,  // measure 29
0002
3000
0200
0003
0020
0300
2000
0030
0200
0000
3000
0000
0020
0300
0002
0030
,  // measure 30
0200
0000
0003
0000
0020
0000
0300
0000
0002
0030
2000
0003
0200
3000
0020
0300
,  // measure 31
2000
0030
0200
3000
0002
0300
2000
0003
0020
0000
3000
0000
0030
0000
0001
0000
,  // measure 32
1001
1000
0010
0100
0002
0000
1003
0100
,  // measure 33
0110
0000
0011
0000
1001
0000
2200
0000
0300
0000
3001
0100
0001
0000
1101
0000
,  // measure 34
2001
0000
3100
0000
0110
0000
0010
0001
1001
0000
1000
0000
1020
0000
0130
0001
,  // measure 35
1001
1000
0100
0010
0100
1000
0000
0001
0101
0100
0010
1000
0001
0010
0100
1000
,  // measure 36
0100
0000
0000
0010
0011
0001
1001
1000
1010
0000
0020
0000
0130
0000
0001
0000
,  // measure 37
0001
0011
0111
1111
0000
1000
1001
0001
,  // measure 38
0101
0000
0100
0000
0020
0000
1030
0001
0101
0000
0100
0000
0020
0000
1030
0001
,  // measure 39
0011
0010
0100
1000
0001
0100
0000
0010
0110
0100
0001
1000
0100
0010
0001
1000
,  // measure 40
0010
0000
0000
1000
1001
0001
0101
0100
0110
0000
0020
0000
1030
0000
0001
0000
,  // measure 41
0011
0110
1100
1001
0000
1000
0010
0100
,  // measure 42
0202
0000
0303
2001
3100
0010
0100
1000
,  // measure 43
1002
0000
0013
0210
0000
1300
0010
0100
,  // measure 44
0202
0000
0303
2001
3100
0010
0001
0100
,  // measure 45
0220
0000
0030
0301
0000
0000
2002
0000
3000
0000
0103
0000
0010
0000
2010
0000
,  // measure 46
3001
0100
0010
0200
0001
1000
0301
0000
1000
0100
0020
0000
0130
1000
0002
0000
,  // measure 47
0203
0000
2300
0000
3020
0000
0032
0000
0200
0000
0000
0000
0010
1000
0010
0000
,  // measure 48
1000
0010
1000
0303
0001
1000
0100
0001
1000
0010
0100
1000
0010
0001
1000
0100
,  // measure 49
0001
0000
0000
1000
0000
0000
0100
0000
0000
0001
0000
0000
1000
0000
0000
0010
0000
0000
0100
0000
0000
1000
0000
0000
0001
0000
0000
0100
0000
0000
0001
0000
0000
0000
0000
0000
1000
0000
0100
0000
0010
0000
0100
0000
0010
0000
0001
0000
,  // measure 50
1001
0000
1000
0000
1020
0000
0130
0001
1001
0000
1000
0000
1200
0000
0310
0001
,  // measure 51
1001
1000
0010
0100
0001
1000
0000
0100
0110
0010
0001
1000
0010
0100
0001
1000
,  // measure 52
0010
0000
0000
0100
0101
0001
1001
1000
1010
0000
0020
0000
1030
0000
0001
0000
,  // measure 53
1000
1100
1110
1111
0000
1000
1001
0001
,  // measure 54
0101
0000
0100
0000
0120
0000
1030
0001
0101
0000
0100
0000
0120
0000
1030
0001
,  // measure 55
0011
0010
0100
1000
0100
0010
0000
0001
1001
1000
0010
0100
0010
1000
0001
0010
,  // measure 56
0100
0000
0000
1000
1100
0100
0110
0010
0011
0000
0002
0000
1003
0000
0010
0000
,  // measure 57
0110
0000
0000
0101
0000
0000
1010
0000
0000
1001
0000
0000
0000
0000
0000
0001
0000
0000
1000
0010
0100
0010
0100
0001
,  // measure 58
1001
0000
1000
0000
1200
0000
0310
0001
1001
0000
1000
0000
1020
0000
0130
0001
,  // measure 59
1001
1000
0100
0010
0100
1000
0000
0001
0101
0100
0010
1000
0001
0010
0100
0010
,  // measure 60
0001
0000
0000
1000
1010
0010
0110
0100
0101
0000
0002
0000
1003
0000
0100
0000
,  // measure 61
1000
1100
1110
1111
0000
1000
1001
0001
,  // measure 62
0101
0000
0100
0000
0120
0000
1030
0001
0101
0000
0100
0000
0120
0000
1030
0001
,  // measure 63
0011
0010
0100
1000
0001
0100
0000
0010
1010
1000
0001
0010
0100
0010
0001
1000
,  // measure 64
0010
0000
0000
0100
0101
0001
1001
1000
1100
0000
0200
0000
0310
0000
0001
0000
,  // measure 65
1001
1010
0110
0202
0000
0000
0000
0303
,  // measure 66
1101
0000
0000
0000
1000
0000
0100
0010
0000
0001
0000
1000
0010
0100
0010
0000
,  // measure 67
1000
0000
0001
0000
1000
0000
0001
0010
0001
0000
1000
0100
1000
0000
0001
0000
1000
0010
1000
0000
0001
0000
0010
0000
0100
0000
1000
0000
0100
0000
0010
0000
,  // measure 68
0011
0000
0001
0000
1000
0000
0010
0000
0200
0000
0000
0000
0301
0000
1000
0000
0001
0010
0001
0000
1000
0100
1000
0000
0001
0000
0100
0000
0010
0000
0100
0000
,  // measure 69
0001
0000
0000
0000
0000
0000
0000
0000
0000
0000
0000
0000
1000
0000
0000
0000
0000
0000
0000
0000
0000
0000
0000
0000
0100
0000
0000
0000
0000
0000
0000
0000
0000
0000
0000
0000
0010
0000
0000
0000
0000
0000
0001
0000
0000
0000
0000
0000
0010
0000
0000
0000
0000
0000
0000
0000
0000
0000
0000
0000
0100
0000
0000
0000
0000
0000
0000
0000
0000
0000
0000
0000
1000
0000
0000
0000
0000
0000
0000
0000
0100
0000
0000
0000
0000
0000
0000
0000
0010
0000
0000
0000
0000
0000
0000
0000
0001
0000
0000
0000
0000
0000
0000
0000
0000
0000
0000
0000
1000
0000
0000
0000
0000
0000
0000
0000
0000
0000
0000
0000
0010
0000
0000
0000
0000
0000
0000
0000
0000
0000
0000
0000
1000
0000
0000
0000
0000
0000
0000
0000
0000
0000
0000
0000
0001
0000
0000
0000
0000
0000
0000
0000
0010
0000
0000
0000
0000
0000
0000
0000
0001
0000
0000
0000
0000
0000
0000
0000
1000
0000
0000
0000
0000
0000
0000
0000
0010
0000
0000
0000
0000
0000
0000
0000
1000
0000
0000
0000
0000
0000
0000
0000
,  // measure 70
2024
0030
0000
0000
,  // measure 71
0000
0000
0000
0000
,  // measure 72
3000
0000
0000
0000
,  // measure 73
0000
0000
0003
0000
;

//---------------dance-single - Ace Of Hearts (2011)----------------
#NOTES:
     dance-single:
     Ace Of Hearts (2011):
     Hard:
     10:
     0.621,0.000,0.152,0.584,0.520:
0000
0000
0000
0000
,
0000
0000
0000
0000
,
0000
0000
0000
0000
,
0002
0000
1003
0010
2000
0000
3001
0010
0000
0001
0000
1000
0010
0100
0001
0100
,
0010
1000
0000
0001
0100
0000
0001
0000
1000
0100
0010
0100
2000
0000
3000
0000
,
0002
0000
0103
0000
0020
0000
1030
0001
0100
0000
0010
0000
2000
0000
3001
0010
,
0100
1000
0100
0010
0001
1000
0000
0010
1000
0000
0002
0000
0003
0000
1000
0100
,
0010
0000
0000
0001
0010
0100
1000
0100
0010
0000
0002
0000
1003
0000
0010
0000
,
1010
0010
0100
0101
0000
0001
1000
0200
,
0310
0000
0100
0000
2000
0000
3001
0100
0010
0000
1000
0000
0002
0000
1003
0010
,
0100
0001
0100
0010
1000
0001
0000
1000
0010
0000
0200
0000
0300
0000
0001
1000
,
0100
0000
0000
0010
0001
0010
0100
1000
0001
0000
2000
0000
3010
0000
0100
0000
,
0101
0001
1000
1100
0000
0100
0020
0002
,
0000
0000
0000
0033
,
0001
0010
0100
1000
0100
0010
0001
1000
0001
1000
0010
0100
0001
0000
1000
0000
,
0100
0010
0100
1000
0001
0100
0010
0100
0001
1000
0001
0010
0100
0000
0010
0000
,
0002
0000
0000
0000
1003
0100
0020
0000
0000
0000
0130
0000
2000
0000
3001
0010
,
0100
0000
0010
0001
1000
0000
0020
0000
1030
0010
0100
0010
1000
0000
0000
0001
,
0010
0000
0001
1000
0010
1000
0001
0100
0010
0000
2000
0000
3001
0000
0000
0010
,
0100
0000
0010
0001
0010
0000
0001
1000
0010
1000
0001
0010
0100
0000
0000
0000
,
0010
0000
0002
0000
1003
0010
0100
0010
1000
0000
0001
0010
0001
0000
1000
0001
,
0010
0001
0010
0001
1000
0000
0010
0000
1000
0001
1000
0001
0100
0000
0000
0010
,
0100
0010
1000
0001
1000
0100
1000
0100
0010
0001
0010
0100
1000
0001
1000
0001
,
2000
0000
3010
0000
0100
0001
0100
0001
1000
0000
0020
0000
0130
0000
0000
0001
,
2000
0000
3001
0010
0002
0000
0013
0100
0010
0000
0002
0000
1003
0000
0010
0000
,
0200
0000
0302
0000
1003
0100
0010
0001
,
1000
0010
0100
0001
1000
0400
0000
0300
,
1000
0001
0100
0001
2000
0000
3000
0100
,
0010
0100
1000
0001
0200
0000
0310
1000
,
0002
0000
0023
0000
0130
1000
0001
0100
,
0010
0100
0001
1000
0020
0000
0030
1000
,
0001
0010
0100
0010
0002
0000
1003
0010
,
0100
0000
0001
0000
1000
0000
0200
0000
0000
0000
0310
0001
0010
0000
0100
0000
,
1000
0000
0001
0000
0200
0000
0310
1000
0001
0000
0010
0000
0200
0000
0310
0001
,
1000
0001
1000
0010
0100
0001
0000
1000
0100
0000
0020
0000
0030
0000
0100
1000
,
0001
0000
0000
1000
0010
1000
0001
0010
0100
0000
2000
0000
3001
0000
0100
0000
,
0110
0010
1000
1001
0000
0001
0010
0200
,
1300
0000
0001
0000
0200
0000
0310
1000
0001
0000
0010
0000
0200
0000
0310
0001
,
1000
0001
0100
0010
1000
0001
0000
1000
0010
0000
0200
0000
0300
0000
0001
1000
,
0100
0000
0000
0010
0100
1000
0100
0010
0001
0000
2000
0000
3010
0000
0100
0000
,
0101
0001
1000
1100
0000
0100
0010
0001
,
2002
0000
3003
2020
3000
0130
0001
1000
,
1200
0000
0310
0012
0000
1003
0010
0100
,
0202
0000
0303
2002
0003
3100
0010
0001
,
0201
0000
0000
0310
0000
0000
2010
0000
0000
0000
3001
0000
0010
0000
0200
0000
,
1300
0001
0010
0001
1000
0010
0100
0000
0001
1000
0200
0000
0310
0100
2000
0000
,
3002
0000
0023
0000
2030
0000
3020
0000
0032
0000
0003
0000
2000
0200
0010
3300
,
0002
0200
1000
0303
0001
1000
0100
0010
0100
1000
0001
0100
0010
0100
0001
1000
,
0100
0010
0100
1000
0001
0100
0001
1000
0100
0010
0001
0000
4000
0000
0000
3000
,
1010
0000
0010
0000
0200
0000
0301
1000
0100
0000
0010
0000
0200
0000
1300
0001
,
0100
0010
0100
0001
1000
0100
0000
0010
0001
0000
2000
0000
3000
0000
0010
0100
,
0001
0000
0000
0100
0010
1000
0010
0100
0001
0000
2000
0000
3100
0000
0010
0000
,
0200
2300
0002
0010
3003
0001
0100
0020
,
1030
0000
0001
0000
0010
0000
0100
1000
0001
0000
0100
0000
0020
0000
1030
0001
,
0010
0100
0010
0001
1000
0010
0000
1000
0001
0000
0020
0000
0030
0000
0100
1000
,
0001
0000
0000
1000
0010
0100
0010
1000
0001
0000
0020
0000
0130
0000
0010
0000
,
0200
0000
2300
0000
0002
0000
0010
0000
3003
0000
1000
0000
0400
0000
0000
0300
,
0110
0000
0010
0000
0001
0000
1000
0010
0100
0000
0001
0000
2000
0000
3100
0010
,
0100
1000
0001
0100
0010
1000
0000
0001
0010
0000
0200
0000
0300
0000
0010
0001
,
1000
0000
0000
0010
1000
0001
0010
0100
0010
0000
0002
0000
1003
0000
0010
0000
,
1010
2000
0002
0010
3003
1000
0100
0010
,
0011
0000
0001
0000
2000
0000
3010
0100
0001
0000
1000
0000
0200
0000
0310
0100
,
1000
0001
0100
0010
0100
0001
0000
1000
0100
0000
0020
0000
0030
0000
0100
1000
,
0001
0000
0000
1000
0010
0100
0010
1000
0001
0000
0010
0000
0100
0000
1000
0000
,
1001
0011
0110
2200
0000
0000
0000
3300
,
1001
0000
0000
0000
0002
0000
1003
0010
0000
1000
0000
0001
0010
0001
1000
0000
,
0010
0100
0010
1000
0002
0000
0013
0100
0000
0010
0001
1000
0001
0100
0001
1000
,
0020
0000
1030
0001
0200
0000
0301
1000
0000
0010
0000
1000
0001
0010
0200
0000
,
0320
0000
0031
1000
0002
0000
1003
0010
0000
0100
0001
1000
0040
0000
0000
0030
,
2004
0000
0000
0000
,
0000
0000
0000
0000
,
3000
0000
0000
0000
,
0000
0000
0003
0000
;

//---------------dance-single - Ace Of Hearts (2011)----------------
#NOTES:
     dance-single:
     Ace Of Hearts (2011):
     Medium:
     7:
     0.385,0.000,0.012,0.204,0.050:
0000
0000
0000
0000
,
0000
0000
0000
0000
,
0000
0000
0000
0000
,
0000
0000
0000
0000
,
0000
0000
0000
0000
,
1000
0010
1000
0001
0010
0001
1000
0010
,
0100
0001
1000
0000
0001
0010
0000
0001
,
1000
0000
0010
1000
0001
0010
0100
0010
,
0001
0010
0100
1000
0000
0001
0100
0001
,
1000
0001
0010
0100
1000
0100
0010
0001
,
1000
0010
0100
0000
0010
1000
0000
0001
,
0010
0000
0001
1000
0001
0100
0010
1000
,
0001
0010
0100
1000
0000
0001
0100
0002
,
0000
0000
0000
0003
,
1000
0010
0100
0010
1000
0000
0001
0000
,
1000
0100
0010
0100
1000
0000
0001
0000
,
2000
0000
3001
0010
0000
0000
0001
1000
,
0010
1000
0001
0010
0100
1000
0100
0000
,
0010
0001
1000
0001
0100
0010
1000
0000
,
0001
0010
0100
0010
0001
1000
0001
0000
,
1000
0010
0100
0010
1000
0001
1000
0000
,
0001
0010
0100
0010
0001
1000
0001
0000
,
1000
0100
0010
0001
0010
0100
1000
0001
,
0100
0010
0100
0001
1000
0001
0100
0000
,
0010
0100
0001
1000
0001
0010
0100
1000
,
0002
0000
2003
0000
3010
1000
0001
0100
,
0010
0100
0001
1000
0001
0100
0000
0000
,
0001
1000
0100
0010
0002
0000
0003
0010
,
0100
1000
0001
1000
0200
0000
0310
0100
,
2000
0000
3002
0000
0203
0000
0310
1000
,
0010
0100
0001
1000
0002
0000
0003
0010
,
0001
1000
0010
0100
0002
0000
1003
0100
,
0010
0100
1000
0002
0000
0000
0003
0000
,
1000
0010
1000
0001
0010
0100
0010
0001
,
1000
0010
0100
0000
0001
1000
0000
0001
,
0010
0000
0001
1000
0010
0100
0010
1000
,
0001
0010
0100
1000
0000
0001
0100
0001
,
1000
0001
0010
0100
0010
0001
1000
0001
,
0100
0010
1000
0000
0001
0100
0000
0010
,
0100
0000
0001
1000
0001
0010
0001
1000
,
0010
1000
0001
0100
0000
0001
1000
0002
,
0000
0000
0000
0023
0000
0031
1000
0010
,
0200
0000
0301
2000
0000
3001
0010
0001
,
2000
0000
0000
3020
0000
0130
0001
1000
,
0200
0000
0310
0002
0000
1003
0010
2000
,
0000
3001
0000
0010
0001
0010
0001
0000
1000
0000
0001
0000
1000
0100
2000
0000
,
3002
0000
0203
0000
0320
0000
0230
0000
0302
0000
0003
0000
1000
0100
0010
0000
,
0010
0100
1000
0000
0001
0100
0000
0001
1000
0001
0000
1000
0010
1000
0000
0001
,
0010
0001
0000
1000
0001
1000
0000
0001
0100
0001
0100
0000
0000
0000
0000
0000
,
0010
0100
0001
1000
0001
0010
0001
1000
,
0010
0100
0001
0000
1000
0100
0000
0010
,
0100
0000
1000
0001
0100
0010
1000
0001
,
1000
0100
0010
0001
0000
1000
0010
1000
,
0001
0100
0010
1000
0001
0010
0100
0010
,
0001
1000
0010
0000
1000
0001
0000
0010
,
0001
0000
1000
0010
0100
0010
1000
0001
,
1000
0100
0010
0001
0000
1000
0001
1000
,
0001
0010
0001
1000
0010
0100
0001
1000
,
0100
0010
0001
0000
1000
0010
0000
0100
,
0001
0000
1000
0100
0010
0100
1000
0001
,
1000
0100
0010
0001
0000
1000
0010
1000
,
0001
0010
0100
0010
0001
1000
0010
0100
,
0010
1000
0001
0000
0010
0100
0000
0010
,
0001
0000
1000
0010
0100
0010
1000
0001
,
1000
0010
0100
0002
0000
0000
0003
0000
,
1001
0000
1000
0000
0001
0100
0002
0000
,
1003
0000
0200
0000
0310
0001
0010
0001
,
1000
0000
0020
0000
1030
0001
2000
0000
,
3010
0000
0200
0000
0301
1000
0001
0000
,
2002
0000
0000
0000
,
0000
0000
0000
0000
,
3003
0000
0000
0000
;

//---------------dance-single - Ace Of Hearts (2011)----------------
#NOTES:
     dance-single:
     Ace Of Hearts (2011):
     Easy:
     5:
     0.200,0.000,0.012,0.123,0.015:
0000
0000
0000
0000
,
0000
0000
0000
0000
,
0000
0000
0000
0000
,
0000
0000
0000
0000
,
0000
0000
0000
0000
,
0001
0001
0010
0010
,
0001
0001
0001
0000
,
1000
1000
1000
1000
,
0010
0010
0010
0010
0000
0000
1000
0000
,
0001
0001
0010
0010
,
0001
0001
0001
0000
,
1000
0100
0100
0100
,
1000
1000
1000
1000
0000
0000
0000
0000
,
0002
0000
0000
0003
,
1000
1000
1000
0000
,
0010
0010
0010
0000
,
0100
0100
0000
0001
,
1000
1000
0010
0010
,
1000
1000
0001
0001
,
0010
0010
0001
0001
,
1000
1000
0100
0100
,
0010
0010
0001
0001
,
1000
1000
0010
0010
,
1000
1000
0001
0001
,
0100
0100
0010
0010
,
2000
0000
3002
0000
,
0203
0000
0310
0000
,
0100
0100
0100
0000
,
0001
0001
0001
0000
,
2000
0000
3002
0000
,
0023
0000
0130
0000
,
1000
1000
1000
0000
,
0002
0000
0000
0003
0000
0000
0000
0000
,
1000
1000
0010
0010
,
1000
1000
1000
0000
,
0010
0100
0100
0100
,
0001
0001
0001
0001
0000
0000
1000
0000
,
0010
0010
1000
1000
,
0001
0001
0001
0000
,
0010
0001
0001
0001
,
1000
1000
1000
1000
0000
0000
0000
0000
,
0020
0000
0000
0030
0000
0000
0000
0000
,
2000
0000
0000
3000
0000
0000
0000
0000
,
0002
0000
0000
0003
0000
0000
0000
0000
,
0200
0000
0000
0300
0000
0000
0000
0020
,
0000
0000
0000
0030
0000
0000
1000
0000
0000
0000
0001
0000
0000
0000
0001
0000
,
0000
0010
0000
0010
0000
0000
0002
0003
,
2000
0000
3000
0000
0000
0000
0000
0010
0000
0000
0000
0010
0000
0000
0000
0100
,
0000
0000
0000
0100
0000
0000
0000
0002
0000
0000
0003
0000
0000
0000
0000
0000
,
1000
1000
0010
0010
,
1000
1000
1000
0000
,
0010
0100
0100
0100
,
0001
0001
0001
0001
0000
0000
1000
0000
,
0001
0001
0010
0010
,
0001
0001
0001
0000
,
1000
0010
0010
0010
,
0100
0100
0100
0100
0000
0000
0001
0000
,
1000
1000
0100
0100
,
0010
0010
0010
0000
,
0001
1000
1000
1000
,
0010
0010
0010
0010
0000
0000
1000
0000
,
0001
0001
0100
0100
,
0010
0010
1000
0000
,
0001
0100
0100
0100
,
0001
0001
0001
0002
0000
0000
0003
0000
,
1001
1000
0010
0010
,
0100
0100
0002
0000
,
1003
1000
0100
0100
,
0010
0010
0002
0003
,
2002
0000
0000
0000
,
3003
0000
0000
0000
;

//---------------dance-single - Ace Of Hearts (2011)----------------
#NOTES:
     dance-single:
     Ace Of Hearts (2011):
     Beginner:
     2:
     0.148,0.000,0.018,0.193,0.009:
0000
0000
0000
0000
,
0000
0000
0000
0000
,
0000
0000
0000
0000
,
0000
0000
0000
0000
,
0000
0000
0000
0000
,
1000
1000
1000
0000
,
0010
0010
0010
0000
,
1000
1000
1000
0000
,
0002
0000
0000
0003
0000
0000
0000
0000
,
1000
1000
1000
0000
,
0010
0010
0010
0000
,
0100
0100
0100
0000
,
0002
0000
0000
0003
0000
0000
0000
0000
,
2000
0000
3000
0000
,
0002
0000
0003
0000
,
0020
0000
0030
0000
,
0002
0000
0003
0000
,
1000
1000
1000
0000
,
0001
0001
0001
0000
,
0100
0100
0100
0000
,
0010
0010
0010
0000
,
1000
1000
1000
0000
,
0001
0001
0001
0000
,
0100
0100
0100
0000
,
0001
0001
0001
0000
,
0020
0000
0030
0000
,
0002
0000
0003
0000
,
2000
0000
3000
0000
,
0020
0000
0030
0000
,
2000
0000
3000
0000
,
0002
0000
0003
0000
,
2000
0000
3000
0000
,
0020
0000
0000
0030
,
1000
1000
1000
0000
,
0001
0001
0001
0000
,
0010
0010
0010
0000
,
0200
0000
0000
0300
0000
0000
0000
0000
,
1000
1000
1000
0000
,
0001
0001
0001
0000
,
0100
0100
0100
0000
,
0020
0000
0000
0030
0000
0000
0000
0000
,
2000
0000
0000
3000
0000
0000
0000
0000
,
0002
0000
0000
0003
0000
0000
0000
0000
,
2000
0000
0000
3000
0000
0000
0000
0000
,
0020
0000
0000
0030
0000
0000
0000
2000
,
0000
0000
0000
3000
0000
0000
0000
0000
0000
0000
0002
0000
0000
0000
0003
0000
,
0000
2000
0000
3000
0000
0000
0020
0030
,
0200
0000
0300
0000
0000
0000
0000
0004
0000
0000
0000
0000
0000
0003
0000
4000
,
0000
0000
0000
0000
0000
3000
0000
2002
0000
0000
3003
0000
0000
0000
0000
0000
,
1000
1000
1000
0000
,
0010
0010
0010
0000
,
0100
0100
0100
0000
,
0002
0000
0000
0003
0000
0000
0000
0000
,
0100
0100
0100
0000
,
0010
0010
0010
0000
,
1000
1000
1000
0000
,
0002
0000
0000
0003
0000
0000
0000
0000
,
0010
0010
0010
0000
,
0001
0001
0001
0000
,
1000
1000
1000
0000
,
0020
0000
0000
0030
0000
0000
0000
0000
,
0100
0100
0100
0000
,
0001
0001
0001
0000
,
1000
1000
1000
0000
,
0020
0000
0000
0030
0000
0000
0000
0000
,
1001
1000
1000
0000
,
0010
0010
0010
0000
,
1000
1000
1000
0000
,
0001
0001
0001
0000
,
2002
0000
0000
0000
,
3003
0000
0000
0000
;
