#TITLE:Vegetable Juice;
#SUBTITLE:(PoPiPo);
#ARTIST:Miku Hatsune;
#TITLETRANSLIT:;
#SUBTITLETRANSLIT:;
#ARTISTTRANSLIT:;
#GENRE:Vocaloid Silly-Pop;
#CREDIT:Ace Of Hearts;
#BANNER:Vegetable Juice - bn.png;
#BACKGROUND:Vegetable Juice - bg.png;
#LYRICSPATH:;
#CDTITLE:Ace Of Hearts.png;
#MUSIC:Vegetable Juice.ogg;
#OFFSET:1.480;
#SAMPLESTART:35.160;
#SAMPLELENGTH:12.000;
#SELECTABLE:YES;
#BPMS:0.000=150.000,59.000=300.000,60.000=150.000,186.000=300.000,188.000=150.000,200.000=300.000,204.000=150.000,216.000=300.000,220.000=150.000,232.000=300.000,236.000=150.000;
#DISPLAYBPM:150.000;
#STOPS:59.000=0.200
,186.000=0.150
,186.750=0.150
,187.500=0.100
,200.000=0.100
,200.500=0.050
,200.750=0.100
,201.250=0.050
,201.500=0.100
,202.000=0.100
,202.500=0.100
,203.000=0.050
,203.250=0.050
,203.500=0.100
,216.000=0.100
,216.500=0.050
,216.750=0.100
,217.250=0.050
,217.500=0.100
,218.000=0.100
,218.500=0.100
,219.000=0.050
,219.250=0.050
,219.500=0.100
,232.000=0.100
,232.500=0.050
,232.750=0.100
,233.250=0.050
,233.500=0.100
,234.000=0.100
,234.500=0.100
,235.000=0.050
,235.250=0.050
,235.500=0.100
;
#BGCHANGES:3.625=Vegetable Juice Music Video.avi=1.000=0=0=0=StretchNoLoop====,
99999=-nosongbg-=1.000=0=0=0 // don't automatically add -songbackground-
;
#KEYSOUNDS:;

//---------------dance-single - Expert----------------
#NOTES:
     dance-single:
     Ace Of Hearts (2011):
     Challenge:
     10:
     0.834,0.000,0.933,0.838,0.552: // measure 1
0000
0000
0000
0000
,  // measure 2
0000
0000
0000
0000
,  // measure 3
0000
0000
0000
0000
,  // measure 4
M000
0000
0000
0000
,  // measure 5
M000
0000
0000
0000
,  // measure 6
M000
0000
0000
0000
,  // measure 7
M000
0000
0000
0000
0000
0000
0000
0000
0001
0010
0001
0010
0000
0000
0001
1000
,  // measure 8
0001
0000
1000
0010
0000
1000
0001
0000
0011
0000
0010
0000
0210
0000
0300
0000
,  // measure 9
1100
0000
1000
0001
0000
1000
0010
0000
0110
0000
0100
0000
0102
0000
0003
0000
,  // measure 10
0011
0000
0010
0100
0000
1000
0001
0000
0101
0000
0100
0000
0120
0000
0030
0000
,  // measure 11
1010
0000
1000
0001
0000
0010
0001
0000
1001
0000
1000
0000
1200
0000
0300
0000
,  // measure 12
0110
0000
0010
0001
0000
0010
0100
0000
1100
0000
1000
0000
1002
0000
0003
0000
,  // measure 13
0011
0000
0010
0100
0000
0010
0001
0000
1001
0000
1000
0000
1200
0000
0300
0000
,  // measure 14
0110
0000
0010
0001
0000
1000
0010
0000
0110
0000
0100
0000
0102
0000
0003
0000
,  // measure 15
0011
0000
0010
0100
0000
0010
0001
0000
1001
0000
0010
0000
1001
0000
0000
0000
,  // measure 16
0101
0000
0001
0000
0001
0000
0001
0000
0010
0100
0000
2100
0000
0000
3001
0010
,  // measure 17
0100
0000
0000
0000
0000
0000
1000
0000
0000
0000
0000
0000
1000
0000
0000
0000
0000
0000
1000
0000
0000
0000
0000
0000
0001
0000
0000
0010
0000
0000
0000
0000
0000
0110
0000
0000
0000
0000
000M
0000
0000
0000
0100
0000
0000
1000
0000
0000
,  // measure 18
0001
0000
0100
0000
0100
0000
0100
0000
0010
1000
0000
1200
0000
0000
0310
0001
,  // measure 19
1000
0000
0000
0000
0000
0000
0010
0000
0000
0000
0000
0000
0010
0000
0000
0000
0000
0000
0010
0000
0000
0000
0000
0000
0100
0000
0000
0001
0000
0000
0000
0000
0000
1001
0000
0000
0000
0000
0M00
0000
0000
0000
1000
0000
0000
0100
0000
0000
,  // measure 20
0010
0000
0100
0000
0100
0000
0100
0000
1000
0001
0000
0201
0000
0000
0310
1000
,  // measure 21
0001
0000
0000
0000
0000
0000
0100
0000
0000
0000
0000
0000
0100
0000
0000
0000
0000
0000
0100
0000
0000
0000
0000
0000
0010
0000
0000
1000
0000
0000
0000
0000
0000
1001
0000
0000
0000
0000
00M0
0000
0000
0000
0001
0000
0000
0100
0000
0000
,  // measure 22
0010
0000
1000
0000
1000
0000
1000
0000
0001
0010
0000
0210
0000
0000
1300
0001
,  // measure 23
0010
0000
0000
0000
0000
0000
0001
0000
0000
0000
0000
0000
0001
0000
0000
0000
0000
0000
0001
0000
0000
0000
0000
0000
1000
0000
0000
0010
0000
0000
0000
0000
0000
0110
0000
0000
0000
0000
00M0
0000
0000
0000
0100
0000
0000
0001
0000
0000
,  // measure 24
2000
0000
3100
0010
0000
0100
1000
0000
0001
0010
0100
1000
0000
0000
0001
0000
,  // measure 25
0202
0303
2020
3030
0202
0000
0303
0000
,  // measure 26
2001
0000
3100
0000
0120
0000
0031
0000
1000
0010
0000
0210
0000
0000
0301
0000
,  // measure 27
1001
0000
1000
0000
0010
0000
0210
0000
0000
0000
0000
0000
0300
0000
0001
1000
,  // measure 28
0100
0000
0010
0000
0100
0000
1000
0000
1002
0000
0103
0010
0000
0000
1000
0000
,  // measure 29
2200
3300
0022
0033
2200
0000
3300
0000
,  // measure 30
1001
0001
0100
0010
1000
0010
0100
0002
,  // measure 31
0000
0000
0M00
M000
0M40
M000
0M33
0000
,  // measure 32
0110
0000
0100
0000
0100
0000
0100
0000
1000
0001
0000
0201
0000
0000
0310
1000
,  // measure 33
0001
0000
0000
0000
0000
0000
0010
0000
0000
0000
0000
0000
0010
0000
0000
0000
0000
0000
0010
0000
0000
0000
0000
0000
0001
0000
0000
1000
0000
0000
0000
0000
0000
1010
0000
0000
0000
0000
000M
0000
0000
0000
0010
0000
0000
0100
0000
0000
,  // measure 34
0001
0000
1000
0000
1000
0000
1000
0000
0100
0010
0000
0012
0000
0000
1003
0010
,  // measure 35
0100
0000
0000
0000
0000
0000
0010
0000
0000
0000
0000
0000
0010
0000
0000
0000
0000
0000
0010
0000
0000
0000
0000
0000
1000
0000
0000
0001
0000
0000
0000
0000
0000
0101
0000
0000
0000
0000
000M
0000
0000
0000
0100
0000
0000
0010
0000
0000
,  // measure 36
1000
0000
0001
0000
0001
0000
0001
0000
0010
0100
0000
2100
0000
0000
3001
0100
,  // measure 37
0010
0000
0000
0000
0000
0000
0100
0000
0000
0000
0000
0000
0100
0000
0000
0000
0000
0000
0100
0000
0000
0000
0000
0000
0001
0000
0000
1000
0000
0000
0000
0000
0000
1010
0000
0000
0000
0000
M000
0000
0000
0000
0010
0000
0000
0100
0000
0000
,  // measure 38
0001
0000
1000
0000
1000
0000
1000
0000
0010
0100
0000
0102
0000
0000
0013
0100
,  // measure 39
1000
0000
0000
0000
0000
0000
0001
0000
0000
0000
0000
0000
0001
0000
0000
0000
0000
0000
0001
0000
0000
0000
0000
0000
1000
0000
0000
0100
0000
0000
0000
0000
0000
0110
0000
0000
0000
0000
0M00
0000
0000
0000
0010
0000
0000
0001
0000
0000
,  // measure 40
2000
0000
0000
0000
3020
0000
0000
0030
0110
0000
2M00
0000
0000
0000
3001
0000
,  // measure 41
0022
0033
0202
0303
0022
0000
0033
0000
,  // measure 42
2100
0000
0000
0000
3002
0000
0000
0003
0101
0000
2M00
0000
0000
0000
3100
0000
,  // measure 43
0022
0033
2200
3300
0022
0000
0033
0000
,  // measure 44
0201
0000
0320
0000
1030
0001
M00M
0001
,  // measure 45
0010
0100
1000
0100
0020
0000
0230
0000
,  // measure 46
0300
0000
1000
0001
0100
0001
1000
0000
,  // measure 47
2020
0000
0000
0000
0000
0000
3030
0000
0101
0000
0000
1001
0000
0000
0101
0000
,  // measure 48
1001
0000
1000
0100
0000
0100
1000
0000
1001
0000
0001
0000
0201
0000
0300
0000
,  // measure 49
0110
0000
0010
1000
0000
1000
0001
0000
0011
0000
0010
0000
0210
0000
0300
0000
,  // measure 50
2000
0000
0000
0000
3002
0000
0000
0003
0011
0000
0010
0000
0100
0000
2000
0000
,  // measure 51
3001
0000
0100
0100
0000
0010
0010
0000
1000
0000
1000
0000
0010
0010
0020
0030
,  // measure 52
0110
0000
0100
0001
0000
0001
1000
0000
1100
0000
0100
0000
0120
0000
0030
0000
,  // measure 53
0011
0000
0001
1000
0000
1000
0100
0000
0110
0000
0010
0000
0012
0000
0003
0000
,  // measure 54
0200
0000
0320
0030
2010
3001
0010
0002
,  // measure 55
1003
0000
0100
0100
0000
1000
1000
0000
0001
0000
0001
0000
0100
0100
0200
0300
,  // measure 56
0110
0000
0010
0100
0000
0100
0001
0000
1001
0000
1000
0000
1020
0000
0030
0000
,  // measure 57
0110
0000
0100
0001
0000
0001
1000
0000
1010
0000
0010
0000
0210
0000
0300
0000
,  // measure 58
0002
0000
2003
3000
1020
0130
0001
2000
,  // measure 59
3100
0000
0010
0010
0000
0001
0001
0000
1000
0000
1000
0000
0010
0010
0020
0030
,  // measure 60
0110
0000
0100
0001
0000
0001
0010
0000
0110
0000
0100
0000
2100
0000
3000
0000
,  // measure 61
1001
0000
0001
0010
0000
0010
0001
0000
0101
0000
0100
0000
0120
0000
0030
0000
,  // measure 62
2000
0000
0000
0000
3200
0000
0000
0000
0320
0000
0000
0000
0032
0000
0000
0003
,  // measure 63
2001
0000
3100
0020
0000
0030
0000
0000
0012
0000
1003
0200
0000
0000
0310
0000
,  // measure 64
0004
1000
0000
0010
0000
1000
0000
0010
0000
1000
0003
0000
1001
0000
0000
0000
;

//---------------dance-single - Hard----------------
#NOTES:
     dance-single:
     Ace Of Hearts (2011):
     Hard:
     9:
     0.668,0.000,0.057,0.838,0.395: // measure 1
0000
0000
0000
0000
,  // measure 2
0000
0000
0000
0000
,  // measure 3
0000
0000
0000
0000
,  // measure 4
0000
0000
0000
0000
,  // measure 5
0000
0000
0000
0000
,  // measure 6
0000
0000
0000
0000
,  // measure 7
0000
0000
0000
0000
,  // measure 8
1000
0000
0001
0010
0000
0001
0010
0000
0100
0000
0010
0000
0200
0000
0300
0000
,  // measure 9
1000
0000
0001
0100
0000
0001
0100
0000
0010
0000
0100
0000
0020
0000
0030
0000
,  // measure 10
0100
0000
0001
1000
0000
0001
1000
0000
0001
0000
0010
0000
0002
0000
0003
0000
,  // measure 11
1000
0000
0010
0100
0000
0010
0100
0000
0001
0000
1000
0000
0002
0000
0003
0000
,  // measure 12
0010
0000
0100
1000
0000
0100
1000
0000
0001
0000
0100
0000
0002
0000
0003
0000
,  // measure 13
0010
0000
0100
1000
0000
0100
1000
0000
0001
0000
1000
0000
0002
0000
0003
0000
,  // measure 14
0100
0000
0001
1000
0000
0001
1000
0000
0100
0000
0010
0000
0200
0000
0300
0000
,  // measure 15
1000
0000
0001
0100
0000
0001
0100
0000
0010
0000
1000
0000
0000
0000
0000
0000
,  // measure 16
0001
0000
0001
0000
0010
0000
0010
0000
0100
1000
0000
0002
0000
0000
2003
0000
,  // measure 17
3010
0000
0010
0000
0100
0000
0100
0000
0001
1000
0000
0010
0000
0000
0200
0000
,  // measure 18
0301
0000
0001
0000
1000
0000
1000
0000
0001
0010
0000
0200
0000
0000
0320
0000
,  // measure 19
0031
0000
0001
0000
1000
0000
1000
0000
0100
0010
0000
0001
0000
0000
2000
0000
,  // measure 20
3010
0000
0010
0000
0100
0000
0100
0000
0001
1000
0000
0200
0000
0000
2300
0000
,  // measure 21
3001
0000
0001
0000
0100
0000
0100
0000
0010
1000
0000
0001
0000
0000
0020
0000
,  // measure 22
0031
0000
0001
0000
1000
0000
1000
0000
0010
0100
0000
0002
0000
0000
2003
0000
,  // measure 23
3100
0000
0100
0000
0010
0000
0010
0000
0100
1000
0000
0001
0000
0000
2000
0000
,  // measure 24
3010
0000
1000
0001
0000
0010
0001
0000
1000
0010
0000
0100
0000
0000
0001
0000
,  // measure 25
2000
0000
0000
0000
3002
0000
0000
0003
0202
0000
0000
0000
0303
0000
0000
0000
,  // measure 26
0100
0000
0010
0000
2000
0000
3001
0000
0010
0100
0000
1000
0000
0000
0001
0000
,  // measure 27
0100
0010
1000
2002
0000
3003
0000
0001
,  // measure 28
0100
0000
0010
0000
1000
0000
0010
0000
0200
0000
0301
1000
0000
0000
0001
0000
,  // measure 29
0020
0000
0000
0000
0230
0000
0000
0300
2200
0000
0000
0000
3300
0000
0000
0000
,  // measure 30
1000
0001
0100
0010
1000
0001
0100
0020
,  // measure 31
0000
0000
0400
0330
,  // measure 32
0010
0000
0010
0000
1000
0000
1000
0000
0001
0010
0000
0200
0000
0000
2300
0000
,  // measure 33
3001
0000
0001
0000
0100
0000
0100
0000
0010
1000
0000
0001
0000
0000
0020
0000
,  // measure 34
0130
0000
0100
0000
1000
0000
1000
0000
0001
0100
0000
0002
0000
0000
2003
0000
,  // measure 35
3010
0000
0010
0000
1000
0000
1000
0000
0001
0100
0000
0010
0000
0000
2000
0000
,  // measure 36
3010
0000
0010
0000
0100
0000
0100
0000
0001
1000
0000
0200
0000
0000
0320
0000
,  // measure 37
0130
0000
0100
0000
1000
0000
1000
0000
0001
0100
0000
0010
0000
0000
2000
0000
,  // measure 38
3001
0000
0001
0000
0010
0000
0010
0000
0001
1000
0000
0200
0000
0000
0320
0000
,  // measure 39
0031
0000
0001
0000
1000
0000
1000
0000
0001
0100
0000
0010
0000
0000
2000
0000
,  // measure 40
3020
0000
0230
0000
0301
2000
0000
3100
,  // measure 41
0020
0000
0000
0000
0032
0000
0000
0003
0202
0000
0000
0000
0303
0000
0000
0000
,  // measure 42
0200
0000
0320
0000
1030
0001
0000
0010
,  // measure 43
0200
0000
0000
0000
2300
0000
0000
3000
2020
0000
0000
0000
3030
0000
0000
0000
,  // measure 44
0020
0000
0230
0000
0301
1000
0000
0100
,  // measure 45
0010
0100
1000
0001
0020
0000
0230
0300
,  // measure 46
0000
0000
1000
0001
0100
0010
2000
0000
,  // measure 47
0020
0000
3030
0000
,  // measure 48
0010
0000
0100
0001
0000
0001
1000
0000
0100
0000
0010
0000
0200
0000
0300
0000
,  // measure 49
1000
0000
0001
0100
0000
0100
0010
0000
1000
0000
0001
0000
0200
0000
0300
0000
,  // measure 50
0020
0000
2030
0000
3001
0010
0001
1000
,  // measure 51
0010
0000
1000
0001
0000
0100
0001
0000
1000
0000
0100
0000
0010
0001
0020
0000
,  // measure 52
0130
0000
1000
0001
0000
0001
0100
0000
0010
0000
1000
0000
0002
0000
0003
0000
,  // measure 53
0010
0000
0100
1000
0000
1000
0001
0000
0100
0000
0010
0000
2000
0000
3000
0000
,  // measure 54
0002
0000
0023
0000
0130
1000
0100
0010
,  // measure 55
0001
0000
1000
0100
0000
1000
0001
0000
1000
0000
0010
0000
0100
0001
0200
0000
,  // measure 56
0310
0000
0100
0001
0000
0001
1000
0000
0010
0000
1000
0000
0002
0000
0003
0000
,  // measure 57
0010
0000
0100
1000
0000
1000
0001
0000
0100
0000
0010
0000
2000
0000
3000
0000
,  // measure 58
0200
0000
0320
0000
0130
1000
0001
0100
,  // measure 59
0010
0000
0100
0001
0000
1000
0010
0000
1000
0000
0001
0000
0010
0100
0020
0000
,  // measure 60
0031
0000
1000
0010
0000
0010
0100
0000
0001
0000
1000
0000
0200
0000
0300
0000
,  // measure 61
0010
0000
0100
1000
0000
1000
0001
0000
0100
0000
0010
0000
0200
0000
0300
0000
,  // measure 62
0002
2003
3200
0320
,  // measure 63
0032
0000
1003
0100
0000
0000
0000
0000
0020
0000
0130
1000
0000
0000
0001
0000
,  // measure 64
0200
0000
0000
0010
0000
0000
0301
0000
2000
0000
0000
3000
1001
0000
0000
0000
;

//---------------dance-single - Medium----------------
#NOTES:
     dance-single:
     Ace Of Hearts (2011):
     Medium:
     7:
     0.430,0.000,0.010,0.419,0.100: // measure 1
0000
0000
0000
0000
,  // measure 2
0000
0000
0000
0000
,  // measure 3
0000
0000
0000
0000
,  // measure 4
0000
0000
0000
0000
,  // measure 5
0000
0000
0000
0000
,  // measure 6
0000
0000
0000
0000
,  // measure 7
0000
0000
0000
0000
,  // measure 8
0001
0000
0001
0000
1000
0010
1000
0000
,  // measure 9
0010
0000
0010
0000
1000
0001
1000
0000
,  // measure 10
0001
0000
0001
0000
0010
0001
0010
0000
,  // measure 11
0100
0000
0100
0000
1000
0001
1000
0000
,  // measure 12
0010
0000
0010
0000
0100
0001
0100
0000
,  // measure 13
0010
0000
0010
0000
1000
0001
1000
0000
,  // measure 14
0100
0000
0100
0000
0010
0001
0010
0000
,  // measure 15
0100
0000
0100
0000
1000
0001
0000
0000
,  // measure 16
1000
0000
0010
0000
2000
0000
0000
0000
0001
0000
0000
3001
0000
0000
0000
0000
,  // measure 17
0100
0000
0001
0000
0200
0000
0000
0000
0010
0000
0000
0310
0000
0000
0000
0000
,  // measure 18
1000
0000
0001
0000
2000
0000
0000
0000
0100
0000
0000
3100
0000
0000
0000
0000
,  // measure 19
0010
0000
0001
0000
0020
0000
0000
0000
0100
0000
0000
0130
0000
0000
0000
0000
,  // measure 20
1000
0000
0001
0000
2000
0000
0000
0000
0010
0000
0000
3010
0000
0000
0000
0000
,  // measure 21
0100
0000
0001
0000
0200
0000
0000
0000
0010
0000
0000
0310
0000
0000
0000
0000
,  // measure 22
1000
0000
0010
0000
2000
0000
0000
0000
0001
0000
0000
3001
0000
0000
0000
0000
,  // measure 23
0010
0000
0001
0000
0020
0000
0000
0000
0100
0000
0000
0130
0000
0000
0000
0000
,  // measure 24
1000
0001
1000
0000
0010
1000
0010
1000
,  // measure 25
0002
0100
0103
0000
,  // measure 26
0010
0100
0010
1000
0020
0000
1000
0000
,  // measure 27
0100
1000
0130
0000
,  // measure 28
0001
0100
0010
0100
0001
0000
1000
0001
,  // measure 29
2000
0010
3010
0000
,  // measure 30
1000
0100
0010
0100
1000
0000
0001
0020
,  // measure 31
0000
0000
0034
0003
,  // measure 32
1000
0000
0010
0000
2000
0000
0000
0000
0001
0000
0000
3001
0000
0000
0000
0000
,  // measure 33
0100
0000
0001
0000
0200
0000
0000
0000
0010
0000
0000
0310
0000
0000
0000
0000
,  // measure 34
1000
0000
0001
0000
2000
0000
0000
0000
0100
0000
0000
3100
0000
0000
0000
0000
,  // measure 35
0010
0000
0001
0000
0020
0000
0000
0000
0100
0000
0000
0130
0000
0000
0000
0000
,  // measure 36
1000
0000
0001
0000
2000
0000
0000
0000
0010
0000
0000
3010
0000
0000
0000
0000
,  // measure 37
0100
0000
0001
0000
0200
0000
0000
0000
0010
0000
0000
0310
0000
0000
0000
0000
,  // measure 38
1000
0000
0001
0000
2000
0000
0000
0000
0100
0000
0000
3100
0000
0000
0000
0000
,  // measure 39
0010
0000
0001
0000
0020
0000
0000
0000
0100
0000
0000
0130
0000
0000
0000
0000
,  // measure 40
2000
0000
3002
0000
1003
0020
0000
1030
,  // measure 41
0002
0010
0013
0000
,  // measure 42
0200
0000
2300
0000
3001
0200
0000
0301
,  // measure 43
2000
0010
3010
0000
,  // measure 44
0200
0000
0320
0000
1030
0001
0000
1000
,  // measure 45
0100
1000
0001
0000
0020
0000
0031
0000
,  // measure 46
0000
0000
1000
0010
1000
0000
0002
0000
,  // measure 47
0020
0000
0033
0000
,  // measure 48
0001
0000
0001
0000
1000
0010
1000
0000
,  // measure 49
0010
0000
0010
0000
1000
0001
1000
0000
,  // measure 50
0020
0000
2030
0000
3001
0100
0001
0000
,  // measure 51
1000
0000
0000
1000
0000
0000
1000
0000
0010
0000
1000
0000
0010
0000
0000
0000
,  // measure 52
0100
0000
0100
0000
0001
1000
0001
0000
,  // measure 53
0010
0000
0010
0000
0100
1000
0100
0000
,  // measure 54
0020
0000
0032
0000
1003
0010
1000
0000
,  // measure 55
0001
0000
0000
0001
0000
0000
0001
0000
1000
0000
0010
0000
1000
0000
0000
0000
,  // measure 56
0010
0000
0010
0000
1000
0001
1000
0000
,  // measure 57
0100
0000
0100
0000
0010
0001
0010
0000
,  // measure 58
0200
0000
2300
0000
3001
0100
0001
0000
,  // measure 59
0100
0000
0000
0100
0000
0000
0100
0000
0010
0000
1000
0000
0010
0000
0000
0000
,  // measure 60
0100
0000
0100
0000
0001
1000
0001
0000
,  // measure 61
0010
0000
0010
0000
0100
1000
0100
0000
,  // measure 62
0020
0032
2003
3020
,  // measure 63
0130
0000
0000
0100
0000
0000
0000
0000
0001
0000
0000
0001
0000
0000
1000
0000
,  // measure 64
0200
0000
0000
0000
0000
0300
1001
0000
;

//---------------dance-single - Easy----------------
#NOTES:
     dance-single:
     Ace Of Hearts (2011):
     Easy:
     5:
     0.241,0.000,0.010,0.076,0.000: // measure 1
0000
0000
0000
0000
,  // measure 2
0000
0000
0000
0000
,  // measure 3
0000
0000
0000
0000
,  // measure 4
0000
0000
0000
0000
,  // measure 5
0000
0000
0000
0000
,  // measure 6
0000
0000
0000
0000
,  // measure 7
0000
0000
0000
0000
,  // measure 8
0001
1000
0001
0000
,  // measure 9
0100
0001
0100
0000
,  // measure 10
0010
1000
0010
0000
,  // measure 11
1000
0001
1000
0000
,  // measure 12
0010
1000
0010
0000
,  // measure 13
1000
0001
1000
0000
,  // measure 14
0001
1000
0001
0000
,  // measure 15
0010
0001
0010
0000
,  // measure 16
0001
1000
0001
0000
,  // measure 17
0010
1000
0010
0000
,  // measure 18
0100
0001
0100
0000
,  // measure 19
0010
1000
0010
0000
,  // measure 20
1000
0001
1000
0000
,  // measure 21
0001
0010
0001
0000
,  // measure 22
1000
0001
1000
0000
,  // measure 23
0010
1000
0010
0000
,  // measure 24
1000
1000
0001
0001
,  // measure 25
0100
0100
0200
0300
,  // measure 26
0001
0001
1000
1000
,  // measure 27
0200
0000
0300
0000
,  // measure 28
0010
0010
0001
0001
,  // measure 29
1000
1000
2000
3000
,  // measure 30
0010
0010
0100
0100
,  // measure 31
0200
0000
0300
0000
,  // measure 32
0001
1000
0001
0000
,  // measure 33
0010
0001
0010
0000
,  // measure 34
0001
1000
0001
0000
,  // measure 35
1000
0010
1000
0000
,  // measure 36
0001
0100
0001
0000
,  // measure 37
1000
0001
1000
0000
,  // measure 38
0001
0010
0001
0000
,  // measure 39
1000
0100
1000
0000
,  // measure 40
0001
0001
0100
0100
,  // measure 41
0001
0001
0002
0003
,  // measure 42
1000
1000
0100
0100
,  // measure 43
0010
0010
0020
0030
,  // measure 44
0001
0001
0001
0000
,  // measure 45
1000
1000
1000
0000
,  // measure 46
0000
0100
0100
0010
,  // measure 47
0020
0000
0030
0000
,  // measure 48
0001
1000
0001
0000
,  // measure 49
1000
0010
1000
0000
,  // measure 50
0001
0001
0010
0010
,  // measure 51
0004
0000
0000
0003
,  // measure 52
1000
0010
1000
0000
,  // measure 53
0001
0100
0001
0000
,  // measure 54
1000
1000
0100
0100
,  // measure 55
0040
0000
0000
0030
,  // measure 56
0001
1000
0001
0000
,  // measure 57
1000
0010
1000
0000
,  // measure 58
0001
0001
0010
0010
,  // measure 59
0400
0000
0000
0300
,  // measure 60
1000
0001
1000
0000
,  // measure 61
0010
1000
0010
0000
,  // measure 62
0100
0100
0001
0001
,  // measure 63
1000
0000
0010
1000
,  // measure 64
0002
0000
0003
1001
;

//---------------dance-single - Novice----------------
#NOTES:
     dance-single:
     Ace Of Hearts (2011):
     Beginner:
     2:
     0.152,0.000,0.010,0.238,0.000: // measure 1
0000
0000
0000
0000
,  // measure 2
0000
0000
0000
0000
,  // measure 3
0000
0000
0000
0000
,  // measure 4
0000
0000
0000
0000
,  // measure 5
0000
0000
0000
0000
,  // measure 6
0000
0000
0000
0000
,  // measure 7
0000
0000
0000
0000
,  // measure 8
0001
0000
0001
0000
,  // measure 9
1000
0000
1000
0000
,  // measure 10
0010
0000
0010
0000
,  // measure 11
1000
0000
1000
0000
,  // measure 12
0001
0000
0001
0000
,  // measure 13
1000
0000
1000
0000
,  // measure 14
0100
0000
0100
0000
,  // measure 15
0010
0000
0010
0000
,  // measure 16
0002
0000
0003
0000
,  // measure 17
2000
0000
3000
0000
,  // measure 18
0020
0000
0030
0000
,  // measure 19
2000
0000
3000
0000
,  // measure 20
0002
0000
0003
0000
,  // measure 21
2000
0000
3000
0000
,  // measure 22
0200
0000
0300
0000
,  // measure 23
0020
0000
0030
0000
,  // measure 24
0001
0000
0001
0000
,  // measure 25
0002
0000
0003
0000
,  // measure 26
1000
0000
1000
0000
,  // measure 27
2000
0000
3000
0000
,  // measure 28
0100
0000
0100
0000
,  // measure 29
0200
0000
0300
0000
,  // measure 30
0010
0000
0010
0000
,  // measure 31
0020
0000
0030
0000
,  // measure 32
0002
0000
0003
0000
,  // measure 33
2000
0000
3000
0000
,  // measure 34
0020
0000
0030
0000
,  // measure 35
2000
0000
3000
0000
,  // measure 36
0002
0000
0003
0000
,  // measure 37
0020
0000
0030
0000
,  // measure 38
0002
0000
0003
0000
,  // measure 39
2000
0000
3000
0000
,  // measure 40
0100
0000
0100
0000
,  // measure 41
0200
0000
0300
0000
,  // measure 42
0010
0000
0010
0000
,  // measure 43
0020
0000
0030
0000
,  // measure 44
0001
0000
0001
0000
,  // measure 45
0002
0000
0003
0000
,  // measure 46
0000
0000
1000
0000
,  // measure 47
2000
0000
3000
0000
,  // measure 48
0010
0000
0010
0000
,  // measure 49
0100
0000
0100
0000
,  // measure 50
0001
0000
0001
0000
,  // measure 51
0004
0000
0003
0000
,  // measure 52
1000
0000
1000
0000
,  // measure 53
0010
0000
0010
0000
,  // measure 54
1000
0000
1000
0000
,  // measure 55
4000
0000
3000
0000
,  // measure 56
0001
0000
0001
0000
,  // measure 57
1000
0000
1000
0000
,  // measure 58
0010
0000
0010
0000
,  // measure 59
0400
0000
0300
0000
,  // measure 60
0001
0000
0001
0000
,  // measure 61
1000
0000
1000
0000
,  // measure 62
0100
0000
0100
0000
,  // measure 63
0010
0000
0010
0000
,  // measure 64
0002
0000
0003
1001
;
