#TITLE:Sentimental Generation;
#SUBTITLE:;
#ARTIST:Ami Tokito;
#TITLETRANSLIT:;
#SUBTITLETRANSLIT:;
#ARTISTTRANSLIT:;
#GENRE:J-Rock;
#CREDIT:Ace Of Hearts;
#BANNER:Sentimental Generation - bn.png;
#BACKGROUND:Sentimental Generation - bg.png;
#LYRICSPATH:;
#CDTITLE:Ace Of Hearts.png;
#MUSIC:Sentimental Generation.ogg;
#OFFSET:1.040;
#SAMPLESTART:52.960;
#SAMPLELENGTH:12.000;
#SELECTABLE:YES;
#BPMS:0.000=142.000;
#STOPS:;
#BGCHANGES:3.125=School Rumble S2 OP.avi=1.000=1=0=0=StretchNoLoop==CrossFade==,
213.000=Sentimental Generation - Finish.png=1.000=1=0=1===CrossFade==,
99999=-nosongbg-=1.000=0=0=0 // don't automatically add -songbackground-
;
#KEYSOUNDS:;

//---------------dance-single - Hard----------------
#NOTES:
     dance-single:
     Ace Of Hearts (2011):
     Hard:
     8:
     0.558,0.237,0.056,0.923,0.111: // measure 1
0000
0000
0000
0000
,  // measure 2
0001
1000
0010
1000
0001
0100
0020
0000
,  // measure 3
1030
0001
0010
0100
1000
0001
0020
0000
,  // measure 4
0031
1000
0010
0100
0001
1000
0020
0000
,  // measure 5
1030
0001
0010
0100
4000
0000
0000
0000
,  // measure 6
3002
0023
0032
2003
,  // measure 7
3020
0230
0302
2003
,  // measure 8
3000
0000
0001
0100
0010
0100
0001
1000
,  // measure 9
0010
0000
1000
0002
0000
0000
0000
0000
0003
0000
0000
0000
0000
0000
0000
0000
,  // measure 10
0010
0000
0001
0000
1000
0000
0010
2000
0000
0000
3001
0000
0100
0000
0001
0000
,  // measure 11
1000
0000
0100
0000
1000
0000
0001
0200
0000
0000
0300
0000
0000
0000
0000
0000
,  // measure 12
0020
0000
0000
0000
0230
0000
0000
0000
0302
0000
0000
2003
0000
0000
3100
0000
,  // measure 13
0010
0000
0110
0000
0200
1300
0001
1000
,  // measure 14
0020
0000
0000
0200
0000
0000
0000
0000
0000
0000
0000
0000
0330
0000
0000
0000
,  // measure 15
0020
0000
0000
1030
0000
0000
0001
0000
2000
0000
0000
0000
0000
0000
0000
0000
,  // measure 16
3000
0000
0010
1000
0001
0010
0001
1000
,  // measure 17
0200
0000
0000
0300
0000
0000
0000
0000
,  // measure 18
0000
0000
0010
0001
1000
0001
0100
0010
,  // measure 19
2000
0000
0000
3001
0200
0000
0000
0300
,  // measure 20
0000
0000
0001
1000
0010
0000
0100
0002
,  // measure 21
0000
0000
1003
0000
0200
0000
0000
0000
0320
0000
0000
0130
0000
0000
1000
0000
,  // measure 22
0001
0000
1000
0200
0000
0000
0000
0000
0300
0000
1000
0000
0001
0000
1000
0000
,  // measure 23
0010
0000
0100
0002
0000
0000
0003
0000
4000
0004
0000
0000
0000
0000
0000
0000
,  // measure 24
3003
0002
0000
0203
,  // measure 25
0310
1000
0002
0023
,  // measure 26
0230
1300
0200
1300
0001
1000
0010
0100
,  // measure 27
0002
0000
0000
2000
0000
0000
0000
0000
0000
0000
0000
0000
0000
0000
0000
0000
,  // measure 28
3003
0002
0000
0203
,  // measure 29
0320
2030
3002
0023
,  // measure 30
0130
0000
1000
0000
0100
0000
0010
0002
0000
0000
1003
0000
0010
0000
1000
0000
,  // measure 31
0020
0000
0000
0030
,  // measure 32
1000
0100
1000
0100
1000
0000
1001
0000
,  // measure 33
0002
0203
0320
2030
,  // measure 34
3002
0203
0320
0230
,  // measure 35
0300
0000
0001
1000
0100
0010
0100
1000
,  // measure 36
0001
0000
1000
0200
0000
0000
0000
0000
0300
0000
0000
0000
0000
0000
0000
0000
,  // measure 37
0010
0000
0100
0000
1000
0000
0001
2000
0000
0000
3010
0000
1000
0000
0001
0000
,  // measure 38
0010
0000
0100
0000
1000
0000
0001
0020
0000
0000
0030
0000
0000
0000
0000
0000
,  // measure 39
0002
0000
0000
0000
2003
0000
0000
0000
3020
0000
0000
0130
0000
0000
0001
0000
,  // measure 40
1000
0000
1001
0000
0002
0103
0002
0103
,  // measure 41
0020
2030
3002
0023
,  // measure 42
0032
2003
3020
0230
,  // measure 43
0300
0000
0001
1000
0100
0010
0100
1000
,  // measure 44
0001
0000
1000
0020
0000
0000
0000
0000
0030
0000
0000
0000
0000
0000
0000
0000
,  // measure 45
1000
0000
0001
0000
0010
0000
0100
2000
0000
0000
3001
0000
0100
0000
0010
0000
,  // measure 46
1000
0000
0001
0000
0010
0000
0100
2000
0000
0000
3000
0000
0000
0000
0000
0000
,  // measure 47
0002
0000
0000
0000
0203
0000
0000
0000
0320
0000
0000
1030
0000
0000
0001
0000
,  // measure 48
0010
0000
0110
0000
0200
1300
0001
1000
,  // measure 49
0010
1000
0001
0010
0100
1000
0002
0000
,  // measure 50
1003
0010
1000
0001
0010
0100
2000
0000
,  // measure 51
3001
0100
0010
1000
0001
0010
0200
0000
,  // measure 52
1300
0001
0100
0010
1000
0001
0010
0100
,  // measure 53
1000
0100
0010
0001
0000
0000
2002
0000
,  // measure 54
0000
3003
0000
0000
;

//---------------dance-single - Expert----------------
#NOTES:
     dance-single:
     Ace Of Hearts (2011):
     Challenge:
     11:
     1.000,0.355,0.211,0.590,1.000:
0000
0000
0000
0000
,
0101
0000
0100
0000
0010
0000
1000
0000
0001
0010
0100
0010
0001
0000
1001
0000
,
1000
0000
0010
0000
0100
0000
0001
0000
1000
0100
0010
0100
1000
0000
1001
0000
,
0001
0000
0100
0000
0010
0000
1000
0000
0001
0100
0010
0100
0001
0000
1001
0000
,
1000
0000
0100
0000
0010
0000
0001
0000
1000
0100
0010
0001
0010
0100
1000
0001
,
1000
0010
0100
0000
0010
0000
1000
0001
0010
0001
1000
0000
0010
0000
0100
0001
,
1000
0001
0100
0000
0010
0000
1000
0001
0010
0001
1000
0000
0100
0000
1000
0001
,
0100
0001
1000
0000
0100
0000
0010
0100
1000
0100
0010
0000
0001
0000
1000
0010
,
0100
0010
1000
0002
0000
1003
0010
0000
1000
0001
1000
0100
0010
0100
1000
0001
,
0100
0010
1000
0000
0001
0000
0010
0100
1000
0100
0010
0000
0001
0000
1000
0001
,
0010
0001
1000
0000
0010
0000
0100
0001
1000
0001
0100
0000
0010
0000
1000
0000
,
0001
0010
0100
0000
1000
0000
0001
1000
0100
0000
0010
0001
0000
1000
0002
0000
,
0200
0000
0000
0000
1000
0000
0303
0000
1002
0000
0103
0010
0100
0001
1000
0100
,
0010
0001
2000
0000
3010
0100
0002
0000
1003
0100
0020
0000
0130
1000
0001
0000
,
2000
0000
3100
0010
0000
0010
0100
0000
2000
0000
3001
0000
0100
0001
1000
0001
,
0100
0010
2000
0000
3001
0010
0200
0000
0310
0001
2000
0000
3001
0100
0020
0000
,
1030
0001
0200
0000
0310
1000
0002
0000
0013
0100
2000
0000
3001
0010
0200
0000
,
0310
0001
2000
0000
3010
0100
0002
0000
1003
0100
0020
0000
0130
1000
0002
0000
,
1003
0010
0200
0000
0310
1000
0002
0000
0013
0100
2000
0000
3001
0100
0020
0000
,
0130
0001
2000
0000
3100
0010
0002
0000
0013
0100
2000
0000
3001
0100
0020
0000
,
1030
0010
0200
0000
0301
1000
0010
0000
0210
0000
0301
1000
0000
1000
0200
0000
,
0310
0001
2000
0000
3010
0100
0002
0000
1003
0100
0020
0000
0130
1000
0002
0003
,
0201
0000
0310
1000
0000
1000
0001
0010
0100
1000
0100
0010
0001
1000
0010
0100
,
0001
1000
0100
0010
0100
1000
0001
0100
0010
1000
0001
0100
0010
1000
0001
0010
,
0100
1000
0100
0010
0001
1000
0010
0100
0010
1000
0001
0010
0100
0010
0001
1000
,
0020
0100
1000
0100
2030
3001
0010
0100
,
2100
0000
0001
0000
0100
0000
0001
0000
3010
1000
0001
0000
0010
0000
0100
1000
,
0001
1000
0001
0010
0100
1000
0001
0100
0010
1000
0001
0010
0100
1000
0001
0100
,
0001
1000
0100
0010
0001
0010
0100
1000
0001
0100
0010
1000
0010
0100
0001
1000
,
0002
0000
0103
0000
0010
0000
1000
1002
0000
0000
0013
0100
1000
0001
1000
0100
,
0110
0000
0010
0000
0011
0000
0001
0000
1001
0000
1000
0000
1010
0000
0010
0100
,
0002
0000
1003
0000
0010
0000
0100
0000
0001
1000
0100
0000
0110
0010
0001
1000
,
0010
1000
0001
0000
0010
0000
0100
1000
0100
0010
0001
0000
1000
0000
0010
0100
,
0010
1000
0001
0000
0010
0000
0001
1000
0010
0100
0001
0000
1000
0000
0100
0010
,
0100
1000
0001
0000
0100
0000
0010
1000
0001
1000
0100
0000
0010
0000
0001
1000
,
0001
0010
0100
2000
0000
3001
0100
0000
0010
0100
0001
1000
0100
1000
0001
0100
,
0010
1000
0001
0000
1000
0000
0010
0100
0010
1000
0001
0000
0010
0000
0100
0010
,
0001
1000
0010
0000
0100
0000
0001
1000
0100
0010
0100
0000
1000
0001
0100
0000
,
0010
1000
0001
0010
0100
0000
1000
0100
0010
0000
0100
1000
0000
1000
0002
0000
,
0200
0000
0000
0000
1000
0000
0303
0000
0001
1000
0100
0010
0100
1000
0001
0100
,
0010
1000
0001
0000
0010
0000
0001
1000
0010
0100
0001
0000
1000
0000
0100
0010
,
0001
0010
0100
0000
1000
0000
0001
0100
0010
1000
0001
0000
0010
0000
0001
1000
,
0010
0100
0010
0000
1000
0000
0001
0010
0100
1000
0100
0000
0010
0001
1000
0010
,
0100
0001
1000
0200
0000
0310
0001
0000
1000
0010
1000
0001
0010
0100
0010
0001
,
1000
0010
0100
0000
0001
0000
0100
0010
1000
0001
0010
0000
0100
0000
0010
0001
,
1000
0010
0100
0000
0001
0000
1000
0100
0010
0001
1000
0000
0001
0100
0010
0000
,
1000
0001
0010
0001
1000
0010
0100
0001
1000
0000
0001
1000
0000
1000
0200
0000
,
0020
0000
0000
0000
1001
0000
0330
0000
0020
0000
0031
1000
0010
0100
0010
1000
,
0001
0000
0010
0100
1000
0000
0001
0000
0100
0010
1000
0001
0100
0000
0010
1000
,
0001
0000
0010
0100
1000
0000
0001
0000
1000
0010
1000
0001
0100
0000
0110
0000
,
0010
0000
1000
0001
0100
0000
0010
0000
1000
0001
0010
0001
1000
0000
1100
0000
,
0100
0000
0010
0000
0001
0000
1000
0000
0010
0100
0001
1000
0100
0010
0100
1000
,
0001
0100
0010
1010
0000
0000
2202
0000
,
3003
0300
0000
0000
;

//---------------dance-single - Medium----------------
#NOTES:
     dance-single:
     Ace Of Hearts (2011):
     Medium:
     6:
     0.375,0.148,0.022,0.467,0.083:
0000
0000
0000
0000
,
1000
0100
1000
0000
0001
0000
0001
0000
,
1000
0010
1000
0000
0001
0000
0001
0000
,
1000
0100
1000
0000
0001
0000
0001
0000
,
1000
0001
1000
0000
0020
0000
0030
0000
,
1000
0002
1003
0020
,
1030
0002
1003
0200
,
0300
0000
1000
0001
1000
0000
0001
0000
,
0100
0000
0000
0200
0000
0000
0000
0000
0300
0000
0000
0000
0000
0000
0000
0000
,
0001
1000
0001
0000
1000
0000
0010
0000
,
1000
0000
0000
0000
0001
0000
0000
0001
0000
0000
0000
0000
0000
0000
0000
0000
,
0010
0000
0000
0000
0010
0000
0000
0000
0002
0000
0000
1003
0000
0000
0001
0000
,
0010
0000
0000
0000
0001
0000
1000
0010
,
2000
0000
0000
0002
0000
0000
0000
0000
0000
0000
0000
0000
0000
0000
0000
0000
,
3003
0000
0000
0000
,
0000
0000
1000
0010
1000
0000
0001
0000
,
0002
0000
0003
0000
,
0000
0000
0010
0001
0010
0000
0100
0000
,
0200
0000
1300
0000
,
0000
0000
0001
1000
0002
0000
0000
0000
,
0103
0000
0000
0000
0100
0000
0000
0000
0010
0000
0000
0010
0000
0000
0000
0000
,
1000
0000
0000
2000
0000
0000
0000
0000
3000
0000
0000
0000
0001
0000
0000
0000
,
0100
0000
0000
0200
0000
0000
0000
0000
0000
0000
0000
0000
0000
0000
0000
0000
,
0300
0002
0003
1000
,
0010
1000
0001
0010
,
0001
1000
0001
0000
1000
0100
1000
0000
,
0001
0000
0000
0002
0000
0000
0000
0000
0000
0000
0000
0000
0000
0000
0000
0000
,
0003
2000
0000
3020
,
2030
3002
0203
0320
,
1030
0001
1000
0000
0001
0010
0001
0000
,
2000
0000
0000
3000
,
0001
0001
0001
1001
,
1000
0020
0130
0002
,
1003
0200
0310
0002
,
0003
0000
1000
0010
1000
0000
0001
0000
,
0100
0000
0000
0200
0000
0000
0000
0000
0300
0000
0000
0000
0000
0000
0000
0000
,
0001
1000
0001
0000
0010
0000
0010
0000
,
0001
0000
0000
0000
1000
0000
0000
1000
0000
0000
0000
0000
0000
0000
0000
0000
,
0100
0000
0000
0000
0010
0000
0000
0000
0002
0000
0000
1003
0000
0000
0001
0000
,
0010
0000
0000
0000
0001
1000
0001
0000
,
1000
0020
1030
0002
,
0013
0200
1300
0002
,
0003
0000
1000
0010
1000
0000
0001
0000
,
0100
0000
0000
0200
0000
0000
0000
0000
0300
0000
0000
0000
0000
0000
0000
0000
,
0001
1000
0001
0000
1000
0010
1000
0000
,
0001
0000
0000
0000
0100
0000
0000
0100
0000
0000
0000
0000
0000
0000
0000
0000
,
0020
0000
0000
0000
2030
0000
0000
0000
3002
0000
0000
0023
0000
0000
0031
0000
,
1000
0000
0000
0000
0010
1000
0010
1000
,
0002
0000
0000
0200
0000
0000
0000
0000
0000
0000
0000
0000
0303
0000
0000
0000
,
0001
1000
0001
0000
0010
0000
0010
0000
,
0100
1000
0100
0000
0010
0000
0010
0000
,
0001
1000
0001
0000
0100
0000
0100
0000
,
0001
1000
0001
1000
0000
0000
2002
0000
,
0000
3003
0000
0000
;

//---------------dance-single - Easy----------------
#NOTES:
     dance-single:
     Ace Of Hearts (2011):
     Easy:
     3:
     0.219,0.089,0.011,0.211,0.000:
0000
0000
0000
0000
,
0001
0001
0001
0000
,
1000
1000
1000
0000
,
0010
0010
0010
0000
,
0100
0100
0100
0000
,
0001
0001
0002
0003
,
1000
1000
2000
3000
,
0000
0010
0010
0000
,
0020
0030
0000
0000
,
1000
1000
1000
0000
,
0001
0001
0001
0000
,
0010
0010
0010
0000
,
0010
0000
0001
0001
,
0002
0000
0000
0000
,
0003
0000
0000
0000
,
0000
1000
1000
0000
,
2000
0000
3000
0000
,
0000
0001
0001
0000
,
0002
0000
0003
0000
,
0000
0100
0100
0000
,
0100
0000
0010
0010
,
0020
0000
0030
1000
,
2000
0000
0000
3000
,
0000
0001
0000
1000
,
1000
0000
1000
0000
,
0010
0010
0020
0000
,
0000
0000
0000
0000
,
0030
1000
0000
0000
,
0001
0001
0001
0000
,
1000
1000
0010
0010
,
0020
0000
0000
0000
,
0030
0000
0000
0000
,
1000
1000
2000
3000
,
0001
0001
0002
0003
,
0000
0100
0100
0000
,
0200
0300
0000
0000
,
0001
0001
0001
0000
,
0100
0100
0100
0000
,
0010
0010
0010
0000
,
0010
0000
2000
0000
,
3001
0001
0001
0000
,
0010
0010
0010
0000
,
0000
0100
0100
0000
,
0200
0300
0000
0000
,
1000
1000
1000
0000
,
0001
0001
0001
0000
,
0100
0100
0100
0000
,
0100
0000
0010
0010
,
0020
0000
0000
0030
,
1000
1000
1000
0000
,
0010
0010
0010
0000
,
0100
0100
0001
0001
,
2000
0000
0000
3000
0000
0000
2002
0000
,
0000
3003
0000
0000
;

//---------------dance-single - Novice----------------
#NOTES:
     dance-single:
     Ace Of Hearts (2011):
     Beginner:
     1:
     0.143,0.059,0.011,0.312,0.000:
0000
0000
0000
0000
,
0002
0000
0003
0000
,
2000
0000
3000
0000
,
0020
0000
0030
0000
,
0200
0000
0300
0000
,
0001
0000
0001
0000
,
0002
0000
0003
0000
,
0000
2000
0000
0000
,
3000
0000
0000
0000
,
0010
0000
0010
0000
,
0020
0000
0030
0000
,
1000
0000
1000
0000
,
1000
0000
0002
0000
,
0000
0000
0000
0000
,
0003
0000
0000
0000
,
0000
0000
0010
0000
,
0020
0000
0030
0000
,
0000
0000
0001
0000
,
0002
0000
0003
0000
,
0000
0000
1000
0000
,
1000
0000
0010
0000
,
0020
0000
0030
0000
,
0200
0000
0300
0000
,
0000
0001
0000
0000
,
1000
0000
1000
0000
,
0010
0000
0010
0000
,
0020
0000
0000
0030
,
0000
1000
0000
0000
,
0001
0000
0001
0000
,
0010
0000
0010
0000
,
0020
0000
0000
0000
,
0030
0000
0000
0000
,
0001
0000
0001
0000
,
0002
0000
0003
0000
,
0000
2000
0000
0000
,
3000
0000
0000
0000
,
0020
0000
0030
0000
,
0200
0000
0300
0000
,
0001
0000
0001
0000
,
0001
0000
0000
0000
,
0010
0000
0010
0000
,
0020
0000
0030
0000
,
0000
0200
0000
0000
,
0300
0000
0000
0000
,
1000
0000
1000
0000
,
2000
0000
3000
0000
,
0010
0000
0010
0000
,
0010
0000
0200
0000
,
0000
0000
0000
0300
,
0002
0000
0003
0000
,
2000
0000
3000
0000
,
0020
0000
0030
0000
,
2000
0000
0000
3000
0000
0000
2002
0000
,
0000
3003
0000
0000
;
