#TITLE:Ring a Bell;
#SUBTITLE:;
#ARTIST:Bonnie Pink;
#TITLETRANSLIT:;
#SUBTITLETRANSLIT:;
#ARTISTTRANSLIT:;
#GENRE:J-Pop;
#CREDIT:Ace Of Hearts;
#BANNER:Ring a Bell - bn.png;
#BACKGROUND:Ring a Bell - bg.jpg;
#LYRICSPATH:;
#CDTITLE:Ace Of Hearts.png;
#MUSIC:Ring a Bell.ogg;
#OFFSET:2.460;
#SAMPLESTART:48.600;
#SAMPLELENGTH:12.000;
#SELECTABLE:YES;
#BPMS:0.000=94.000,76.000=47.000,77.000=94.000;
#STOPS:;
#BGCHANGES:3.750=Tales of Vesperia OP.avi=1.000=1=0=0=StretchNoLoop==CrossFade==,
99999=-nosongbg-=1.000=0=0=0 // don't automatically add -songbackground-
;
#KEYSOUNDS:;

//---------------dance-single - Expert----------------
#NOTES:
     dance-single:
     Ace Of Hearts (2011):
     Challenge:
     9:
     0.569,0.039,0.252,0.690,0.401: // measure 1
0000
0000
0000
0000
,  // measure 2
0000
0000
0000
0000
0000
0000
0000
0000
0000
0000
0000
0000
0000
0000
0001
0100
,  // measure 3
0002
0000
2003
3000
1100
0000
0000
0100
0020
0000
0032
0003
0101
0000
0000
0100
,  // measure 4
0020
0000
0000
0000
1030
0001
0200
0000
0310
1000
0002
0000
0013
0001
0010
0100
,  // measure 5
2000
0000
3002
0000
0103
0010
0100
0002
0000
0000
1003
0000
0010
0100
0000
0002
,  // measure 6
0000
0000
0003
0000
1000
0100
0000
0020
0000
0000
0130
0000
1000
0000
0002
0000
,  // measure 7
0000
0000
0003
0000
1000
0010
0000
0200
0000
0000
0310
0000
1000
0000
0001
0000
,  // measure 8
0021
0000
0000
0000
0130
1000
0002
0000
0000
1003
0020
0000
1030
0001
0100
0010
,  // measure 9
0200
0000
0302
0000
1003
0100
0010
0002
0000
0000
1003
0000
0010
0200
0300
0102
,  // measure 10
0000
0000
1003
0000
0010
0100
0000
0001
1000
0100
1000
0000
0001
0000
0010
0100
,  // measure 11
2000
3001
0101
0100
0010
1000
0001
0010
,  // measure 12
0210
0000
0000
0000
1300
0001
0020
0000
0031
1000
0200
0000
0310
0100
1000
0001
,  // measure 13
0200
0010
1000
0010
0001
0010
1000
0340
,  // measure 14
0000
0000
2030
0000
0000
3000
1200
0000
0000
0000
0310
0000
0001
0000
0201
0000
,  // measure 15
0000
0310
1000
0004
0000
4003
0000
3200
,  // measure 16
0000
0000
0310
0000
0002
0000
0000
0023
0000
0000
0130
1000
0001
1000
0001
0100
,  // measure 17
0020
0100
0001
0100
1000
0100
0001
0430
,  // measure 18
0000
0302
0000
2003
0000
3100
0010
0100
,  // measure 19
0010
0000
0001
0000
1000
0000
0040
0000
0000
0000
0000
0000
0030
0000
1000
0001
,  // measure 20
0020
0000
0000
0000
0030
0000
0001
0010
0100
1000
0100
0010
0002
0000
1003
0000
,  // measure 21
0010
0000
0100
0000
0102
0000
0000
1003
1200
0000
0300
0000
0120
0000
0031
0000
,  // measure 22
1000
0000
0010
0000
0210
0000
0000
0301
2001
0000
3000
0000
1020
0000
0130
0000
,  // measure 23
0001
0000
1000
0000
1200
0000
0000
0000
0010
0000
1300
0001
1000
0010
0100
0000
,  // measure 24
0001
1000
0020
0000
0130
0001
2000
0000
3100
0010
0001
1000
0010
0000
0100
0000
,  // measure 25
0001
0000
1000
0000
1020
0000
0000
0000
0430
0000
0000
0300
0102
0000
1003
0000
,  // measure 26
0100
0000
0010
0001
1000
0010
0100
0000
0001
1000
0100
0010
0200
0000
1300
0000
,  // measure 27
0001
0000
0100
0000
0010
0000
0000
0000
4010
0000
0000
0000
3001
0010
0200
0000
,  // measure 28
1300
0001
0200
0000
0310
1000
0002
0000
0013
0100
1000
0001
0200
0000
0010
0000
,  // measure 29
1000
0010
0001
0010
1000
0010
0304
0000
,  // measure 30
1003
0000
0100
0000
0010
0000
0100
0000
1000
0001
0100
0000
0004
0000
0000
0000
,  // measure 31
1003
0200
2000
0000
0000
0000
0000
0000
0001
0010
0001
0000
3300
0000
0000
0000
,  // measure 32
1000
0001
1000
0000
0000
0000
0010
1000
0100
1000
0002
0000
0403
0000
0300
0000
,  // measure 33
0020
0100
0001
0100
1000
0100
4030
0000
,  // measure 34
3000
0000
0002
0000
0000
0000
0013
0000
0110
0100
4000
0000
0000
0000
3000
0000
,  // measure 35
0001
0100
0020
0000
0000
0000
0030
0000
1000
0001
0400
0000
0302
0000
1000
0000
,  // measure 36
0010
0000
1000
0000
0100
0000
1000
0000
0023
0000
0130
1000
0002
0000
0103
0000
,  // measure 37
0010
0000
1000
0000
1002
0000
0000
0013
0410
0000
0000
0300
2100
0000
3001
0000
,  // measure 38
0200
0000
0310
0000
2010
0000
0000
3001
0201
0000
0000
0300
0120
0000
1030
0000
,  // measure 39
0001
0000
0010
0000
0200
0000
0000
0000
2300
0000
3001
0100
0010
0100
0002
0000
,  // measure 40
1003
0100
0020
0000
0130
1000
0002
0000
1003
0010
0100
0010
2000
0000
3001
0000
,  // measure 41
0010
0000
0100
0000
2000
0000
0000
3000
1004
0000
0000
0003
0021
0000
0130
0000
,  // measure 42
1000
0000
0001
0000
0201
0000
0000
0310
1000
0001
0010
0100
2000
0000
3001
0000
,  // measure 43
0100
0010
1000
0000
1400
0000
0320
0031
,  // measure 44
1000
0000
0010
0000
0210
0000
0301
1000
0010
1000
0001
0010
0200
0000
1300
0000
,  // measure 45
0001
0100
0001
2000
0000
3100
0010
0100
1000
0001
0100
0010
2000
0000
3020
0000
,  // measure 46
0130
0001
1000
1100
0000
0400
0000
0000
1300
0001
0100
0010
0200
0000
0302
0000
,  // measure 47
1003
0100
0010
0200
0000
1300
0001
0100
0010
0100
0001
1000
0200
0000
0320
0000
,  // measure 48
0130
1000
0001
0101
0000
0400
0000
0000
0310
1000
0001
0010
0200
0000
0310
0000
,  // measure 49
0011
0000
0001
1000
0010
0100
0001
1000
0100
0000
0010
0100
1000
0001
0100
0010
,  // measure 50
1000
2002
0000
0000
0000
0000
0000
0000
,  // measure 51
0000
0000
0000
0000
,  // measure 52
0000
0000
0000
0000
,  // measure 53
0000
0000
0000
0000
0000
0000
0000
3003
;

//---------------dance-single - Hard----------------
#NOTES:
     dance-single:
     Ace Of Hearts (2011):
     Hard:
     7:
     0.379,0.000,0.007,0.520,0.122: // measure 1
0000
0000
0000
0000
,  // measure 2
0000
0000
0000
0000
,  // measure 3
2000
3002
0013
0000
0002
2003
3010
0000
,  // measure 4
0200
0000
0000
0000
0301
0000
1000
0000
0100
0000
0010
0000
0004
4000
0000
0000
,  // measure 5
3003
0000
0000
0000
0001
0000
1000
0020
0000
0000
1030
0000
0002
0000
0000
0203
,  // measure 6
0000
0000
0300
0000
0001
1000
0000
0020
0000
0000
1030
0000
0001
0000
0200
0000
,  // measure 7
0000
0300
0001
1000
0100
0010
0100
1000
,  // measure 8
0002
0000
1003
0400
0000
0000
0300
0000
,  // measure 9
0000
0000
0000
0000
1000
0001
0000
0200
0000
0000
0310
0000
2000
0000
0000
3002
,  // measure 10
0000
0000
0003
0000
1000
0100
0000
0020
0000
0000
0130
0000
1000
0000
0002
0000
,  // measure 11
0000
0003
1000
0010
0100
0010
1000
0001
,  // measure 12
0020
0000
0130
4000
0000
0000
3000
0000
,  // measure 13
0001
0010
0100
1000
0100
0010
0001
0040
,  // measure 14
0000
0230
0000
2300
0000
3001
0100
0002
,  // measure 15
0000
1003
0010
4000
0000
3004
0000
0203
,  // measure 16
0000
0301
2000
0000
3001
0200
0000
0300
,  // measure 17
0001
0100
0010
1000
0010
0100
0001
4000
,  // measure 18
0000
3002
0000
0203
0000
0310
1000
0001
,  // measure 19
1000
0100
0010
0004
0000
0000
0003
1000
,  // measure 20
0020
0000
0000
0000
0030
0000
4000
0004
0000
0000
3003
0000
0001
0000
0010
0000
,  // measure 21
0100
0000
0010
0000
0002
0000
0000
1003
0400
0000
0000
0000
1300
0000
0001
0000
,  // measure 22
0100
0000
0010
0000
2000
0000
0000
3001
0020
0000
0030
0000
0001
0000
1000
0000
,  // measure 23
0010
1000
0002
0000
0403
0000
0301
1000
,  // measure 24
0100
2000
0000
0000
3000
0000
0001
0100
,  // measure 25
0010
0100
0002
0000
4003
0000
3010
1000
,  // measure 26
0001
0000
0010
0000
0200
0000
0000
0310
0004
0000
0000
0000
1003
0000
0010
0000
,  // measure 27
1000
0001
0020
0000
0430
0000
1300
0001
,  // measure 28
1000
0000
0010
0000
2000
0000
0000
3001
0020
0000
0000
0000
0031
0000
1000
0000
,  // measure 29
0010
1000
0001
0010
0100
1000
0004
0000
,  // measure 30
1003
0010
1000
0001
1000
0100
0020
0000
,  // measure 31
0031
1000
0002
0000
0000
0000
0003
0000
1000
0100
4000
0000
0000
0000
3000
0000
,  // measure 32
0001
1000
0001
0000
0000
0000
0010
0001
0200
0000
0000
0000
0300
0000
0000
0000
,  // measure 33
0001
0010
0100
1000
0100
0010
0002
0000
,  // measure 34
0003
0000
2000
0000
0000
0000
3001
0000
1000
0010
4000
0000
0000
0000
3000
0000
,  // measure 35
0001
0100
0002
0000
0000
0000
0003
0000
1000
0100
2000
0000
3001
0000
0100
0000
,  // measure 36
0010
0100
0001
1000
0002
0000
0013
0001
,  // measure 37
1000
0000
0010
0000
2000
0000
0000
3001
0400
0000
0000
0000
0310
0000
1000
0000
,  // measure 38
0001
0000
0010
0000
0002
0000
0000
1003
0020
0000
0000
0000
1030
0000
0001
0000
,  // measure 39
0010
0100
2000
0000
3002
0000
0013
0100
,  // measure 40
1000
0002
0000
0000
0003
0000
1000
0010
,  // measure 41
0100
0010
2000
0000
3004
0000
0013
0001
,  // measure 42
1000
0000
0010
0000
2000
0000
0000
3001
0040
0000
0000
0000
0031
0000
1000
0000
,  // measure 43
0010
1000
0002
0000
0403
0000
0301
1000
,  // measure 44
0100
0000
1000
0000
0002
0000
0000
1003
0020
0000
0000
0000
2030
0000
3002
0000
,  // measure 45
0013
0000
0000
0002
0000
0000
2003
0000
3010
0000
0000
0000
2000
0000
3001
0000
,  // measure 46
0010
0000
0100
1000
0000
0004
0000
0000
0000
0000
0003
0000
2000
0000
3020
0000
,  // measure 47
0130
0000
0000
0002
0000
0000
2003
0000
3010
0000
0000
0000
2000
0000
3001
0000
,  // measure 48
1000
0000
0001
0010
0000
0400
0000
0000
0000
0000
0300
0000
2000
0000
3002
0000
,  // measure 49
0103
0000
0000
0020
0000
0000
1030
0000
0001
0000
1000
0000
0100
0000
0010
0000
,  // measure 50
0001
2002
0000
0000
0000
0000
0000
0000
,  // measure 51
0000
0000
0000
0000
,  // measure 52
0000
0000
0000
0000
,  // measure 53
0000
0000
0000
0000
0000
0000
0000
3003
;

//---------------dance-single - Medium----------------
#NOTES:
     dance-single:
     Ace Of Hearts (2011):
     Medium:
     5:
     0.245,0.000,0.007,0.200,0.037: // measure 1
0000
0000
0000
0000
,  // measure 2
0000
0000
0000
0000
,  // measure 3
0001
0000
0001
0000
1000
0010
1000
0000
,  // measure 4
0020
0030
1000
2000
,  // measure 5
3001
0000
0000
0000
0010
0000
0000
0010
0000
0000
0000
0000
0001
0000
0000
0001
,  // measure 6
0000
0000
0000
0000
1000
0000
0000
2000
0000
0000
0000
0000
3001
0000
0100
0000
,  // measure 7
0000
0001
0001
1000
,  // measure 8
0020
0000
1030
0004
0000
0000
0003
0000
,  // measure 9
0000
0000
0000
0000
1000
0000
0000
1000
0000
0000
0000
0000
0010
0000
0000
0010
,  // measure 10
0000
0000
0000
0000
0100
0000
0000
0100
0000
0000
0000
0000
0001
0000
1000
0000
,  // measure 11
0000
0010
0010
1000
,  // measure 12
2000
0000
3001
0040
0000
0000
0030
0000
,  // measure 13
0001
0000
0001
0000
1000
0000
1000
0040
,  // measure 14
0000
1030
0000
2000
0000
3001
0010
0002
,  // measure 15
0000
0000
1003
0400
0000
1300
0000
0002
,  // measure 16
0000
1003
0040
0000
1030
0002
0000
0003
,  // measure 17
1000
0000
1000
0000
0001
0000
0001
4000
,  // measure 18
0000
3010
0000
2000
0000
0000
3001
0200
,  // measure 19
0000
0301
0000
4000
0000
3000
0000
0001
,  // measure 20
0020
0000
0030
0000
0000
0000
0001
0100
,  // measure 21
0001
0000
1000
0000
4000
0000
3001
0010
,  // measure 22
0001
0000
0010
0000
0020
0000
0031
1000
,  // measure 23
0001
1000
1000
0010
,  // measure 24
0010
4000
0000
0000
3000
0000
0001
1000
,  // measure 25
0001
0000
0100
0000
0400
0000
0301
1000
,  // measure 26
0001
0000
0010
0000
0040
0000
0031
1000
,  // measure 27
0001
0000
0100
0000
0200
0000
0301
0100
,  // measure 28
0001
1000
2000
3002
,  // measure 29
0010
1000
0010
2003
,  // measure 30
3010
0100
0100
0004
,  // measure 31
1003
0010
0000
0000
0100
0001
0000
0000
,  // measure 32
1000
0001
0000
0010
0200
0000
0300
0000
,  // measure 33
1000
1000
0001
0002
,  // measure 34
0003
2000
0000
3001
0100
0004
0000
0003
,  // measure 35
1000
0010
0000
0000
1000
0001
1000
0000
,  // measure 36
1000
0000
0100
0000
0100
0000
1000
0100
,  // measure 37
1000
0000
0001
0000
0004
0000
1003
0100
,  // measure 38
1000
0000
0100
0000
0200
0000
0310
0001
,  // measure 39
0010
0001
0002
1003
,  // measure 40
1000
0020
0000
0000
0030
0000
1000
0010
,  // measure 41
1000
0000
0010
0000
0040
0000
1030
0001
,  // measure 42
1000
0000
0001
0000
0002
0000
1003
0100
,  // measure 43
1000
0000
0001
0000
0002
0000
1003
0010
,  // measure 44
1000
0001
0001
1000
,  // measure 45
1000
0000
0010
1000
0010
0000
1000
0000
,  // measure 46
1000
0000
0000
0001
0000
0400
0000
0000
0000
0000
0300
0000
0001
0000
0000
0000
,  // measure 47
0001
0000
1000
0100
1000
0000
0001
0010
,  // measure 48
0001
0000
0000
1000
0000
0400
0000
0000
0000
0000
0300
0000
1000
0000
0000
0000
,  // measure 49
1000
0000
0001
0100
0001
0000
1000
0000
,  // measure 50
0000
2002
0000
0000
0000
0000
0000
0000
,  // measure 51
0000
0000
0000
0000
,  // measure 52
0000
0000
0000
0000
,  // measure 53
0000
0000
0000
0000
0000
0000
0000
3003
;

//---------------dance-single - Easy----------------
#NOTES:
     dance-single:
     Ace Of Hearts (2011):
     Easy:
     3:
     0.158,0.000,0.007,0.178,0.000: // measure 1
0000
0000
0000
0000
,  // measure 2
0000
0000
0000
0000
,  // measure 3
0001
0001
0001
0000
,  // measure 4
2000
0000
3000
0000
,  // measure 5
0000
0010
0010
1000
,  // measure 6
1000
0001
0001
0000
,  // measure 7
0001
1000
1000
1000
,  // measure 8
0020
0000
0030
0000
,  // measure 9
0000
1000
1000
0001
,  // measure 10
0001
0100
0100
0000
,  // measure 11
0100
0010
0010
1000
,  // measure 12
2000
0000
3000
0000
,  // measure 13
0001
0001
1000
1000
,  // measure 14
2000
3000
0010
0010
,  // measure 15
0020
0030
1000
1000
,  // measure 16
2000
3000
0001
0000
,  // measure 17
1000
1000
0001
0001
,  // measure 18
0020
0000
0030
0000
,  // measure 19
0001
0001
0001
0000
,  // measure 20
2000
3000
0000
0010
,  // measure 21
0010
0010
0000
1000
,  // measure 22
1000
1000
0000
0001
,  // measure 23
0001
0001
0000
0020
,  // measure 24
0000
0030
0000
0001
,  // measure 25
0001
0001
0000
1000
,  // measure 26
1000
1000
0000
0010
,  // measure 27
0010
0010
0000
0200
,  // measure 28
0000
0300
0000
0001
,  // measure 29
0001
0001
0000
0001
,  // measure 30
0000
1000
1000
1000
,  // measure 31
0000
0002
0000
0003
,  // measure 32
0010
0000
0100
0000
,  // measure 33
0000
1000
1000
1000
,  // measure 34
0000
0002
0000
0003
,  // measure 35
1000
0000
1000
0001
,  // measure 36
0001
0010
0010
0001
,  // measure 37
0001
0002
0003
1000
,  // measure 38
1000
2000
3000
0010
,  // measure 39
0010
0020
0030
0100
,  // measure 40
0100
0200
0300
0001
,  // measure 41
0001
0002
0003
1000
,  // measure 42
1000
2000
3000
0010
,  // measure 43
0010
0020
0030
0100
,  // measure 44
0100
0200
0300
0001
,  // measure 45
0001
0001
0000
2000
,  // measure 46
0000
3000
0000
0010
,  // measure 47
0010
0010
0000
0200
,  // measure 48
0000
0300
0000
0001
,  // measure 49
0001
0001
0000
1000
,  // measure 50
0000
2002
0000
0000
0000
0000
0000
0000
,  // measure 51
0000
0000
0000
0000
,  // measure 52
0000
0000
0000
0000
,  // measure 53
0000
0000
0000
0000
0000
0000
0000
3003
;

//---------------dance-single - Novice----------------
#NOTES:
     dance-single:
     Ace Of Hearts (2011):
     Beginner:
     1:
     0.101,0.000,0.007,0.134,0.000: // measure 1
0000
0000
0000
0000
,  // measure 2
0000
0000
0000
0000
,  // measure 3
2000
0000
3000
0000
,  // measure 4
0002
0000
0003
0000
,  // measure 5
0000
0000
1000
0000
,  // measure 6
1000
0000
1000
0000
,  // measure 7
1000
0000
0010
0000
,  // measure 8
0020
0000
0030
0000
,  // measure 9
0000
0000
0100
0000
,  // measure 10
0100
0000
0100
0000
,  // measure 11
0100
0000
0001
0000
,  // measure 12
0002
0000
0003
0000
,  // measure 13
1000
0000
1000
0000
,  // measure 14
0100
0000
0100
0000
,  // measure 15
0100
0000
0010
0000
,  // measure 16
0010
0000
0010
0000
,  // measure 17
0001
0000
0001
0000
,  // measure 18
1000
0000
1000
0000
,  // measure 19
1000
0000
0000
0000
,  // measure 20
0002
0003
0000
1000
,  // measure 21
0000
1000
0000
0001
,  // measure 22
0000
0001
0000
0010
,  // measure 23
0000
0010
0000
0020
,  // measure 24
0000
0030
0000
0001
,  // measure 25
0000
0001
0000
1000
,  // measure 26
0000
1000
0000
0100
,  // measure 27
0000
0100
0000
0200
,  // measure 28
0000
0300
0000
0010
,  // measure 29
0000
0010
0000
0010
,  // measure 30
0000
0001
0000
0002
,  // measure 31
0000
0000
0003
0000
,  // measure 32
2000
0000
0000
3000
,  // measure 33
0000
0010
0000
0010
,  // measure 34
0000
0020
0000
0030
,  // measure 35
0000
1000
0000
0001
,  // measure 36
0000
0001
0000
0010
,  // measure 37
0000
0010
0000
0001
,  // measure 38
0000
0001
0000
1000
,  // measure 39
0000
1000
0000
2000
,  // measure 40
0000
3000
0000
0010
,  // measure 41
0000
0010
0000
0100
,  // measure 42
0000
0100
0000
0001
,  // measure 43
0000
0001
0000
0002
,  // measure 44
0000
0003
0000
2000
,  // measure 45
0000
3000
0000
0020
,  // measure 46
0000
0030
0000
2000
,  // measure 47
0000
3000
0000
0002
,  // measure 48
0000
0003
0000
1000
,  // measure 49
0000
1000
0000
0001
,  // measure 50
0000
2002
0000
0000
0000
0000
0000
0000
,  // measure 51
0000
0000
0000
0000
,  // measure 52
0000
0000
0000
0000
,  // measure 53
0000
0000
0000
0000
0000
0000
0000
3003
;
