#TITLE:Ride On Shooting Star;
#SUBTITLE:;
#ARTIST:The Pillows;
#TITLETRANSLIT:;
#SUBTITLETRANSLIT:;
#ARTISTTRANSLIT:;
#GENRE:J-Rock;
#CREDIT:Ace Of Hearts;
#BANNER:Ride On Shooting Star - bn.png;
#BACKGROUND:Ride On Shooting Star - bg.png;
#LYRICSPATH:;
#CDTITLE:Ace Of Hearts.png;
#MUSIC:Ride On Shooting Star.ogg;
#OFFSET:1.050;
#SAMPLESTART:42.166;
#SAMPLELENGTH:15.000;
#SELECTABLE:YES;
#BPMS:0.000=138.360,304.000=69.180,304.500=34.590;
#STOPS:;
#BGCHANGES:2.750=FLCL ED.avi=1.000=1=0=0=StretchNoLoop==CrossFade==,
296.000=Ride On Shooting Star - Early Finish.png=1.000=1=0=0=StretchNoLoop==CrossFade==,
99999=-nosongbg-=1.000=0=0=0 // don't automatically add -songbackground-
;
#KEYSOUNDS:;

//---------------dance-single - Expert----------------
#NOTES:
     dance-single:
     Ace Of Hearts (2011 Rewrite):
     Challenge:
     10:
     0.840,0.274,0.547,1.000,0.295: // measure 1
0000
0000
0000
0000
0000
0000
0000
0000
0000
0000
0000
0000
0000
0000
1000
0100
,  // measure 2
0020
0000
0000
0000
0230
0000
0000
0000
2300
0000
0000
0000
3000
0000
0001
0100
,  // measure 3
0020
0000
1030
0000
1100
0000
0100
0010
0002
0000
0103
0000
0110
0000
0010
1000
,  // measure 4
0002
0000
0000
0000
0023
0000
0000
0000
0230
0000
0000
0000
0300
0000
1000
0001
,  // measure 5
0200
0000
0310
0000
1010
0000
1000
0001
0200
0000
0301
0000
0011
0000
0010
0100
,  // measure 6
2000
0000
0000
0000
3002
0000
0000
0000
0203
0000
0000
0000
0300
0000
0010
1000
,  // measure 7
0002
0000
0013
0000
0110
0000
0100
1000
0002
0000
0103
0000
0110
0000
0010
1000
,  // measure 8
0002
0000
0000
0000
0203
0000
0000
0000
0320
0000
0000
0000
0030
0000
1000
0001
,  // measure 9
0020
0000
0130
0000
1100
0000
1000
0001
0200
0000
0310
0000
1010
0000
1000
0001
,  // measure 10
0020
0000
0230
0000
2300
3001
0100
0020
,  // measure 11
0000
0000
0130
0000
0001
0000
1000
0000
1020
0000
0000
0000
0130
0000
0001
1000
,  // measure 12
0200
0000
0320
0000
0032
1003
0010
0210
,  // measure 13
0000
0000
0301
0000
4000
0000
0000
0000
0000
0000
3000
0000
0000
0000
0100
0010
,  // measure 14
0002
0000
2003
0000
3020
0130
0001
2001
,  // measure 15
0000
0000
3100
0000
0010
0000
0001
0000
0201
0000
0000
0000
0320
0000
0130
0001
,  // measure 16
2000
0000
3200
0000
0320
0130
1000
1002
,  // measure 17
0000
0103
0110
0010
1010
1000
0001
0010
,  // measure 18
0210
0000
1000
0300
1000
0000
0001
0000
0100
0000
0010
0000
0100
0000
0001
0000
,  // measure 19
2001
0000
0100
3000
0100
0000
0010
0000
0001
0000
1000
0000
0010
0000
0100
0000
,  // measure 20
0102
0000
1000
0003
1000
0000
0100
0000
0010
0000
0100
0000
1000
0000
0001
0000
,  // measure 21
0201
0000
0010
0300
0010
0000
1000
0000
0001
0000
0010
0000
0100
0000
2200
0000
,  // measure 22
0000
0001
3300
1000
0001
0100
0010
1000
,  // measure 23
1002
0000
0010
0003
0010
0000
0100
0000
1000
0000
0001
0000
0100
0000
0001
0000
,  // measure 24
2001
3200
0310
0001
1000
0010
0100
0001
,  // measure 25
2001
0000
3100
0000
0120
0000
0031
1000
0200
0000
0310
0001
1000
0010
0100
0010
,  // measure 26
2000
3001
0010
0000
0210
0000
1300
0001
0200
0000
0310
0000
1000
0000
0001
0000
,  // measure 27
0021
0000
0230
0000
1300
0000
2002
0000
3000
0000
0103
0000
0010
0000
0100
0001
,  // measure 28
1000
0000
0100
0000
0010
0000
0100
1000
0001
0000
0100
0000
0010
0000
0100
0000
,  // measure 29
0202
0000
0000
1000
0303
0100
0101
0001
,  // measure 30
1002
0000
1003
0010
0100
0000
0001
0000
1000
0000
0100
0010
0001
0000
1000
0000
,  // measure 31
1020
0000
0230
0000
0301
0000
2002
0000
0003
0000
3100
0000
0010
0000
0100
1000
,  // measure 32
0001
0000
0100
0000
0110
0000
0010
1000
0001
0000
0010
0000
0110
0000
0100
0000
,  // measure 33
2000
0000
0001
3000
0001
0000
0010
0001
0010
0100
1000
0001
0100
0010
1000
0001
,  // measure 34
0021
0000
0000
0000
0230
0000
0000
0000
2300
0000
0000
0000
3000
0000
0001
0100
,  // measure 35
0020
0000
1000
0000
0130
0000
0001
1000
0200
0000
0010
0000
1300
0000
0001
0100
,  // measure 36
0020
0000
0000
0000
2030
0000
0000
0000
3002
0000
0000
0000
0003
0000
0010
0100
,  // measure 37
0020
0000
0100
0000
0031
0000
1000
0001
0200
0000
0010
0000
0301
0000
1000
0100
,  // measure 38
0120
0000
0000
0000
0000
0000
0032
0000
0000
0000
0000
0000
2003
0000
0000
3010
0100
0010
0100
0000
0000
0102
0000
0000
,  // measure 39
0000
0000
1003
0000
0100
0000
0010
0000
0012
0000
0000
0000
2003
0000
3010
0100
,  // measure 40
0002
0000
2003
0000
3200
0310
0100
2100
,  // measure 41
0000
0000
3001
0000
0200
0000
0000
0000
0300
0000
0000
0000
0000
0000
0010
1000
,  // measure 42
0002
0000
0203
0000
0320
1030
0001
0200
,  // measure 43
0010
0000
0001
0000
0010
0000
0301
0000
1000
0000
0100
0000
0010
0000
0100
1000
,  // measure 44
0002
0000
0203
0000
0320
1030
0001
0201
,  // measure 45
0000
0000
0310
0000
1010
0000
1000
0000
0001
0100
0010
0000
2000
0000
3001
0000
,  // measure 46
0021
0000
0100
0030
0100
0000
1000
0000
0001
0000
0100
0000
0010
0000
1000
0000
,  // measure 47
1002
0000
0010
0003
0010
0000
0100
0000
1000
0000
0001
0000
0100
0000
0010
0000
,  // measure 48
2010
0000
0001
3000
0001
0000
0100
0000
0010
0000
1000
0000
0001
0000
0010
0000
,  // measure 49
0210
0000
1000
0300
1000
0000
0001
0000
1000
0000
0010
0000
0100
0000
0202
0000
,  // measure 50
0000
0010
0303
0001
1000
0100
0010
0100
,  // measure 51
2100
0000
0001
3000
0001
0000
0100
0000
0002
0000
0010
0000
2003
0000
0010
0000
,  // measure 52
3002
0203
0310
1000
1100
0100
0010
0001
,  // measure 53
2001
0000
3010
0000
0100
0000
0001
1000
0100
0010
0100
1000
0001
0100
0010
1000
,  // measure 54
0002
0103
0010
0000
1000
0000
0001
0010
0200
0000
1300
0000
0001
0000
0100
0000
,  // measure 55
0120
0000
2030
0000
3001
0000
0022
0000
0003
0000
0130
0000
1000
0000
0001
0100
,  // measure 56
0010
0000
1000
0000
0001
0000
0010
0100
1000
0000
0001
0000
0100
0000
0001
0000
,  // measure 57
0022
0000
0000
1000
0033
0001
1001
1000
,  // measure 58
1020
0000
0130
0001
1000
0000
0100
0000
0010
0000
0100
1000
0002
0000
0103
0000
,  // measure 59
0120
0000
1030
0000
0001
0000
0202
0000
0003
0000
0310
0000
1000
0000
0001
0010
,  // measure 60
0100
0000
1000
0000
1001
0000
0001
0100
0010
0000
1000
0000
0001
0010
0100
0000
,  // measure 61
2000
0000
3001
0000
0010
0000
0001
1000
0001
0010
0100
1000
0100
0010
0001
1000
,  // measure 62
0002
0103
0010
0000
2010
0000
3001
0010
0100
0000
1000
0000
1002
0000
0013
0000
,  // measure 63
0210
0000
1300
0000
0001
0000
0202
0000
0003
0000
0310
0000
1000
0000
0001
0100
,  // measure 64
0010
0000
1000
0000
0001
0000
0010
0001
1000
0000
0001
0000
0100
0000
0010
0000
,  // measure 65
2020
0000
0000
0000
0000
0000
0001
0000
3030
0000
0010
0000
0100
0001
1000
0000
,  // measure 66
1200
0000
0310
0001
1000
0000
0010
0000
0100
0000
0001
0000
1000
0000
0100
0000
,  // measure 67
0120
0000
0031
0000
1000
0000
2020
0000
3000
0000
0130
0000
0001
0000
1000
0100
,  // measure 68
0010
0100
1100
1000
0001
1000
1010
0010
,  // measure 69
0210
0000
0301
0000
1000
0000
0100
0010
0100
0000
1000
0000
0001
0000
0100
0000
,  // measure 70
0010
0000
1010
0000
1010
0000
1000
0000
1001
0000
0001
0000
0010
0100
1000
0100
,  // measure 71
0120
0000
0000
0000
0032
0000
0000
0000
2003
0000
0000
0000
3000
0000
0010
0100
,  // measure 72
0002
0000
1003
0000
1100
0000
0100
0010
0002
0000
1003
0000
2020
0000
3030
0000
,  // measure 73
2002
0000
3000
0000
0203
0000
0000
0000
0320
0000
0000
0000
0030
0000
1000
0010
,  // measure 74
0200
0000
0001
0000
0310
0000
1000
0001
0020
0000
0100
0000
0031
0000
1000
0010
,  // measure 75
0200
0000
0000
0000
0302
0000
0000
0000
2003
0000
0000
0000
3000
0000
0001
0010
,  // measure 76
0002
0000
1003
0000
1010
0000
0010
0100
0002
0000
1003
0000
1100
0000
0100
0010
,  // measure 77
0002
0000
0000
0000
2003
0000
0000
3040
0000
0000
0000
0000
0000
0000
0000
0000
0000
0000
0000
0000
0000
0000
0000
0000
0000
0000
0000
0000
0000
0000
0000
0000
,  // measure 78
0000
0000
0000
0000
0000
0000
0000
0030
0000
0000
0000
0000
0000
0000
0000
0000
0000
0000
0000
0000
0000
0000
0000
0000
0000
0000
0000
0000
0000
0000
0000
0000
;

//---------------dance-single - Hard----------------
#NOTES:
     dance-single:
     Ace Of Hearts (2011 Rewrite):
     Hard:
     8:
     0.520,0.247,0.185,0.888,0.046: // measure 1
0000
0000
0000
0000
0000
0000
0000
0000
0000
0000
0000
0000
0000
0000
0001
0010
,  // measure 2
0002
0000
2003
0000
3020
0000
0030
0100
,  // measure 3
0002
0000
1003
0000
0000
0000
0001
0000
0020
0000
0130
0000
0000
0000
1000
0100
,  // measure 4
2000
0000
3002
0000
0023
0000
0030
0001
,  // measure 5
2000
0000
3010
0000
0000
0000
1000
0000
0002
0000
0103
0000
0000
0000
0010
1000
,  // measure 6
0020
0000
0230
0000
0302
0000
0003
1000
,  // measure 7
0020
0000
0130
0000
0000
0000
0001
0000
2000
0000
3100
0000
0000
0000
0010
0001
,  // measure 8
0020
0000
0230
0000
2300
0000
3000
0010
,  // measure 9
0200
0000
0301
0000
0000
0000
1000
0000
0002
0000
0013
0000
0000
0000
0001
1000
,  // measure 10
0002
0000
0203
0000
0310
1000
0001
0020
,  // measure 11
0000
0130
1000
0001
2000
0000
0020
0000
,  // measure 12
0000
3030
0000
0000
0000
1000
0001
0020
,  // measure 13
0000
0130
4000
0000
0000
3000
0000
0000
,  // measure 14
0000
0000
0000
0000
0000
0001
0100
0020
,  // measure 15
0000
1030
0001
0010
0200
0000
2300
0000
,  // measure 16
3000
0000
0000
0000
0000
0001
0010
0200
,  // measure 17
0000
0310
0004
0000
0003
0000
1000
0000
,  // measure 18
0010
0100
0010
1000
0001
0010
0100
0010
,  // measure 19
0001
1000
0010
0100
0010
1000
0001
0010
,  // measure 20
0100
1000
0001
0100
0010
1000
0010
0100
,  // measure 21
0001
1000
0100
1000
0001
0100
0010
2000
,  // measure 22
0000
3100
0000
0010
0100
1000
0001
0100
,  // measure 23
0010
0000
0000
0100
0001
1000
0010
0000
,  // measure 24
0220
0000
0000
0330
,  // measure 25
0000
0100
0002
0003
2001
0000
3200
0300
,  // measure 26
0120
0031
2001
3010
,  // measure 27
0200
0301
0000
2002
0000
0000
3003
0001
,  // measure 28
0200
0320
2030
3002
,  // measure 29
0023
0000
0000
0230
0000
0000
0300
0000
,  // measure 30
2000
3002
0203
0310
,  // measure 31
1010
1000
0000
2002
0000
0000
3003
0001
,  // measure 32
0020
0031
2000
3001
,  // measure 33
0202
0000
0000
0000
0000
0000
0000
0000
0000
0000
0000
0000
0303
0000
0001
1000
,  // measure 34
0002
0000
0203
0000
0320
0000
0030
1000
,  // measure 35
0010
0000
0100
0000
0010
0000
1000
0000
0001
0000
0010
0000
0100
0000
1000
0100
,  // measure 36
2000
0000
3002
0000
0203
0000
0300
0001
,  // measure 37
1000
0000
0001
0000
0010
0000
0100
0000
1000
0000
0100
0000
0010
0000
0001
0010
,  // measure 38
0002
0000
2003
0000
3001
0040
0000
0230
,  // measure 39
0000
0310
0001
1000
0002
0000
0203
0000
,  // measure 40
0000
0300
0000
0000
0000
0010
1000
0002
,  // measure 41
0000
0000
1003
0000
0020
0000
0000
0000
0030
0000
0000
0000
0000
0000
1000
0010
,  // measure 42
2000
0000
3002
0000
0013
0100
1000
0004
,  // measure 43
0000
0000
0000
0000
0000
0000
0000
0000
1003
0000
0000
0000
0010
0000
1000
0001
,  // measure 44
2000
0000
3200
0000
0310
0100
1000
0002
,  // measure 45
0000
1003
0200
0000
0300
0000
0010
0000
,  // measure 46
0001
1000
0010
0100
0010
1000
0001
0010
,  // measure 47
0100
0010
0001
1000
0010
0100
0001
0100
,  // measure 48
0010
1000
0001
1000
0100
0010
0100
1000
,  // measure 49
0001
0100
0010
0100
0001
1000
0100
0020
,  // measure 50
0000
0130
0000
1000
0001
0100
0010
1000
,  // measure 51
0001
0000
0000
0010
0001
1000
0001
0000
,  // measure 52
0022
0000
0000
0033
,  // measure 53
0000
0010
0100
0000
2100
0000
3002
0003
,  // measure 54
0201
0310
2010
3001
,  // measure 55
0020
0130
0000
2200
0000
0000
3300
0000
,  // measure 56
2000
3001
0100
0010
,  // measure 57
0200
0000
0301
2000
0000
0000
3000
0000
,  // measure 58
0002
0013
0100
1000
,  // measure 59
1001
0001
0000
0202
0000
0000
0303
0100
,  // measure 60
0020
1030
0002
0013
,  // measure 61
0220
0000
0000
0330
,  // measure 62
2100
3001
0021
0130
,  // measure 63
2000
3001
0000
2002
0000
0000
3003
1000
,  // measure 64
0200
0310
0100
1000
,  // measure 65
0002
0000
0000
0203
0000
0000
0300
0000
,  // measure 66
0020
1030
0001
0010
,  // measure 67
0110
0100
0000
2200
0000
0000
3300
1000
,  // measure 68
0002
0013
0002
1003
,  // measure 69
2200
0000
0000
3300
,  // measure 70
0000
0110
0020
0030
0011
0002
0003
2002
,  // measure 71
0000
3000
0203
0000
0320
0000
0030
1000
,  // measure 72
0001
0010
0100
1000
0001
0010
0010
0000
,  // measure 73
0220
0030
2300
0000
3002
0000
0003
1000
,  // measure 74
0010
0000
1000
0000
0001
0000
0010
0000
0100
0000
1000
0000
0001
0000
1000
0100
,  // measure 75
2000
0000
3002
0000
0203
0000
0300
0010
,  // measure 76
0100
0000
0001
0000
1000
0000
0001
0000
0010
0000
0100
0000
1000
0000
0001
0010
,  // measure 77
0002
0000
0000
0000
2003
0000
0000
3040
0000
0000
0000
0000
0000
0000
0000
0000
0000
0000
0000
0000
0000
0000
0000
0000
0000
0000
0000
0000
0000
0000
0000
0000
,  // measure 78
0000
0000
0000
0000
0000
0000
0000
0030
0000
0000
0000
0000
0000
0000
0000
0000
0000
0000
0000
0000
0000
0000
0000
0000
0000
0000
0000
0000
0000
0000
0000
0000
;

//---------------dance-single - Medium----------------
#NOTES:
     dance-single:
     Ace Of Hearts (2011 Rewrite):
     Medium:
     6:
     0.365,0.191,0.014,0.782,0.004: // measure 1
0000
0000
0000
0000
0000
0000
0000
0001
,  // measure 2
0020
0032
2003
3000
,  // measure 3
0020
0000
0030
0000
2000
0000
3000
0001
,  // measure 4
0200
0302
2003
3000
,  // measure 5
0020
0000
0030
0000
2000
0000
3000
0001
,  // measure 6
0020
0032
2003
3000
,  // measure 7
0020
0000
0030
0000
2000
0000
3000
0001
,  // measure 8
0200
0302
2003
3000
,  // measure 9
0020
0000
0030
0000
2000
0000
3000
0001
,  // measure 10
0200
0000
0302
0000
1003
0010
0000
2000
,  // measure 11
0000
3001
0010
0000
0002
0000
2003
0000
,  // measure 12
3000
0000
0000
0000
0000
0010
0000
2000
,  // measure 13
0000
3001
0200
0000
0300
0000
0000
0000
,  // measure 14
0000
0000
0000
0000
0000
0001
0000
2000
,  // measure 15
0000
3001
0010
0000
0002
0000
2003
0000
,  // measure 16
3000
0000
0000
0000
0000
0001
0000
0020
,  // measure 17
0000
0130
2000
0000
3000
0000
0010
0000
,  // measure 18
2000
0000
3000
0000
0001
0010
0001
0000
,  // measure 19
2000
0000
3000
0000
0001
0100
0001
0000
,  // measure 20
2000
3000
0010
1000
,  // measure 21
0002
0000
0003
0000
1000
0000
0010
2000
,  // measure 22
0000
3001
0000
0010
0002
0000
1003
0000
,  // measure 23
0200
0000
0300
0010
0002
0000
1003
0000
,  // measure 24
0200
0000
0000
0300
,  // measure 25
0000
1000
1000
0000
0002
0000
0203
0000
,  // measure 26
0320
1030
0002
0013
,  // measure 27
0200
0000
0000
0300
0000
0000
0000
1000
,  // measure 28
0002
1003
0010
1000
,  // measure 29
0002
0000
0000
0203
0000
0000
0300
0000
,  // measure 30
0001
1000
0100
0010
,  // measure 31
0100
2000
0000
3000
0000
0000
0000
0001
,  // measure 32
0200
0301
2000
3001
,  // measure 33
0020
0000
0000
0000
0000
0000
0030
0001
,  // measure 34
2000
0000
3002
0000
0023
0000
0030
0001
,  // measure 35
1000
0000
0000
0010
1000
0000
0000
0010
,  // measure 36
0200
0000
0302
0000
2003
0000
3000
0001
,  // measure 37
0010
0000
0000
0001
1000
0000
0000
0010
,  // measure 38
2000
0000
3002
0000
0013
0100
0000
2000
,  // measure 39
0000
3001
0100
0000
0002
0000
2003
0000
,  // measure 40
3000
0000
0000
0000
0000
0010
0000
2000
,  // measure 41
0000
3001
0200
0000
0300
0000
0000
0000
,  // measure 42
0000
0000
0000
0000
0000
0001
0000
0200
,  // measure 43
0000
0301
1000
0000
0020
0000
2030
0000
,  // measure 44
0000
3000
0000
0000
0000
0001
0000
0020
,  // measure 45
0000
0031
2000
0000
3000
0000
0001
0000
,  // measure 46
0200
0000
0300
0000
0001
1000
0001
0000
,  // measure 47
0020
0000
0030
0000
0001
0010
0001
0000
,  // measure 48
2000
0000
3000
0001
0100
0000
0010
0000
,  // measure 49
0200
0000
0000
0301
1000
0000
0001
0020
,  // measure 50
0000
0030
0000
0001
0020
0000
0130
0000
,  // measure 51
1000
0000
0000
0001
0200
0000
0310
0000
,  // measure 52
0200
0000
0000
0300
,  // measure 53
0000
0001
0001
0000
2000
0000
3020
0000
,  // measure 54
0230
0301
2000
3001
,  // measure 55
0200
0000
0000
0300
0000
0000
0000
0000
,  // measure 56
0010
1000
0001
0010
,  // measure 57
0002
0000
0000
2003
0000
0000
3000
0000
,  // measure 58
0010
1000
0010
0100
,  // measure 59
0002
0000
0000
0003
0000
0000
0000
1000
,  // measure 60
0200
1300
0002
0103
,  // measure 61
0002
0000
0000
0003
,  // measure 62
2000
3010
2000
3001
,  // measure 63
0020
0000
0000
0030
0000
0000
0000
0100
,  // measure 64
2000
3001
0100
0001
,  // measure 65
2000
0000
0000
3020
0000
0000
0030
0000
,  // measure 66
1000
0001
1000
0010
,  // measure 67
0100
0002
0000
0003
0000
0000
0000
1000
,  // measure 68
0010
1000
0002
0013
,  // measure 69
0200
0000
0000
0300
,  // measure 70
0000
1000
2000
0000
3001
0001
0000
2001
,  // measure 71
0000
0000
3002
0000
0023
0000
0030
0001
,  // measure 72
1000
0000
0000
0010
1000
0000
0001
0000
,  // measure 73
1001
0000
1000
0000
0020
0000
0030
1000
,  // measure 74
0001
0000
0000
1000
0010
0000
0000
1000
,  // measure 75
0002
0000
0203
0000
0320
0000
0030
0100
,  // measure 76
0001
0000
0000
1000
0010
0000
0000
1000
,  // measure 77
0020
0000
0000
0000
2030
0000
0000
3002
0000
0000
0000
0000
0000
0000
0000
0000
0000
0000
0000
0000
0000
0000
0000
0003
0000
0000
0000
0000
0000
0000
0000
0000
;

//---------------dance-single - Easy----------------
#NOTES:
     dance-single:
     Ace Of Hearts (2011 Rewrite):
     Easy:
     4:
     0.213,0.082,0.007,0.121,0.004: // measure 1
0000
0000
0000
0000
,  // measure 2
1000
1000
1000
0000
,  // measure 3
0010
0000
0010
0000
,  // measure 4
0100
0100
0100
0000
,  // measure 5
0001
0000
0001
0000
,  // measure 6
1000
1000
1000
0000
,  // measure 7
0100
0000
0100
0000
,  // measure 8
0010
0010
0010
0000
,  // measure 9
0100
0000
0100
0000
,  // measure 10
1000
1000
1000
0000
,  // measure 11
0001
0000
0001
0000
,  // measure 12
0100
0100
0100
0000
,  // measure 13
0010
0000
0010
0000
,  // measure 14
0100
0100
0100
0000
,  // measure 15
0001
0000
0001
0000
,  // measure 16
1000
1000
1000
0000
,  // measure 17
0100
0000
0100
1000
,  // measure 18
1000
0000
0001
0001
,  // measure 19
0001
0000
0100
0100
,  // measure 20
0100
0000
0010
0010
,  // measure 21
0010
0000
1000
1000
,  // measure 22
1000
0000
0001
0001
,  // measure 23
0001
0000
0010
0010
,  // measure 24
0020
0000
0030
0000
,  // measure 25
0100
0000
0100
0000
,  // measure 26
1000
1000
0001
0001
,  // measure 27
0200
0000
0300
0000
,  // measure 28
0001
0001
1000
1000
,  // measure 29
0020
0000
0030
0000
,  // measure 30
0100
0100
0010
0010
,  // measure 31
2000
0000
3000
0000
,  // measure 32
0001
0001
0010
0010
,  // measure 33
0200
0000
0300
0000
,  // measure 34
0010
0010
0010
0000
,  // measure 35
0001
0000
0001
0000
,  // measure 36
1000
1000
1000
0000
,  // measure 37
0010
0000
0010
0000
,  // measure 38
0100
0100
0100
0000
,  // measure 39
0001
0000
0001
0000
,  // measure 40
1000
1000
1000
0000
,  // measure 41
0001
0000
0001
0000
,  // measure 42
0100
0100
0100
0000
,  // measure 43
0010
0000
0010
0000
,  // measure 44
1000
1000
1000
0000
,  // measure 45
0001
0000
0001
0010
,  // measure 46
0010
0000
0001
0001
,  // measure 47
0001
0000
1000
1000
,  // measure 48
1000
0000
0010
0010
,  // measure 49
0010
0000
0100
0100
,  // measure 50
0100
0000
0001
0001
,  // measure 51
0001
0000
1000
1000
,  // measure 52
2000
0000
3000
0000
,  // measure 53
0010
0000
0010
0000
,  // measure 54
1000
1000
0001
0001
,  // measure 55
0200
0000
0300
0000
,  // measure 56
0010
0010
1000
1000
,  // measure 57
0002
0000
0003
0000
,  // measure 58
0010
0010
0001
0001
,  // measure 59
2000
0000
3000
0000
,  // measure 60
0010
0010
1000
1000
,  // measure 61
0002
0000
0003
0000
,  // measure 62
1000
1000
0001
0001
,  // measure 63
0020
0000
0030
0000
,  // measure 64
0001
0001
0010
0010
,  // measure 65
0200
0000
0300
0000
,  // measure 66
1000
1000
0001
0001
,  // measure 67
0200
0000
0300
0000
,  // measure 68
0010
0010
1000
1000
,  // measure 69
0002
0000
0003
0000
,  // measure 70
0000
1000
1000
0000
,  // measure 71
2002
0000
3003
0000
,  // measure 72
0001
0000
0001
0000
,  // measure 73
0100
0100
0100
0000
,  // measure 74
0010
0000
0010
0000
,  // measure 75
1000
1000
1000
0000
,  // measure 76
0001
0000
0001
0000
,  // measure 77
1000
0000
0000
0000
1000
0000
0000
2000
0000
0000
0000
0000
0000
0000
0000
0000
0000
0000
0000
0000
0000
0000
0000
3000
0000
0000
0000
0000
0000
0000
0000
0000
;

//---------------dance-single - Novice----------------
#NOTES:
     dance-single:
     Ace Of Hearts (2011 Rewrite):
     Beginner:
     2:
     0.155,0.055,0.007,0.249,0.000: // measure 1
0000
0000
0000
0000
,  // measure 2
0001
0000
0001
0000
,  // measure 3
0002
0000
0003
0000
,  // measure 4
1000
0000
1000
0000
,  // measure 5
2000
0000
3000
0000
,  // measure 6
0010
0000
0010
0000
,  // measure 7
0020
0000
0030
0000
,  // measure 8
0100
0000
0100
0000
,  // measure 9
0200
0000
0300
0000
,  // measure 10
0001
0000
0001
0000
,  // measure 11
0002
0000
0003
0000
,  // measure 12
1000
0000
1000
0000
,  // measure 13
2000
0000
3000
0000
,  // measure 14
0100
0000
0100
0000
,  // measure 15
0200
0000
0300
0000
,  // measure 16
0010
0000
0010
0000
,  // measure 17
0020
0000
0030
0000
,  // measure 18
0001
0000
0001
0000
,  // measure 19
0001
0000
1000
0000
,  // measure 20
1000
0000
0001
0000
,  // measure 21
0001
0000
0100
0000
,  // measure 22
0100
0000
0010
0000
,  // measure 23
0010
0000
1000
0000
,  // measure 24
2000
0000
3000
0000
,  // measure 25
0020
0000
0030
0000
,  // measure 26
1000
0000
1000
0000
,  // measure 27
2000
0000
3000
0000
,  // measure 28
0001
0000
0001
0000
,  // measure 29
0001
0000
0000
0000
,  // measure 30
0100
0000
0100
0000
,  // measure 31
0200
0000
0300
0000
,  // measure 32
0010
0000
0010
0000
,  // measure 33
0020
0000
0030
0000
,  // measure 34
1000
0000
1000
0000
,  // measure 35
2000
0000
3000
0000
,  // measure 36
0001
0000
0001
0000
,  // measure 37
0002
0000
0003
0000
,  // measure 38
0100
0000
0100
0000
,  // measure 39
0200
0000
0300
0000
,  // measure 40
0010
0000
0010
0000
,  // measure 41
0020
0000
0030
0000
,  // measure 42
1000
0000
1000
0000
,  // measure 43
2000
0000
3000
0000
,  // measure 44
0001
0000
0001
0000
,  // measure 45
0002
0000
0003
0000
,  // measure 46
1000
0000
1000
0000
,  // measure 47
1000
0000
0100
0000
,  // measure 48
0100
0000
0010
0000
,  // measure 49
0010
0000
0001
0000
,  // measure 50
0001
0000
1000
0000
,  // measure 51
1000
0000
0010
0000
,  // measure 52
0020
0000
0030
0000
,  // measure 53
2000
0000
3000
0000
,  // measure 54
0001
0000
0001
0000
,  // measure 55
0002
0000
0003
0000
,  // measure 56
0100
0000
0100
0000
,  // measure 57
0200
0000
0300
0000
,  // measure 58
0010
0000
0010
0000
,  // measure 59
0020
0000
0030
0000
,  // measure 60
1000
0000
1000
0000
,  // measure 61
2000
0000
3000
0000
,  // measure 62
0001
0000
0001
0000
,  // measure 63
0002
0000
0003
0000
,  // measure 64
0010
0000
0010
0000
,  // measure 65
0020
0000
0030
0000
,  // measure 66
0100
0000
0100
0000
,  // measure 67
0200
0000
0300
0000
,  // measure 68
1000
0000
1000
0000
,  // measure 69
2000
0000
3000
0000
,  // measure 70
0001
0000
0001
0000
,  // measure 71
2002
0000
3003
0000
,  // measure 72
2000
0000
3000
0000
,  // measure 73
0010
0000
0010
0000
,  // measure 74
0020
0000
0030
0000
,  // measure 75
1000
0000
1000
0000
,  // measure 76
2000
0000
3000
0000
,  // measure 77
0002
0000
0000
0003
;
