#TITLE:Pyramid Treasure;
#SUBTITLE:;
#ARTIST:HyunTaek Yun;
#TITLETRANSLIT:;
#SUBTITLETRANSLIT:;
#ARTISTTRANSLIT:;
#GENRE:;
#CREDIT:Ace Of Hearts;
#BANNER:Pyramid Treasure - bn.png;
#BACKGROUND:Pyramid Treasure - bg.png;
#LYRICSPATH:;
#CDTITLE:Ace Of Hearts.png;
#MUSIC:Pyramid Treasure.ogg;
#OFFSET:1.140;
#SAMPLESTART:43.400;
#SAMPLELENGTH:12.000;
#SELECTABLE:YES;
#BPMS:0.000=140.000;
#STOPS:;
#BGCHANGES:;
#FGCHANGES:;
#KEYSOUNDS:;

//---------------dance-single - Sphinx----------------
#NOTES:
     dance-single:
     Ace Of Hearts (2011):
     Challenge:
     12:
     0.976,0.000,0.683,0.158,1.000: // measure 1
0000
0000
0000
0000
,  // measure 2
0000
0000
0000
0000
,  // measure 3
0011
0000
0010
0100
1000
0000
0001
0000
1000
0000
0010
0000
0100
0000
0001
0000
,  // measure 4
1001
1000
0100
0010
0100
0000
1000
0000
1001
0000
0000
0001
0100
0000
0010
0000
,  // measure 5
0110
0000
0100
0001
1000
0000
0100
0000
0010
0000
0100
0000
1000
0000
0001
0000
,  // measure 6
1001
0000
1000
0010
0100
0000
0100
0001
1000
0100
0010
0100
1000
0001
0100
0010
,  // measure 7
1010
0000
1000
0001
0010
0000
0001
0000
1000
0000
0010
0000
0100
0000
0001
0000
,  // measure 8
0011
0010
0100
1000
0001
0000
0100
0000
0110
0000
0000
0010
1000
0000
0001
0000
,  // measure 9
0011
0000
0010
0100
1000
0000
0001
0000
0100
0000
0010
0000
0100
0000
0001
0000
,  // measure 10
1001
0000
1000
0100
0010
0000
0001
1000
0100
0010
0001
0010
0100
1000
0001
0100
,  // measure 11
0020
0000
M000
0000
003M
1000
0001
0010
,  // measure 12
M110
0M00
100M
0M00
M202
00M0
M010
03M3
,  // measure 13
110M
0000
0000
M000
0000
0000
11M1
0000
0000
000M
0000
0000
M010
0001
0010
0M00
0000
0000
01M0
0000
0000
M000
0000
0000
,  // measure 14
1M01
0000
0000
00M0
0000
0000
010M
0000
0000
M000
0000
0000
0M10
1000
0010
000M
0000
0000
01M0
0000
0000
M000
0000
0000
,  // measure 15
0001
0100
0001
0100
0001
0100
0010
1000
0010
1000
0010
1000
0010
0100
0001
0100
0000
0000
0010
0000
0000
1000
0000
0000
,  // measure 16
1M01
0000
0000
0000
0000
0001
01M0
0000
0000
0000
0000
0000
011M
0000
0000
1M00
0000
0000
0000
0000
0000
0001
0000
0000
,  // measure 17
0101
0100
0110
0010
1010
1000
1001
0100
,  // measure 18
MMMM
0000
1010
0000
0101
0000
0001
0000
0010
0100
1000
0001
0100
0010
1000
0001
,  // measure 19
0101
0000
0100
0010
1000
0000
0001
0000
0010
0000
0100
0000
0010
0000
0001
0000
,  // measure 20
0101
0100
0010
1000
0001
0000
0010
0000
0110
0000
0000
0100
1000
0000
0001
0000
,  // measure 21
0101
0000
0100
0010
1000
0000
0001
0000
0100
0000
0010
0000
0100
0000
0001
0000
,  // measure 22
1001
0000
1000
0010
0100
0000
0001
1000
0100
0010
0100
1000
0001
0100
0010
1000
,  // measure 23
1001
0000
0001
0100
0010
0000
1000
0000
0100
0000
0010
0000
0100
0000
1000
0000
,  // measure 24
1010
0010
0100
0001
1000
0000
1000
0010
0100
0010
1000
0001
0010
0001
1000
0000
,  // measure 25
1010
0000
0010
0100
0001
0000
1000
0000
0100
0000
1000
0000
0001
0000
0100
0000
,  // measure 26
0110
0000
0010
0000
1000
0000
0001
1000
0010
0100
0001
1000
0100
0010
0001
1000
,  // measure 27
0200
0000
000M
0000
M300
0010
0001
1000
,  // measure 28
1M01
000M
M010
0M00
220M
00M0
001M
33M0
,  // measure 29
M101
0000
0000
000M
0000
0000
11M1
0000
0000
0M00
0000
0000
10M0
0001
1000
0M00
0000
0000
010M
0000
0000
00M0
0000
0000
,  // measure 30
011M
0000
0000
0M00
0000
0000
M001
0000
0000
00M0
0000
0000
1M00
0010
1000
000M
0000
0000
M110
0000
0000
000M
0000
0000
,  // measure 31
0010
0100
0010
0100
0010
0100
0001
0100
0001
0100
0001
0100
0010
1000
0001
1000
0000
0000
0100
0000
0000
0010
0000
0000
,  // measure 32
1M01
0000
0000
0000
0000
0000
M100
0001
0000
0000
0000
0000
10M1
0000
0000
0100
0000
0000
M000
0000
0000
0001
0000
0000
,  // measure 33
0011
0010
0110
0100
1100
1000
1010
0100
,  // measure 34
MMMM
0000
0101
0000
0011
0000
0010
0000
0100
1000
0001
0100
0010
0100
0001
1000
,  // measure 35
0020
0000
0000
0000
0000
0000
0000
0000
0000
0000
0000
0030
1000
0010
0100
0010
,  // measure 36
1000
0001
0010
0100
0010
0001
1000
0010
0100
0001
1000
0100
0010
0100
1000
0001
,  // measure 37
2000
0000
0000
0000
0000
0000
0000
0000
0000
0000
0000
0000
3000
0000
0010
0100
,  // measure 38
0002
0000
0000
0003
,  // measure 39
1000
0000
0100
0000
1000
0000
0100
0000
1000
0000
0100
0000
1000
0000
0100
0000
1000
0000
0100
0000
1000
0000
0100
0000
1000
0000
0100
0000
1000
0000
0100
0000
1000
0000
0100
0000
1000
0000
0000
0001
0000
0000
0100
0000
0000
0010
0000
0000
,  // measure 40
0100
0000
0001
0000
0100
0000
0001
0000
0100
0000
0001
0000
0100
0000
0001
0000
0100
0000
0001
0000
0100
0000
0001
0000
0100
0000
0000
0010
0000
0000
1000
0000
0001
0000
1000
0000
0001
0000
0000
0010
0000
0000
0100
0000
0010
0000
0100
0000
,  // measure 41
1000
0001
0100
0010
0100
0001
1000
0010
0100
0001
1000
0100
0010
0100
1000
0001
,  // measure 42
0100
0010
0100
0010
0100
0010
1000
0001
1000
0001
1000
0001
0010
0100
0010
0100
0010
0100
1000
0100
1000
0100
1000
0100
,  // measure 43
0020
0000
000M
0000
M030
0100
1000
0001
,  // measure 44
01M1
M000
0M10
000M
2M02
00M0
0M10
30M3
,  // measure 45
M101
0000
0000
0M00
0000
0000
M111
0000
0000
000M
0000
0000
00M1
1000
0001
0M00
0000
0000
01M0
0000
0000
M000
0000
0000
,  // measure 46
011M
0000
0000
M000
0000
0000
00M1
0000
0000
0000
0000
0000
100M
0100
1000
00M0
0000
0000
1M10
0000
0000
000M
0000
0000
,  // measure 47
0010
0100
0010
0100
0010
0100
0001
0100
0001
0100
0001
0100
0010
1000
0001
1000
0000
0000
0100
0000
0000
0010
0000
0000
,  // measure 48
0M11
0000
0000
0000
0000
0000
00M1
0100
0000
0000
0000
0000
0110
0000
0000
1M00
0000
0000
0000
0000
0000
0100
0000
0000
,  // measure 49
0110
0010
0011
0001
1001
1000
1010
M100
,  // measure 50
0101
0001
1001
010M
0110
0010
0011
0001
,  // measure 51
0201
0000
0000
0000
0000
0000
0000
0000
0000
0000
0000
0000
0000
0000
0000
0000
0000
0000
0000
0000
0000
0000
0000
0000
0301
0000
1000
0000
0001
0000
0100
0000
0000
0010
0000
0000
1000
0000
0000
0001
0000
0000
0010
0000
0000
0100
0000
0000
,  // measure 52
1000
0010
0100
0010
1000
0001
0010
0100
0010
0001
0100
0010
1000
0001
1000
0100
,  // measure 53
0020
0000
0000
0030
0011
0000
0001
1000
0001
0100
0020
0000
0000
0000
1030
0000
,  // measure 54
1200
0000
0000
0000
0000
0000
0310
0001
0010
0001
0010
0001
1000
0100
1000
0100
1000
0100
0010
0001
0010
0200
0000
0000
,  // measure 55
2300
0000
0000
0000
0000
0000
0000
0000
3000
0000
1001
0000
0001
0100
0010
1000
,  // measure 56
0001
0000
0000
0010
0000
0000
0100
0000
0000
1000
0000
0000
0100
0000
0010
0000
0100
0000
0010
0000
0000
0001
0000
0000
1000
0000
0000
0010
0000
0000
0100
0000
0000
0010
0000
0000
1000
0000
0000
0001
0000
0000
1000
0000
0000
0010
0000
0000
,  // measure 57
0110
0100
0101
0001
1001
1000
1100
0001
,  // measure 58
MMMM
0000
0101
0000
1010
0000
0000
0000
1000
0001
0100
0010
1000
0001
0010
0100
,  // measure 59
1100
0000
1000
0001
0100
0000
0010
0000
0100
0000
0001
0000
1000
0000
0100
0000
,  // measure 60
0110
0010
0001
1000
0010
0000
0100
0000
0101
0000
0000
0001
1000
0000
0100
0000
,  // measure 61
0110
0000
0010
0001
1000
0000
0010
0000
0100
0000
0001
0000
0010
0000
0100
0000
,  // measure 62
1100
0000
1000
0001
0100
0000
0100
0010
1000
0001
0010
0100
1000
0100
0010
0001
,  // measure 63
1001
0000
1000
0100
0010
0000
0100
0000
1000
0000
0001
0000
0100
0000
0010
0000
,  // measure 64
1010
1000
0001
0010
0100
0000
0100
0010
0001
1000
0001
0100
0001
1000
0100
0000
,  // measure 65
0110
0000
0010
0100
1000
0000
0001
0000
0100
0000
0010
0000
1000
0000
0001
0000
,  // measure 66
0011
0000
0010
0100
1000
0000
1000
0100
0010
0001
1000
0010
0100
0010
1000
0001
,  // measure 67
0000
0000
0000
MMMM
0000
0000
0000
0000
0000
0000
0000
0000
1002
0000
0000
0000
0000
0000
0000
0000
0000
0000
0000
0000
0013
0000
0100
0000
0010
0000
0100
0000
0010
0000
0100
0000
1000
0000
0100
0000
1000
0000
0100
0000
1000
0000
0100
0000
,  // measure 68
0010
0000
0000
0001
0000
0000
1000
0000
0000
0010
0000
0000
0100
0000
0001
0000
0100
0000
0001
0000
0100
0000
0001
0000
1000
0000
0100
0000
1000
0000
0100
0000
1000
0000
0100
0000
0010
0000
0000
0001
0000
0000
1000
0000
0000
0010
0000
0000
,  // measure 69
0100
0001
1000
0100
0010
0100
1000
0001
0100
0010
0100
0001
1000
0100
0010
0100
,  // measure 70
1000
0000
0000
0001
0000
0000
0100
0000
0000
0010
0000
0000
1000
0000
0001
0000
1000
0000
0001
0000
0000
0010
0000
0000
0100
0000
0000
0010
0000
0000
0001
0000
0010
0000
0100
0000
1000
0000
0100
0000
0010
0000
0001
0000
0010
0000
0100
0000
,  // measure 71
1000
0000
0000
0000
;

//---------------dance-single - Thief Clan----------------
#NOTES:
     dance-single:
     Ace Of Hearts (2011):
     Hard:
     10:
     0.654,0.000,0.075,0.133,0.529: // measure 1
0000
0000
0000
0000
,  // measure 2
0000
0000
0000
0000
,  // measure 3
0001
0010
0001
1000
0010
0100
0001
0100
,  // measure 4
0010
1000
0010
1000
0010
0000
0100
0000
0001
0000
0000
1000
0100
0000
0010
0000
,  // measure 5
0100
1000
0001
0100
0010
0100
0001
1000
,  // measure 6
0100
0000
0010
0000
0001
0000
1000
0010
1000
0001
0100
0001
1000
0100
0010
0001
,  // measure 7
1000
0010
1000
0001
0010
0001
1000
0010
,  // measure 8
0100
0001
0100
0001
0100
0000
0001
0000
1000
0000
0000
0001
0010
0000
0100
0000
,  // measure 9
0010
0001
1000
0010
0100
0010
1000
0001
,  // measure 10
0010
0000
0100
0000
0010
0000
0001
1000
0010
0100
0010
1000
0001
1000
0001
0100
,  // measure 11
0020
0000
0000
0000
0030
1000
0001
0010
,  // measure 12
010M
1M00
M001
01M1
,  // measure 13
010M
0M10
10M0
110M
,  // measure 14
M100
0M10
00M1
1M00
,  // measure 15
0040
0400
0000
0000
0000
0000
0000
0000
0000
0000
0000
0000
0330
0000
0000
0100
0000
0000
0001
0000
0000
1000
0000
0000
,  // measure 16
0010
0000
0110
0000
0100
0001
0000
1000
,  // measure 17
0100
1000
0001
0100
0010
1000
0001
0010
,  // measure 18
M00M
0000
0010
0000
1000
0000
0001
0000
0010
0100
1000
0100
0010
0001
1000
0001
,  // measure 19
0100
0010
0100
0001
1000
0100
0010
0100
,  // measure 20
1000
0001
1000
0001
2000
0000
3010
0000
0100
0000
0000
0001
1000
0000
0100
0000
,  // measure 21
0010
0100
1000
0001
0100
0010
1000
0001
,  // measure 22
0100
0000
0010
0000
0100
0000
0001
1000
0100
0010
0001
0010
0100
1000
0001
1000
,  // measure 23
0010
0100
0010
1000
0001
0010
0100
1000
,  // measure 24
0001
0100
0001
0100
0001
0000
1000
0100
0010
0100
1000
0001
0100
0010
0200
0000
,  // measure 25
0301
1000
0100
0010
0100
1000
0001
0100
,  // measure 26
0010
0000
0100
0000
0001
0000
1000
0010
0100
0010
1000
0001
0010
0100
0010
0001
,  // measure 27
2000
0000
0000
0000
3000
0010
0100
0001
,  // measure 28
1M00
M010
01M0
0M01
,  // measure 29
0011
001M
01M0
1M00
,  // measure 30
101M
M010
01M0
0M01
,  // measure 31
4000
0004
0000
0000
0000
0000
0000
0000
0000
0000
0000
0000
3003
0000
0000
0001
0000
0000
0010
0000
0000
0001
0000
0000
,  // measure 32
1000
0000
1010
0000
0010
0100
0000
0001
,  // measure 33
1000
0100
0010
0100
1000
0001
0010
0100
,  // measure 34
M00M
0000
0100
0000
0001
0000
1000
0000
0100
1000
0001
0100
0010
1000
0001
0010
,  // measure 35
0200
0000
0000
0000
0000
0000
0000
0000
0000
0000
0000
0000
0300
0000
1000
0001
,  // measure 36
0100
0010
0100
0001
1000
0001
0010
0100
1000
0001
0100
0001
1000
0100
0010
0000
,  // measure 37
0002
0000
0000
0000
0000
0000
0000
0000
0000
0000
0000
0000
0003
0000
1000
0010
,  // measure 38
0200
0000
0000
0300
,  // measure 39
0004
0400
0000
0000
0000
0000
0000
0000
0000
0000
0000
0000
0000
0000
0000
0000
0000
0000
0303
0000
0000
0000
0000
0000
,  // measure 40
0040
4000
0000
0000
0000
0000
0000
0000
0000
0000
0000
0000
0000
0000
0000
0000
0000
0000
3030
0000
0000
0000
0000
0000
,  // measure 41
1000
0001
0010
0100
1000
0100
0010
0001
1000
0001
0100
0010
0100
0001
1000
0000
,  // measure 42
0004
0040
0000
0000
0000
0000
0000
0000
0000
0000
0000
0000
0000
0000
0000
0000
0000
0000
0033
0000
0000
0000
0000
0000
,  // measure 43
0020
0000
0000
0000
0030
0001
1000
0010
,  // measure 44
M100
0M01
100M
M100
,  // measure 45
011M
0M10
00M1
100M
,  // measure 46
1M10
M010
01M0
0M01
,  // measure 47
0400
0040
0000
0000
0000
0000
0000
0000
0000
0000
0000
0000
0330
0000
0000
0010
0000
0000
1000
0000
0000
0001
0000
0000
,  // measure 48
0010
0000
0100
0000
1000
0001
0000
0100
,  // measure 49
0010
0100
0001
1000
0100
0010
0100
1000
,  // measure 50
0001
0100
0010
0100
0001
1000
0100
0010
,  // measure 51
0002
0000
0000
0000
0000
0000
0000
0000
1003
0100
1000
0001
0100
0001
1000
0100
,  // measure 52
0010
0000
0001
0010
0100
1000
0100
0010
0001
1000
0001
0100
0001
1000
0010
1000
,  // measure 53
0002
0000
0000
0000
0103
0000
0001
0100
0010
0100
0002
0000
0000
0000
1003
0000
,  // measure 54
0020
0000
0000
0000
0000
0000
0430
0004
0000
0000
0000
0000
0000
0000
0000
0000
0000
0000
0303
0000
0000
0000
0000
0000
,  // measure 55
0002
0000
0000
0000
0000
0000
0000
0000
0000
0000
1003
0000
0010
1000
0010
0100
,  // measure 56
0010
1000
0001
0010
0100
1000
0100
0010
0001
1000
0010
0100
0010
1000
0001
0010
,  // measure 57
0100
1000
0001
0100
0010
1000
0001
0010
,  // measure 58
M00M
0000
0010
0000
1000
0000
0001
0000
0010
0001
1000
0010
0100
0010
1000
0001
,  // measure 59
0010
0100
1000
0001
0100
0010
0100
0001
,  // measure 60
1000
0010
0100
0010
2000
0000
3001
0000
0010
0000
0000
0001
1000
0000
0010
0000
,  // measure 61
0100
0010
1000
0001
0010
0100
0010
0001
,  // measure 62
1000
0000
0010
0000
0100
0000
0010
1000
0001
0010
0100
0010
0001
1000
0010
0100
,  // measure 63
0001
1000
0100
0010
0100
1000
0001
0100
,  // measure 64
0010
1000
0001
1000
0010
0000
1000
0001
0010
0100
0010
0001
1000
0010
0200
0000
,  // measure 65
0301
1000
0100
0010
0100
1000
0001
0100
,  // measure 66
0010
0000
0100
0000
0001
0000
1000
0100
0010
0001
0010
0100
1000
0001
1000
0010
,  // measure 67
0000
0420
0000
0000
,  // measure 68
0000
0000
0000
0000
0000
0000
0000
0000
0000
0000
0000
0000
0030
0000
0301
1000
,  // measure 69
0001
0010
0100
0010
0100
1000
0001
0100
0010
0100
0001
1000
0100
0010
0100
1000
,  // measure 70
0001
0000
0000
1000
0000
0000
0010
0000
0000
1000
0000
0000
0001
0000
0000
0010
0000
0000
0100
0000
0000
1000
0000
0000
0001
0000
0000
1000
0000
0000
0004
0000
0400
0000
0000
0000
0000
0000
0000
0000
0000
0000
0000
0000
0000
0000
0000
0000
,  // measure 71
0303
0000
0000
0000
;

//---------------dance-single - Assassin----------------
#NOTES:
     dance-single:
     Ace Of Hearts (2011):
     Medium:
     8:
     0.431,0.000,0.008,0.133,0.067: // measure 1
0000
0000
0000
0000
,  // measure 2
0000
0000
0000
0000
,  // measure 3
0001
0010
0001
0010
0100
1000
0100
1000
,  // measure 4
0001
0100
0001
0100
0001
0000
0000
0000
0000
0000
0000
0000
0000
0000
0000
0000
,  // measure 5
1000
0010
1000
0010
0100
0001
0100
0001
,  // measure 6
1000
0000
0000
0001
0010
0100
1000
0000
,  // measure 7
0001
0100
0001
0100
0010
1000
0010
1000
,  // measure 8
0001
1000
0001
1000
0001
0000
0000
0000
0000
0000
0000
0000
0000
0000
0000
0000
,  // measure 9
1000
0100
1000
0100
0010
0001
0010
0001
,  // measure 10
1000
0000
0000
0001
0100
0010
1000
0000
,  // measure 11
0002
0000
0000
0000
0003
1000
0100
0010
,  // measure 12
M001
0M10
010M
10M0
,  // measure 13
0M01
M100
001M
1M00
,  // measure 14
00M1
M010
010M
10M0
,  // measure 15
0004
0000
0000
0000
0003
0000
1000
0010
,  // measure 16
1000
0000
0001
0000
1000
0100
0000
1000
,  // measure 17
0001
0000
0010
0000
0001
1000
0001
0100
,  // measure 18
0000
0001
1000
0001
0400
0000
0000
0000
,  // measure 19
0301
0100
0001
0100
0010
1000
0010
1000
,  // measure 20
0001
0010
0001
0010
0002
0000
0000
0000
0000
0000
0000
0000
0003
0000
0000
0000
,  // measure 21
1000
0010
1000
0010
0100
0001
0100
0001
,  // measure 22
1000
0000
0000
0001
0010
0100
1000
0000
,  // measure 23
0001
0010
0001
0010
0100
1000
0100
1000
,  // measure 24
0001
1000
0001
1000
0001
0000
0000
0000
1000
0000
0010
0000
1000
0000
0000
0000
,  // measure 25
0001
0100
0001
0100
0010
1000
0010
1000
,  // measure 26
0001
0010
0001
0010
0100
1000
0001
0000
,  // measure 27
2000
0000
0000
0000
3000
0001
0010
0010
,  // measure 28
M001
1M00
001M
M100
,  // measure 29
00M1
1M00
010M
M010
,  // measure 30
0M01
10M0
001M
M100
,  // measure 31
0004
0000
0000
0000
0003
0000
1000
0010
,  // measure 32
1000
0000
0001
0000
0010
0100
0000
0010
,  // measure 33
0001
0000
1000
0000
0010
1000
0001
0100
,  // measure 34
0000
0010
0100
0001
4000
0000
0000
0000
,  // measure 35
3020
0000
0000
0000
0000
0000
0000
1030
,  // measure 36
0001
0100
0001
0000
1000
0010
1000
0000
,  // measure 37
0002
0000
0000
0000
0000
0000
0000
1003
,  // measure 38
0200
0000
0000
0300
,  // measure 39
0040
0004
0000
0000
0000
0000
0000
0000
0000
0000
0000
0000
0033
0000
0000
0000
,  // measure 40
4000
0004
0000
0000
0000
0000
0000
0000
0000
0000
0000
0000
3003
0000
0000
0000
,  // measure 41
1000
0010
1000
0010
0200
0000
0301
0000
,  // measure 42
4000
0040
0000
0000
0000
0000
0000
0000
0000
0000
0000
0000
3030
0000
0000
0000
,  // measure 43
2000
0000
0000
0000
0000
3001
0010
0100
,  // measure 44
100M
00M1
M100
001M
,  // measure 45
1M00
00M1
M010
010M
,  // measure 46
10M0
010M
M010
0M01
,  // measure 47
4000
0000
0000
0000
3000
0000
0001
0100
,  // measure 48
0001
0000
1000
0000
0001
0100
0000
0001
,  // measure 49
1000
0000
0001
0000
0010
0001
1000
0001
,  // measure 50
1000
0000
0100
0000
0010
0100
0010
0100
,  // measure 51
2000
0000
0000
0000
3001
0100
0001
0100
,  // measure 52
0010
1000
0010
1000
0001
1000
0001
1000
,  // measure 53
0020
0130
0001
000M
,  // measure 54
2000
3000
4000
0000
0000
0000
3000
0000
,  // measure 55
0020
0000
0030
1000
,  // measure 56
0001
0010
0001
0010
0100
1000
0100
0000
,  // measure 57
0010
0000
0001
0000
1000
0010
1000
0001
,  // measure 58
0000
0010
0100
0000
2000
0000
3000
0000
,  // measure 59
0001
0100
0001
0100
0010
1000
0010
1000
,  // measure 60
0001
1000
0001
1000
0002
0000
0000
0000
0000
0000
0000
0000
0003
0000
0000
0000
,  // measure 61
1000
0100
1000
0100
0010
0001
0010
0001
,  // measure 62
1000
0000
0000
0001
0100
0010
1000
0000
,  // measure 63
0001
0010
0001
0010
0100
1000
0100
1000
,  // measure 64
0001
0100
0001
0100
0001
0000
0000
0000
1000
0000
0100
0000
1000
0000
0000
0000
,  // measure 65
0001
0100
0001
0100
0010
1000
0010
0000
,  // measure 66
1000
0001
1000
0000
0001
0010
0100
1000
,  // measure 67
0000
2002
0000
0000
,  // measure 68
0000
0000
0000
0000
0000
0000
3003
0001
,  // measure 69
0100
0010
0100
0001
1000
0001
0010
0100
,  // measure 70
0010
0000
0001
0000
1000
0000
0010
0000
1000
0000
0004
4000
0000
0000
0000
0000
,  // measure 71
3003
0000
0000
0000
;

//---------------dance-single - Skeleton----------------
#NOTES:
     dance-single:
     Ace Of Hearts (2011):
     Easy:
     5:
     0.237,0.000,0.008,0.158,0.000: // measure 1
0000
0000
0000
0000
,  // measure 2
0000
0000
0000
0000
,  // measure 3
0001
0001
1000
1000
,  // measure 4
0001
0100
0001
0000
0000
0000
0000
0000
,  // measure 5
1000
1000
0001
0001
,  // measure 6
0002
0000
0003
0000
,  // measure 7
1000
1000
0001
0001
,  // measure 8
1000
0010
1000
0000
0000
0000
0000
0000
,  // measure 9
0001
0001
0100
0100
,  // measure 10
0200
0000
0300
0000
,  // measure 11
0020
0000
0030
0000
,  // measure 12
1000
1000
1000
0000
,  // measure 13
0001
M001
0001
0000
,  // measure 14
0100
010M
0100
0000
,  // measure 15
0040
0000
0030
0000
,  // measure 16
1000
1000
1000
0000
,  // measure 17
0001
0001
0001
0010
,  // measure 18
0000
0100
0100
0000
,  // measure 19
1000
1000
0001
0001
,  // measure 20
1000
0010
2000
0000
0000
0000
3000
0000
,  // measure 21
0001
0001
0100
0100
,  // measure 22
0200
0000
0300
0000
,  // measure 23
0010
0010
1000
1000
,  // measure 24
0001
0100
0001
0000
0000
0000
0000
0000
,  // measure 25
1000
1000
0001
0001
,  // measure 26
0010
0010
0020
0030
,  // measure 27
0002
0000
0003
0000
,  // measure 28
0010
001M
0010
0000
,  // measure 29
0001
00M1
0001
0000
,  // measure 30
1000
100M
1000
0000
,  // measure 31
0040
0000
0030
0000
,  // measure 32
0100
0100
0100
0000
,  // measure 33
0001
0001
0001
1000
,  // measure 34
0000
0010
0010
0000
,  // measure 35
2000
0000
3000
0000
,  // measure 36
0010
0010
0100
0100
,  // measure 37
0002
0000
0003
0000
,  // measure 38
2000
0000
3000
0000
,  // measure 39
0400
0000
0000
0300
,  // measure 40
0040
0000
0000
0030
,  // measure 41
0001
0001
0001
0000
,  // measure 42
0400
0000
0000
0300
,  // measure 43
0002
0000
0003
0000
,  // measure 44
0100
010M
0100
0000
,  // measure 45
0010
0M10
0010
0000
,  // measure 46
1000
10M0
1000
0000
,  // measure 47
0004
0000
0003
0000
,  // measure 48
0010
0010
0010
0000
,  // measure 49
0001
0001
1000
1000
,  // measure 50
0010
0010
0010
0000
,  // measure 51
2000
0000
3001
0001
,  // measure 52
0100
0100
0100
0000
,  // measure 53
0001
0001
0001
0000
,  // measure 54
2000
0000
0000
3000
,  // measure 55
0020
0000
0030
0000
,  // measure 56
0100
0100
0100
0000
,  // measure 57
0001
0001
0001
1000
,  // measure 58
0000
0010
0010
0000
,  // measure 59
1000
1000
0001
0001
,  // measure 60
0010
0001
0020
0000
0000
0000
0030
0000
,  // measure 61
0001
0001
1000
1000
,  // measure 62
2000
0000
3000
0000
,  // measure 63
0010
0010
1000
1000
,  // measure 64
0001
0100
0001
0000
0000
0000
0000
0000
,  // measure 65
1000
1000
2000
3000
,  // measure 66
0001
0001
0010
0010
,  // measure 67
0000
2002
0000
0000
,  // measure 68
0000
0000
3003
1000
,  // measure 69
1000
0010
0010
1000
,  // measure 70
1000
0001
0004
0000
,  // measure 71
0003
0000
0000
0000
;

//---------------dance-single - Priring----------------
#NOTES:
     dance-single:
     Ace Of Hearts (2011):
     Beginner:
     2:
     0.145,0.000,0.008,0.183,0.000: // measure 1
0000
0000
0000
0000
,  // measure 2
0000
0000
0000
0000
,  // measure 3
0001
0000
0001
0000
,  // measure 4
0001
0000
0000
0000
,  // measure 5
1000
0000
1000
0000
,  // measure 6
2000
0000
3000
0000
,  // measure 7
0010
0000
0010
0000
,  // measure 8
0010
0000
0000
0000
,  // measure 9
1000
0000
1000
0000
,  // measure 10
2000
0000
3000
0000
,  // measure 11
0002
0000
0003
0000
,  // measure 12
0010
0000
0010
0000
,  // measure 13
0100
0000
0100
0000
,  // measure 14
1000
0000
1000
0000
,  // measure 15
0002
0000
0003
0000
,  // measure 16
1000
0000
1000
0000
,  // measure 17
0010
0000
0020
0030
,  // measure 18
0000
0000
0000
0000
,  // measure 19
1000
0000
1000
0000
,  // measure 20
2000
0000
3000
0000
,  // measure 21
0001
0000
0001
0000
,  // measure 22
0100
0000
0100
0000
,  // measure 23
0010
0000
0010
0000
,  // measure 24
0010
0000
0000
0000
,  // measure 25
1000
0000
1000
0000
,  // measure 26
2000
0000
3000
0000
,  // measure 27
0020
0000
0030
0000
,  // measure 28
0100
0000
0100
0000
,  // measure 29
0001
0000
0001
0000
,  // measure 30
1000
0000
1000
0000
,  // measure 31
0020
0000
0030
0000
,  // measure 32
1000
0000
1000
0000
,  // measure 33
0001
0000
0002
0003
,  // measure 34
0000
0000
0000
0000
,  // measure 35
0020
0000
0030
0000
,  // measure 36
0001
0000
0001
0000
,  // measure 37
0002
0000
0000
0000
,  // measure 38
0003
0000
0000
0000
,  // measure 39
4000
0000
3000
0000
,  // measure 40
0040
0000
0030
0000
,  // measure 41
1000
0000
1000
0000
,  // measure 42
4000
0000
3000
0000
,  // measure 43
0002
0000
0003
0000
,  // measure 44
0010
0000
0010
0000
,  // measure 45
0001
0000
0001
0000
,  // measure 46
1000
0000
1000
0000
,  // measure 47
0020
0000
0030
0000
,  // measure 48
1000
0000
1000
0000
,  // measure 49
0001
0000
0001
0000
,  // measure 50
0010
0000
0010
0000
,  // measure 51
0200
0000
0300
0000
,  // measure 52
1000
0000
1000
0000
,  // measure 53
0001
0000
0001
0000
,  // measure 54
2000
0000
3000
0000
,  // measure 55
0020
0000
0030
0000
,  // measure 56
1000
0000
1000
0000
,  // measure 57
0001
0000
0002
0003
,  // measure 58
0000
0000
0000
0000
,  // measure 59
0100
0000
0100
0000
,  // measure 60
0200
0000
0300
0000
,  // measure 61
0001
0000
0001
0000
,  // measure 62
1000
0000
1000
0000
,  // measure 63
0010
0000
0010
0000
,  // measure 64
0020
0000
0030
0000
,  // measure 65
1000
0000
1000
0000
,  // measure 66
0001
0000
0001
0000
,  // measure 67
0000
2002
0000
0000
,  // measure 68
0000
0000
0000
0000
,  // measure 69
0000
0000
0000
0000
,  // measure 70
3003
0000
0004
0000
,  // measure 71
0003
0000
0000
0000
;
