#TITLE:Pumpkin Ondo;
#SUBTITLE:;
#ARTIST:Kana Ueda;
#TITLETRANSLIT:;
#SUBTITLETRANSLIT:;
#ARTISTTRANSLIT:;
#GENRE:Silly J-Pop;
#CREDIT:Ace Of Hearts;
#BANNER:Pumpkin Ondo - bn.png;
#BACKGROUND:Pumpkin Ondo - bg.png;
#LYRICSPATH:;
#CDTITLE:Ace Of Hearts.png;
#MUSIC:Pumpkin Ondo.ogg;
#OFFSET:1.320;
#SAMPLESTART:37.700;
#SAMPLELENGTH:14.000;
#SELECTABLE:YES;
#BPMS:0.000=135.000;
#STOPS:;
#BGCHANGES:3.750=Pumpkin Ondo Video.avi=1.000=1=0=0=StretchNoLoop==CrossFade==,
204.000=Pumpkin Ondo - Finish.png=1.000=1=0=0=StretchNoLoop==CrossFade==,
99999=-nosongbg-=1.000=0=0=0 // don't automatically add -songbackground-
;
#KEYSOUNDS:;

//---------------dance-single - Hard----------------
#NOTES:
     dance-single:
     Ace Of Hearts (2011):
     Hard:
     8:
     0.417,0.000,0.333,0.610,0.344: // measure 1
0000
0000
0000
0000
,  // measure 2
0000
0000
0000
0000
,  // measure 3
0000
0000
0000
0000
,  // measure 4
1000
0000
0010
1000
,  // measure 5
0002
0000
0000
0103
0000
0020
0000
0000
0000
0030
0000
0000
,  // measure 6
0200
0000
0302
2003
,  // measure 7
3200
0000
0000
0310
0000
0002
0000
0003
0000
0000
0000
0000
,  // measure 8
2000
0000
0000
0000
,  // measure 9
0000
0000
0020
0000
0000
0000
0000
0000
0000
0000
0000
0000
,  // measure 10
0000
3030
0020
0200
,  // measure 11
0000
0000
0000
0000
0330
0000
0000
0000
0000
0000
0000
0000
,  // measure 12
0000
0000
0000
0000
0000
0000
0000
0000
0010
1000
0000
0001
,  // measure 13
0200
0000
0310
1000
0000
0001
0020
0000
0031
1000
0000
0000
,  // measure 14
0002
0000
0013
0100
0000
0010
0002
0000
1003
0010
0000
0000
,  // measure 15
0000
0000
0000
0200
0000
0301
1000
0000
0000
0002
0000
0103
,  // measure 16
0010
0000
0000
0100
0000
0004
0000
0000
0000
0000
0003
0000
,  // measure 17
0000
0000
0000
2000
0000
3100
0010
0000
0000
0002
0000
0000
,  // measure 18
2003
0000
3100
0010
0000
0400
0000
0000
0000
0000
0300
0000
,  // measure 19
2000
0000
0000
3001
0000
1000
0010
0000
0000
0000
0000
0000
,  // measure 20
2000
0000
3001
0100
0000
0001
0400
0300
0000
0400
0300
0000
,  // measure 21
0020
0000
1030
0001
0000
0100
0001
0000
0002
0000
0000
0000
,  // measure 22
0000
0000
0000
0000
4003
0400
0000
0000
0000
0000
0000
0000
0000
0000
0000
0000
0000
0000
3300
0000
0000
0000
0000
0000
,  // measure 23
0110
0000
0011
0001
,  // measure 24
2001
0000
3001
0100
0000
0040
0000
0000
0000
0030
0000
0000
,  // measure 25
1010
0000
0110
0100
,  // measure 26
0102
0000
1003
0010
0000
0400
0000
0000
0000
0300
0000
0000
,  // measure 27
0101
0000
1010
0000
,  // measure 28
1001
0000
1001
0000
0000
0220
0000
0000
0000
0330
0000
0000
,  // measure 29
2002
0000
0000
3000
,  // measure 30
0103
0000
0000
0040
0030
0000
4000
3000
0000
0004
0003
0000
,  // measure 31
0101
0000
0000
0000
0000
0100
0020
0000
0130
0001
0000
1000
,  // measure 32
0002
0000
0103
0010
0000
1000
0002
0000
0000
0003
0000
0000
,  // measure 33
0010
0000
0110
0000
,  // measure 34
0100
0000
0100
0000
0000
2200
0000
0000
0000
3300
0000
0000
,  // measure 35
1001
0000
0000
0000
0000
0001
0010
0000
0001
1000
0000
0010
,  // measure 36
0100
0000
0010
1000
0000
0001
0010
0000
0020
0000
0000
0000
,  // measure 37
0031
0000
1001
0000
,  // measure 38
1000
0000
1000
0000
0000
2020
0000
0000
0000
3030
0000
0000
,  // measure 39
0020
0000
1030
0002
0000
1003
0010
0000
0000
0100
0000
0000
,  // measure 40
0002
0000
1003
0200
0000
1300
0001
0000
0000
0100
0000
0000
,  // measure 41
0002
0000
1003
0010
0000
1000
0002
0000
0000
0023
0000
0000
,  // measure 42
0430
0000
0300
4000
0000
3000
0004
0000
0003
0000
0000
0000
,  // measure 43
1001
0000
1010
0010
,  // measure 44
0210
0000
0301
1000
0000
0004
0000
0000
0000
0003
0000
0000
,  // measure 45
0101
0000
0110
0010
,  // measure 46
2010
0000
3001
0100
0000
0040
0000
0000
0000
0030
0000
0000
,  // measure 47
1010
0000
0101
0000
,  // measure 48
0110
0000
0110
0000
0000
2002
0000
0000
0000
3003
0000
0000
,  // measure 49
2200
0000
0000
0300
,  // measure 50
3001
0000
0000
0400
0000
0300
0040
0000
0030
4000
0000
3000
,  // measure 51
0002
0000
1003
0200
0000
0310
0002
0000
0013
0200
0000
1300
,  // measure 52
0001
0000
0000
0000
;

//---------------dance-single - Expert----------------
#NOTES:
     dance-single:
     Ace Of Hearts (2011):
     Challenge:
     9:
     0.639,0.255,0.599,0.654,0.677: // measure 1
0000
0000
0000
0000
,  // measure 2
0002
0000
0013
0100
0000
1000
0200
0000
0000
0320
0000
0000
,  // measure 3
0130
1000
0004
0003
,  // measure 4
0101
0000
0110
0010
,  // measure 5
2010
0000
0000
3001
0000
0020
0000
0000
0000
0030
0000
0000
,  // measure 6
0210
0000
0000
0000
0000
0000
2300
0000
0000
3002
0000
0003
,  // measure 7
0201
0000
0000
0310
0000
2000
0000
3000
0000
0000
0000
0000
,  // measure 8
0004
4000
0000
0000
0000
0000
0000
0000
0000
0000
0000
0000
0000
0000
0000
0000
0000
0000
0000
0000
0000
0000
0000
0000
,  // measure 9
0000
0000
0000
0000
,  // measure 10
0000
3003
0020
0200
,  // measure 11
0000
0000
0000
0000
0330
0000
0000
0000
0000
0000
0000
0000
,  // measure 12
0100
0001
1000
0100
0010
0001
0020
0000
0031
1000
0000
0001
,  // measure 13
0201
0000
0310
1000
0000
0001
0200
0000
0301
1000
0000
0000
,  // measure 14
1200
0000
0310
0001
0000
1000
0200
0000
1300
0001
0000
0000
,  // measure 15
0011
0000
0000
0020
0000
0130
2000
0000
0000
3002
0000
0103
,  // measure 16
0010
0000
0000
1000
0000
0400
0000
0000
0310
0001
0000
0010
,  // measure 17
0110
0000
0000
0200
0000
1300
0002
0000
0000
1003
0000
0000
,  // measure 18
1020
0000
0130
0001
0000
4000
0000
0000
3001
0010
0000
0001
,  // measure 19
1001
0000
0000
2000
0000
3100
0010
0000
0000
0001
0000
0000
,  // measure 20
2000
0000
0000
0000
3010
0000
0200
0000
0000
0000
0301
0000
1000
0100
1000
0000
0000
0000
0001
0010
0001
0000
0000
0000
,  // measure 21
2000
0000
0000
0000
3010
0000
0100
0000
0000
0000
0001
0000
1000
0010
1000
0000
0001
0100
0002
0000
0000
0000
0000
0000
,  // measure 22
0000
0000
0000
0000
0043
0400
0000
0000
0000
0000
0000
0000
0000
0000
0000
0000
0000
0000
0330
0000
0000
0000
0000
0000
,  // measure 23
1001
0000
1000
0010
0000
1000
0001
0000
0000
0010
0000
0000
,  // measure 24
0210
0000
1300
0001
0000
0400
0000
0000
0301
2001
0000
3010
,  // measure 25
0110
0000
0100
0001
0000
1000
0100
0000
0000
0010
0000
0000
,  // measure 26
0012
0000
1003
0010
0000
0400
0000
0000
0300
0110
0000
0000
,  // measure 27
1010
0000
1000
0001
0000
0010
0110
0000
0000
0100
0000
0000
,  // measure 28
1100
0000
0011
0000
0000
0202
0000
0300
1000
0103
0000
0010
,  // measure 29
0012
0000
0000
1000
0000
0000
1000
0000
0000
1000
0003
0000
,  // measure 30
1010
0000
0000
0000
0000
0000
0010
0100
0010
0000
0000
0000
0100
0001
0100
0000
0000
0000
0010
1000
0010
0000
0000
0000
,  // measure 31
0210
0000
0000
0301
0000
1000
0100
0000
0010
0100
0000
1000
,  // measure 32
0001
0000
0100
0010
0000
1000
2002
0000
0000
3003
0000
0000
,  // measure 33
1100
1000
1001
0001
,  // measure 34
0101
0000
0100
0000
0000
0120
0000
0000
1030
0001
0000
0010
,  // measure 35
0200
0000
0000
0310
0000
0001
1000
0000
0010
1000
0000
0001
,  // measure 36
0020
0000
0130
1000
0000
0001
0101
0000
0100
0010
0000
1000
,  // measure 37
1001
0001
0011
0010
,  // measure 38
0110
0000
0100
0000
0000
2200
0000
0300
3001
0100
0000
0010
,  // measure 39
2010
0000
3001
0010
0000
0001
2001
0000
0000
3100
0000
0000
,  // measure 40
0120
0000
0031
1000
0000
0010
0210
0000
0000
0301
0000
0000
,  // measure 41
2001
0000
3100
0010
0000
0100
2000
0000
0000
3001
0000
0000
,  // measure 42
1000
0010
1000
0010
0000
0000
1000
0001
1000
0001
0000
0000
0010
0001
0010
0001
0000
0000
0000
0000
0000
0000
0000
0000
,  // measure 43
0201
0000
0310
1000
0000
0001
0010
0000
0000
0100
0000
0000
,  // measure 44
2100
0000
3001
0100
0000
0040
0000
0000
1030
1002
0000
0013
,  // measure 45
0210
0000
1300
0001
0000
0100
0010
0000
0000
0100
0000
0000
,  // measure 46
0102
0000
0000
0000
1003
0000
0100
0000
0000
0000
0040
0000
0000
0000
0000
0000
0000
0000
0031
0000
0000
0001
0000
0000
,  // measure 47
2001
0000
3010
0100
0000
0001
1000
0000
0000
0010
0000
0000
,  // measure 48
0110
0000
0101
0000
0000
0022
0000
0003
0130
1000
0000
0001
,  // measure 49
0201
0010
0010
0310
,  // measure 50
1010
0000
0000
0000
0000
0000
1000
0001
1000
0001
0000
0000
0100
0001
0100
0001
0000
0000
1000
0010
1000
0010
0000
0000
,  // measure 51
0210
0000
0301
1000
0000
0100
0120
0000
0031
1000
0000
0001
,  // measure 52
0101
0000
0000
0000
;

//---------------dance-single - Medium----------------
#NOTES:
     dance-single:
     Ace Of Hearts (2011):
     Medium:
     6:
     0.298,0.000,0.089,0.422,0.205: // measure 1
0000
0000
0000
0000
,  // measure 2
0000
0000
0000
0000
,  // measure 3
0000
0000
0000
0000
,  // measure 4
0001
0000
1000
0001
,  // measure 5
2000
0000
0000
0000
0000
3020
0000
0000
0030
0000
0000
0000
,  // measure 6
0200
0300
0002
2003
,  // measure 7
3002
0000
0000
0003
0000
0020
0000
0000
0030
0000
0000
0000
,  // measure 8
0002
0000
0000
0000
,  // measure 9
0000
0000
2000
0000
0000
0000
0000
0000
0000
0000
0000
0000
,  // measure 10
0000
3003
0002
0200
,  // measure 11
0000
0000
0000
0000
0303
0000
0000
0000
0000
0000
0000
0000
,  // measure 12
0000
0000
0000
0000
,  // measure 13
0001
0000
1000
0010
0000
0000
0100
0000
0000
0100
0000
0000
,  // measure 14
0001
0000
1000
0100
0000
0000
0010
0000
0000
0010
0000
0000
,  // measure 15
0000
0000
0000
0001
0000
1000
0010
0000
0000
1000
0000
0000
,  // measure 16
0001
0000
0000
1000
0000
0200
0000
0000
0000
0300
0000
0000
,  // measure 17
0000
0000
0000
1000
0000
0001
0010
0000
0000
0001
0000
0000
,  // measure 18
1000
0000
0000
0001
0000
0200
0000
0000
0000
0300
0000
0000
,  // measure 19
0001
0000
0000
0001
0000
1000
0001
0000
0000
0000
0000
0000
,  // measure 20
2000
0000
3001
0100
0000
0001
0200
0000
0000
0300
0000
0000
,  // measure 21
0010
0000
1000
0001
0000
1000
0002
0000
0000
0000
0000
0000
,  // measure 22
0000
0000
0000
0003
,  // measure 23
1001
0000
0001
0100
,  // measure 24
0002
0000
0000
0000
0000
4000
0000
0000
0000
3003
0000
0000
,  // measure 25
0001
0000
1000
0010
,  // measure 26
0200
0000
0000
0000
0000
0004
0000
0000
0000
0303
0000
0000
,  // measure 27
0100
0000
0010
0000
,  // measure 28
1000
0000
1000
0000
0000
0002
0000
0000
0000
0003
0000
0000
,  // measure 29
0022
0000
0000
0003
,  // measure 30
0130
0000
0000
0000
,  // measure 31
1000
0000
0000
0000
0000
0001
0010
0000
0001
0010
0000
0000
,  // measure 32
0001
1000
0001
0000
,  // measure 33
1000
1000
0010
0000
,  // measure 34
1000
0000
1000
0000
0000
2002
0000
0000
0000
3003
0000
0000
,  // measure 35
0001
0000
0000
0000
0000
1000
0010
0000
1000
0010
0000
0000
,  // measure 36
1000
0001
1000
0000
,  // measure 37
0001
0001
0010
0000
,  // measure 38
0100
0000
0100
0000
0000
0220
0000
0000
0000
0330
0000
0000
,  // measure 39
0020
0000
0031
1000
0000
0001
1000
0000
0000
0000
0000
0000
,  // measure 40
0002
0000
1003
0010
0000
1000
0010
0000
0000
0000
0000
0000
,  // measure 41
0200
0000
0000
0301
0000
1000
0200
0000
0000
0320
0000
0000
,  // measure 42
0130
0100
0100
0000
,  // measure 43
1100
0000
1000
0001
,  // measure 44
0200
0000
0000
0000
0000
0040
0000
0000
0000
0330
0000
0000
,  // measure 45
0100
0000
0001
1000
,  // measure 46
0002
0000
0000
0000
0000
0040
0000
0000
0000
0033
0000
0000
,  // measure 47
0001
0000
1000
0000
,  // measure 48
0010
0000
0010
0000
0000
2020
0000
0000
0000
3030
0000
0000
,  // measure 49
0220
0000
0000
0030
,  // measure 50
0301
1000
1000
1000
,  // measure 51
0002
0000
1003
0010
0000
1000
0002
0000
0000
1003
0000
0000
,  // measure 52
1100
0000
0000
0000
;

//---------------dance-single - Easy----------------
#NOTES:
     dance-single:
     Ace Of Hearts (2011):
     Easy:
     3:
     0.203,0.000,0.033,0.233,0.050: // measure 1
0000
0000
0000
0000
,  // measure 2
0000
0000
0000
0000
,  // measure 3
0000
0000
0000
0000
,  // measure 4
1000
0000
1000
1000
,  // measure 5
2000
0000
0000
0000
0000
3000
0000
0000
0000
0000
0000
0000
,  // measure 6
0010
0000
0010
0010
,  // measure 7
0020
0000
0000
0000
0000
0030
0000
0000
0000
0000
0000
0000
,  // measure 8
0002
0000
0000
0000
,  // measure 9
0000
0000
2000
0000
0000
0000
0000
0000
0000
0000
0000
0000
,  // measure 10
0000
3003
0001
0002
,  // measure 11
0000
0000
0000
0000
0003
0000
0000
0000
0000
0000
0000
0000
,  // measure 12
0000
0000
0000
0000
,  // measure 13
1000
1000
0001
0001
,  // measure 14
0010
0010
0001
0001
,  // measure 15
0000
1000
1000
0001
,  // measure 16
0001
0000
0000
0000
0000
0002
0000
0000
0000
0003
0000
0000
,  // measure 17
0000
1000
1000
0010
,  // measure 18
0010
0000
0000
0000
0000
0020
0000
0000
0000
0030
0000
0000
,  // measure 19
0100
0100
0100
0000
,  // measure 20
0001
0001
0002
0003
,  // measure 21
1000
1000
2000
0000
,  // measure 22
0000
0000
0000
3000
,  // measure 23
0001
0000
0010
0010
,  // measure 24
0020
0000
0000
0000
0000
0030
0000
0000
0000
0000
0000
0000
,  // measure 25
0001
0000
1000
1000
,  // measure 26
2000
0000
0000
0000
0000
3000
0000
0000
0000
0000
0000
0000
,  // measure 27
0001
0000
0100
0000
,  // measure 28
0010
0000
0010
0000
0000
0020
0000
0000
0000
0030
0000
0000
,  // measure 29
2002
0000
0000
0000
,  // measure 30
3003
0000
0000
0000
,  // measure 31
1000
0000
0100
0100
,  // measure 32
1000
1000
1000
0000
,  // measure 33
0001
0000
0001
0000
,  // measure 34
0010
0000
0000
0000
0000
0020
0000
0000
0000
0030
0000
0000
,  // measure 35
0001
0000
1000
1000
,  // measure 36
0010
0010
0010
0000
,  // measure 37
1000
0000
0001
0000
,  // measure 38
0100
0000
0000
0000
0000
0200
0000
0000
0000
0300
0000
0000
,  // measure 39
0010
0010
0010
0000
,  // measure 40
0100
0100
0100
0000
,  // measure 41
0001
0001
0001
0000
,  // measure 42
0100
0100
0100
0000
,  // measure 43
0010
0000
1000
1000
,  // measure 44
2000
0000
0000
0000
0000
3000
0000
0000
0000
0000
0000
0000
,  // measure 45
0001
0000
0100
0100
,  // measure 46
0200
0000
0000
0000
0000
0300
0000
0000
0000
0000
0000
0000
,  // measure 47
0001
0000
1000
0000
,  // measure 48
0010
0000
0010
0000
0000
0020
0000
0000
0000
0030
0000
0000
,  // measure 49
2002
0000
0000
0000
,  // measure 50
3003
0000
0000
0000
,  // measure 51
0001
0100
0001
1000
,  // measure 52
1001
0000
0000
0000
;

//---------------dance-single - Novice----------------
#NOTES:
     dance-single:
     Ace Of Hearts (2011):
     Beginner:
     1:
     0.141,0.000,0.055,0.244,0.000: // measure 1
0000
0000
0000
0000
,  // measure 2
0000
0000
0000
0000
,  // measure 3
0000
0000
0000
0000
,  // measure 4
0001
0000
0001
0000
,  // measure 5
0001
0000
0000
0000
,  // measure 6
1000
0000
1000
0000
,  // measure 7
1000
0000
0000
0000
,  // measure 8
2002
0000
0000
0000
,  // measure 9
0000
0000
0000
0000
,  // measure 10
3003
0000
0220
0000
,  // measure 11
0000
0000
0330
0000
,  // measure 12
0000
0000
0000
0000
,  // measure 13
1000
0000
1000
0000
,  // measure 14
1000
0000
1000
0000
,  // measure 15
0000
0000
0010
0000
,  // measure 16
0010
0000
0010
0000
,  // measure 17
0000
0000
0100
0000
,  // measure 18
0100
0000
0100
0000
,  // measure 19
0001
0000
0001
0000
,  // measure 20
0000
0000
0000
0000
,  // measure 21
1000
0000
2000
0000
,  // measure 22
0000
0000
3000
0000
,  // measure 23
0010
0000
0010
0000
,  // measure 24
0020
0000
0030
0000
,  // measure 25
0100
0000
0100
0000
,  // measure 26
0200
0000
0300
0000
,  // measure 27
0001
0000
0001
0000
,  // measure 28
0002
0000
0003
0000
,  // measure 29
2002
0000
0000
0000
,  // measure 30
3003
0000
0000
0000
,  // measure 31
1000
0000
1000
0000
,  // measure 32
2000
0000
3000
0000
,  // measure 33
0010
0000
0010
0000
,  // measure 34
0020
0000
0030
0000
,  // measure 35
0100
0000
0100
0000
,  // measure 36
0200
0000
0300
0000
,  // measure 37
0001
0000
0001
0000
,  // measure 38
0002
0000
0003
0000
,  // measure 39
2000
0000
3000
0000
,  // measure 40
0002
0000
0003
0000
,  // measure 41
0100
0000
0100
0000
,  // measure 42
0200
0000
0300
0000
,  // measure 43
0001
0000
0001
0000
,  // measure 44
0002
0000
0003
0000
,  // measure 45
1000
0000
1000
0000
,  // measure 46
2000
0000
3000
0000
,  // measure 47
0010
0000
0010
0000
,  // measure 48
0020
0000
0030
0000
,  // measure 49
2002
0000
0000
0000
,  // measure 50
3003
0000
0000
0000
,  // measure 51
1000
0000
0001
0000
,  // measure 52
1001
0000
0000
0000
;
