#TITLE:Optical Cellophane;
#SUBTITLE:;
#ARTIST:SoundHolic;
#TITLETRANSLIT:;
#SUBTITLETRANSLIT:;
#ARTISTTRANSLIT:;
#GENRE:Silly J-Pop;
#CREDIT:Ace Of Hearts;
#BANNER:Optical Cellophane - bn.png;
#BACKGROUND:Optical Cellophane - bg.png;
#LYRICSPATH:;
#CDTITLE:Ace Of Hearts.png;
#MUSIC:Optical Cellophane.ogg;
#OFFSET:1.200;
#SAMPLESTART:42.500;
#SAMPLELENGTH:12.000;
#SELECTABLE:YES;
#BPMS:0.000=170.000,34.500=-170.000,36.500=170.000,174.500=-170.000,175.000=170.000,209.500=-170.000,210.500=170.000,213.500=-170.000,214.500=170.000,217.500=-170.000,218.500=170.000,221.500=-170.000,222.500=170.000,321.500=-170.000,322.500=170.000,325.500=-170.000,326.500=170.000,329.500=-170.000,330.500=170.000,333.500=-170.000,334.500=170.000,337.500=-170.000,338.500=170.000,341.500=-170.000,342.500=170.000,345.500=-170.000,346.500=170.000,349.500=-170.000,350.500=170.000,353.000=85.000,359.000=170.000,393.500=-170.000,394.500=170.000;
#DISPLAYBPM:85.000:170.000;
#STOPS:;
#BGCHANGES:3.000=Optical Cellophane Video.avi=1.000=0=0=1=====,
434.000=Optical Cellophane - bg.jpg=1.000=0=0=1=Centered====,
99999=-nosongbg-=1.000=0=0=0 // don't automatically add -songbackground-
;
#KEYSOUNDS:;

//---------------dance-single - Opti-Camo!----------------
#NOTES:
     dance-single:
     Ace Of Hearts (2011):
     Hard:
     9:
     0.623,0.000,0.166,0.525,0.069:
0000
0000
0000
0000
,
0000
0000
0000
0000
,
0000
0000
0000
0000
,
0000
0000
0000
0000
,
0000
0000
0000
0000
,
1000
0000
0010
1000
1000
0000
0001
0100
,
0000
0010
1000
0001
0001
0000
0010
0000
,
0100
0000
0010
0001
0001
0000
1000
0010
,
0000
1000
0001
0010
0010
0000
0000
M000
,
0M00
M0M0
0M0M
M0M0
0M0M
00M0
000M
0000
,
0200
0000
0000
0000
2300
0000
0000
3002
,
0000
0000
0003
0000
,
0200
0000
0000
0000
0320
0000
0000
2030
,
0000
0000
3000
0000
,
1200
0000
0000
0000
0320
0000
0000
0032
,
0000
0000
0003
0000
,
0201
0000
0000
0000
0320
0000
0000
1030
,
M00M
0001
0100
0010
1000
0100
0010
0001
,
0200
0000
0000
0000
0302
0000
0000
2003
,
0000
3100
0010
0001
0010
0100
1000
0100
,
0020
0000
0000
0000
0032
0000
0000
2003
,
0000
3010
0100
0010
1000
0001
0010
0100
,
0020
0000
0000
0000
0032
0000
0000
2003
,
0000
3100
0010
0001
1000
0010
0100
0001
,
0020
0000
0000
0000
0230
0000
0000
2300
,
0000
3001
0100
0010
0100
0001
1000
0100
,
0040
0000
0000
0000
,
0230
0000
0000
0000
,
2300
0000
0000
0000
,
0000
0000
0000
0000
,
3400
0000
0000
0000
0000
0000
0000
0300
,
0000
1000
0001
0100
0010
0100
0001
1000
,
0100
0010
0100
1000
0001
0100
0010
1000
,
0001
0010
0100
1000
0002
0000
0003
0000
,
1000
0010
0100
0001
1000
0100
1000
0010
,
1000
0001
0100
0001
2000
0000
3000
0000
,
0010
0100
0001
1000
0100
0010
0001
1000
,
0010
0100
0010
1000
0200
0000
0300
0000
,
1000
0001
0100
0010
1000
0100
0010
0001
,
0010
0100
1000
0001
0020
0000
0030
0000
,
0001
0000
1000
0010
1000
0000
0001
0000
0010
0000
0001
0000
1000
0000
0000
0000
,
0010
0000
1000
0001
1000
0000
0100
0000
0010
0000
0001
0000
0100
0000
0000
0000
,
0001
0000
1000
0010
1000
0000
0001
0000
1000
0000
0100
0000
0010
0000
0100
0000
,
1000
0000
0001
0100
0001
0000
1000
0000
0100
0000
0000
0000
0000
0000
0000
0000
,
M00M
0000
1000
0010
1000
0001
0010
0001
,
1000
0010
0100
0001
1000
0100
0020
0000
,
0030
0001
1000
0010
0100
0010
1000
0001
,
0010
0100
1000
0100
0010
0001
2000
0000
,
3000
0000
0010
0100
0001
1000
0001
0010
,
0100
1000
0001
0100
0010
1000
0002
0000
,
0003
0000
0100
0010
1000
0001
0010
0100
,
1000
0001
0200
0000
0301
1000
0020
0000
,
0030
1010
0000
0M0M
,
0000
1001
0000
0MM0
,
0000
0101
0000
M0M0
,
0000
0011
0000
MM00
,
0000
0000
0001
1000
0010
1000
0200
0000
,
1300
0001
0020
0000
0130
0000
0010
0001
,
1000
0010
0200
0000
0301
1000
0020
0000
,
1030
0001
0100
0010
1000
0001
0010
0001
,
1000
0010
0100
0001
1000
0100
0010
0001
,
1000
0000
0100
0000
0120
0000
0000
0000
0032
0000
0000
0000
1003
0010
1000
0010
,
1000
0000
0001
1000
0010
0100
0010
1000
,
0100
0010
0001
1000
0010
1000
0001
0010
,
0100
1000
0001
0100
0010
1000
0001
0100
,
0010
1000
0001
0010
0001
0100
0010
1000
,
0001
1000
0100
0010
0002
0000
1003
0010
,
0200
0000
0301
1000
0020
0000
1030
0001
,
0200
0000
0310
1000
0001
0010
0100
1000
,
0001
0000
0100
0000
0120
0000
0000
0000
2030
0000
0000
3000
1001
0000
0001
0000
,
0100
0000
0010
1000
0001
0010
0001
0100
,
1000
0100
0001
1000
0100
0010
0100
1000
,
0001
0100
0010
1000
0001
0010
0100
1000
,
0001
0100
0010
1000
0001
0010
0001
0100
,
0010
1000
0001
0100
0020
0000
1030
0001
,
0200
0000
0310
1000
0002
0000
1003
0100
,
0020
0000
0130
1000
0001
0100
0010
1000
,
0001
0010
0200
1300
0002
0103
0010
0000
,
1010
0000
0000
0000
1000
0001
0000
0001
0000
0000
1000
0010
0000
0010
0100
0000
,
0000
0000
0001
0010
0001
0000
1000
0010
1000
0000
0001
0000
0100
0000
0010
0000
,
1000
1100
0000
0MM0
,
0000
0101
0000
MM00
,
0000
1010
0000
M00M
,
0000
0011
0000
M0M0
,
0000
1010
0000
0MM0
,
0000
1100
0000
0M0M
,
0000
0011
0000
M00M
,
0000
1001
0000
M0M0
,
0000
0000
0000
0000
0001
0100
0020
0000
1030
0001
0200
0000
0310
0000
2000
0000
,
3001
0010
0200
0000
1300
0001
0020
0000
0031
1000
0001
0100
0001
0000
1000
0000
,
0010
1000
0001
0010
0001
0100
0010
1000
,
0001
0100
0010
1000
0001
1000
0100
0001
,
0100
1000
0001
0100
0010
1000
0100
0010
,
0001
0010
0100
1000
0001
0100
0010
1000
,
0001
0010
0001
1000
0010
0100
0001
1000
,
0020
0000
1030
0001
0200
0000
0301
0000
,
0020
0000
0130
1000
0002
0000
0103
0010
,
0100
0001
1000
0100
0001
0100
0010
0001
,
1000
0010
0100
0000
0000
0000
0MM0
0000
,
0000
0000
0001
0100
0020
0000
1030
0001
,
0200
0000
0301
1000
0020
0000
1030
0100
,
2000
0000
0000
3000
1002
0000
0000
0000
0203
0000
0000
0000
0320
0000
0000
0000
,
2030
0000
0000
3000
1002
0000
0000
0000
0023
0000
0000
0000
0230
0000
0000
0000
,
2300
0000
0000
3000
1002
0000
0000
0000
0000
0000
0000
0000
0000
0000
0000
0000
,
0003
0201
0000
0000
,
0300
0000
0210
0301
1000
0100
0010
0100
,
1000
0000
0001
0000
0100
0000
0010
0000
1000
0001
1000
0010
0100
0000
0000
0000
,
1001
0000
0000
0000
;

//---------------dance-single - MWLinearGun!----------------
#NOTES:
     dance-single:
     Ace Of Hearts (2011):
     Challenge:
     11:
     0.986,0.000,0.518,1.000,0.573:
0000
0000
0000
0000
,
0000
0000
0000
0000
,
0000
0000
0000
0000
,
0000
0000
0000
0000
,
0000
0000
0000
0000
,
0101
0000
0000
0000
0002
0000
1003
0000
1000
0000
0000
0000
0200
0300
0110
0000
,
0000
0010
0002
0103
0100
0000
0010
0000
,
1010
0000
0000
0000
2000
0000
3100
0000
0100
0000
0000
0000
0020
0030
0011
0000
,
0000
0000
0001
0000
2000
0000
3100
0000
0100
0000
0000
0000
0MMM
00M0
00M0
00M0
,
00M0
0000
0M0M
0M0M
0MMM
0M0M
0M0M
0000
0000
0000
0000
0000
0000
0000
0000
0000
,
0201
0000
0000
0000
0320
0000
0000
2030
,
0000
0000
3000
0000
,
1020
0000
0000
0000
0230
0000
0000
0302
,
0000
0000
0003
0000
,
0022
0000
0000
0000
0000
0000
0033
0000
0220
0000
0000
0000
0000
0330
2002
0000
,
0000
0000
3003
0000
,
2020
0000
0000
3030
0220
0000
0030
0301
,
000M
00M0
0M01
M000
0100
0000
0001
0000
0010
0000
0100
0000
1000
0000
0100
0000
,
0020
0000
0031
1000
0010
0000
0100
0000
0001
1000
0100
0000
0010
0000
0002
0000
,
0000
1003
1000
0010
0010
0100
0100
0001
,
2001
0000
3100
0010
0001
0000
1000
0000
0010
0100
0001
0000
1000
0000
0020
0000
,
0000
1030
1000
0001
0001
0100
0100
0001
,
0021
0000
0130
1000
0001
0000
0100
0000
0010
1000
0001
0000
0010
0000
0200
0000
,
0000
0310
0010
0001
0001
1000
1000
0010
,
0210
0000
0301
1000
0100
0000
0010
0000
0100
1000
0001
0000
0100
0000
0020
0000
,
0000
0130
0100
0001
0001
1000
1000
0100
,
1002
0000
0103
0010
1000
0000
2100
0000
3001
0000
0100
0000
0020
0000
1030
0000
,
1200
0000
0310
0001
1000
0000
1020
0000
0130
0000
0001
0000
2000
0000
3100
0000
,
0120
0000
0031
1000
0010
0000
0210
0000
0301
0000
1000
0000
0200
0000
0310
0000
,
0012
1003
0010
0210
0301
1000
1200
0310
,
0001
1000
0010
1000
0001
0010
0100
1000
0100
0010
0001
1000
0001
0100
0010
0000
,
0000
0100
0001
1000
0100
0010
0001
1000
,
1020
0130
0001
1000
0200
0310
0001
0100
,
2000
3100
0001
1000
0020
0100
0130
0001
,
0102
1003
0100
0010
0200
1300
0001
0100
,
0020
1030
0001
0010
0200
0010
0310
0000
,
0012
1003
0010
0100
0020
0031
0010
1000
,
0002
0013
0100
1000
0002
1000
1003
0010
,
2010
3001
0010
0100
0020
1030
0010
0001
,
2000
3100
0010
0001
0200
0000
0300
0000
,
0120
0000
1030
0001
1000
0100
0010
0001
1000
0000
0100
1000
0010
0000
0000
0000
,
0110
0000
0000
0000
0000
0000
0100
0000
0001
0000
0100
0000
0001
0000
0000
1000
0000
0000
0100
0000
0000
1000
0000
0000
0001
0000
0000
0000
0000
0000
0100
0000
0000
0001
0000
0000
0010
0000
0000
0000
0000
0000
0000
0000
0000
0000
0000
0000
,
0100
0000
1000
0000
0100
0000
1000
0000
0000
0001
0000
0000
0100
0000
0000
0001
0000
0000
1000
0000
0000
0010
0000
0000
1000
0000
0000
0000
0000
0000
0001
0000
0000
0000
0000
0000
0010
0000
0000
0000
0000
0000
0001
0000
1000
0000
0001
0000
,
1000
0000
0010
1000
0001
0010
0100
1000
0001
0000
0000
0000
M00M
0000
0000
0000
,
0440
0330
0000
0000
1002
0000
0103
0000
0010
0000
1000
0000
0200
0000
0310
0000
,
0001
0100
0020
0031
0010
1000
0002
0010
,
0013
0100
2100
3001
0100
0010
2000
3100
,
0001
0100
2000
3001
0100
0010
2000
0100
,
3100
0000
0120
0031
1000
0010
0200
0301
,
1000
0100
0020
1030
0010
0001
2000
0001
,
3001
0000
0201
0310
1000
0100
0002
0103
,
1000
0001
0200
0310
1000
0001
0020
0100
,
0130
10M2
0M00
00M0
,
M003
0M21
M000
000M
,
0M30
120M
00M0
M000
,
030M
1002
0M00
M000
,
00M3
0000
2001
3010
0100
0001
0021
0000
,
0130
0000
1000
0000
1020
0000
0000
0000
0230
0000
0000
0300
0102
0000
1003
0000
,
1010
0000
0010
0000
0200
0000
0001
0300
0001
0000
1000
0000
0200
0000
0010
0300
,
0010
0000
0001
0000
2000
0000
0010
3000
0010
0000
0100
0000
0002
0000
0010
0003
,
0010
0000
0100
0000
2000
0000
0010
3000
0010
0000
0100
0000
0002
0000
1000
0003
,
1000
0000
0100
0000
0120
0000
0031
0000
2001
0000
3010
0000
1000
0100
0010
0001
,
1000
0010
1000
0001
1M00
0000
001M
0100
00M1
0000
1M00
0000
01M0
0000
M010
0001
,
01M0
0000
001M
0M00
1000
0100
M010
0001
0010
010M
1000
0100
001M
M000
0M01
0000
,
10M0
0000
001M
0000
1M00
00M0
0001
M100
0010
0000
1M0M
0000
00M1
0000
0M10
0001
,
M100
000M
0M10
0000
100M
00M0
0100
0010
M001
0M00
10M0
0M00
M001
0010
010M
1000
,
01M0
0010
0M01
0010
M100
0000
1000
0000
0002
0000
1003
0000
0020
0000
0130
0000
,
0002
1003
0200
0310
0200
1300
0002
0103
,
0020
1030
1002
0103
0010
1000
1200
0310
,
0001
0000
0100
0000
0120
0000
1030
0000
1002
0000
0013
0000
0210
0000
1300
0001
,
1000
0000
0010
0000
M10M
0000
00M1
1000
0100
M00M
0010
0M00
0100
00M0
1000
0M01
,
0100
M000
001M
0000
1M00
0000
M001
0010
010M
0000
0M10
M000
0001
1M00
0010
100M
,
0100
M010
0001
1M00
0010
000M
1000
0M01
0010
M000
0100
000M
0010
0M00
0001
M100
,
0010
000M
1000
0M00
01M0
000M
M010
0100
10M0
0000
0M01
0000
M100
0010
1M00
0001
,
M010
0001
10M0
0010
010M
0000
M001
0000
2000
0000
3010
0000
0200
0000
0301
0000
,
2000
3100
0120
0031
0200
0310
2000
3100
,
0010
0001
2001
3010
0100
0001
0021
0130
,
1000
0000
0001
0000
0201
0000
0310
1000
0002
0013
0100
1000
0002
0103
0010
0000
,
1000
0000
0100
0010
0200
1300
0001
0100
0020
0030
0100
0001
1000
0100
0020
0030
,
0001
0000
0100
0010
2000
3001
0010
0100
2000
3001
0100
0010
2000
3100
0020
0031
,
2000
3000
102M
0000
0M00
0000
M000
0000
,
0M30
0202
00M0
M000
,
0303
2M01
00M0
000M
,
3M00
204M
0M00
000M
,
3M30
02M1
M000
000M
,
03M0
M420
000M
M000
,
033M
02M2
M000
00M0
,
M000
M010
00M0
M000
,
03M3
0000
M000
0000
0M01
1000
02M0
0000
M310
0001
20M0
0000
3M02
0000
M023
0000
,
0M31
1000
002M
0000
1M30
0100
200M
0000
3M01
0100
10M0
0100
M010
0000
100M
0010
,
1M00
0001
M010
0100
10M0
0001
M100
0000
001M
0100
00M1
0000
1M00
0000
M100
0010
,
0M01
0000
10M0
0000
001M
0000
10M0
0001
0M10
0000
M001
0000
1M00
0000
001M
1000
,
01M0
0000
1M00
0001
M100
0010
0100
0001
10M0
0100
001M
0100
10M0
0000
M001
0100
,
0010
0000
1M00
0000
00M1
0000
M010
0001
0100
000M
0010
0M00
1000
000M
0100
M010
,
0001
0M00
1000
000M
0010
0M00
1000
0001
M010
0001
1M00
0010
010M
0000
0001
1000
,
0020
0000
0000
0000
1030
0001
0100
0000
0002
0000
0000
0000
1003
0000
0010
0000
,
0200
0000
0000
0300
0101
0000
0001
0000
2000
0000
0000
3000
1200
0000
0310
0000
,
0001
0000
0100
0000
0120
0000
1030
0000
0001
0000
0010
0000
0100
1000
0001
0100
,
0010
1000
0001
0100
0010
0000
0000
0000
0MM0
0000
M00M
0000
0MM0
0000
M00M
0000
,
0MM0
0000
0M21
M130
200M
3M00
102M
M130
,
00M2
0000
0M00
0003
M021
0000
013M
0000
2M00
0000
30M0
0000
1M20
0000
013M
0000
,
M001
0000
00M0
0000
M102
0000
00M0
0000
2M00
0000
00M0
0003
020M
0000
00M0
3000
,
M020
0000
000M
0300
2M00
0000
000M
0030
0M02
0000
00M0
3000
M200
0000
00M0
0003
,
0320
0000
0000
0000
0000
0000
0000
0000
0000
0000
0000
0000
0031
0000
0000
0000
0000
0000
1000
0000
0010
0000
1000
0000
0010
0000
0000
1000
0000
0000
0001
0000
0000
1000
0000
0000
0010
0000
0000
0000
0000
0000
1000
0000
0100
0000
1000
0000
,
0100
0000
0000
0010
0000
0000
0001
0000
0000
1000
0000
0000
0010
0000
0000
0000
0000
0000
1000
0000
0100
0000
0010
0000
0001
0000
0000
1000
0000
0000
0010
0000
0000
0100
0000
0000
0010
0000
0000
0000
0000
0000
1000
0000
0001
0000
0100
0000
,
0001
1000
0001
0010
0210
0000
0310
0000
0100
0000
1000
0000
2002
0000
3003
0202
,
0303
0000
0220
0330
2020
0000
3030
0000
1000
0001
0010
0200
2000
0000
0000
0000
,
0011
3300
0000
0000
;

//---------------dance-single - IllusionFall----------------
#NOTES:
     dance-single:
     Ace Of Hearts (2011):
     Medium:
     7:
     0.460,0.000,0.028,0.559,0.010:
0000
0000
0000
0000
,
0000
0000
0000
0000
,
0000
0000
0000
0000
,
0000
0000
0000
0000
,
0000
0000
0000
0000
,
0001
0000
1000
0000
0001
0000
1000
0100
,
0000
0100
0010
0000
0100
0000
1000
0000
,
0001
0000
0100
0000
0001
0000
1000
0100
,
0000
0100
1000
0000
0001
0000
0000
0MM0
,
0000
0000
0000
0000
,
2000
0000
0000
0000
3002
0000
0000
0203
,
0000
0000
0300
0000
,
0020
0000
0000
0000
2030
0000
0000
3002
,
0000
0000
0003
0000
,
2000
0000
0000
0000
3002
0000
0000
0023
,
0000
0000
0030
0000
,
0200
0000
0000
0000
2300
0000
0000
3001
,
0000
100M
0010
0000
1000
0000
0001
0000
,
2000
0000
0000
0000
3002
0000
0000
0023
,
0000
0031
1000
0000
0010
0000
1000
0000
,
0200
0000
0000
0000
0320
0000
0000
0032
,
0000
1003
0010
0000
1000
0000
0001
0000
,
0020
0000
0000
0000
0032
0000
0000
2003
,
0000
3010
1000
0000
0001
0000
0010
0000
,
0200
0000
0000
0000
2300
0000
0000
3002
,
0000
1003
0010
0000
1000
0000
0100
0000
,
0020
0000
0000
0000
,
0230
0000
0000
0000
,
2300
0000
0000
0000
,
0000
0000
0000
0000
,
3002
0000
0000
0000
0000
0000
0000
0003
,
0000
1000
0001
0000
1000
0000
0010
0000
,
1000
0010
1000
0000
0001
0000
0010
0000
,
0001
1000
0001
0000
0200
0000
0300
0000
,
0010
1000
0010
0000
1000
0000
0001
0000
,
0010
0001
0010
0000
0200
0000
0300
0000
,
0010
0001
0010
0000
0100
0000
1000
0000
,
0001
1000
0001
0000
0200
0000
0300
0000
,
0010
0100
0010
0000
1000
0000
0001
0000
,
1000
0100
1000
0000
0002
0000
0003
0000
,
1000
0010
1000
0001
1000
0000
0001
0000
,
0010
0001
0010
0001
1000
0000
0010
0000
,
1000
0001
0100
0010
,
1000
0001
0010
0001
1000
0000
0000
0000
,
M00M
0000
0001
0010
0001
0000
1000
0000
,
0010
0000
1000
0001
1000
0100
2000
0000
,
3000
0000
0010
1000
0010
0000
1000
0000
,
0001
0000
0010
0100
0010
0001
2000
0000
,
3000
0000
0001
0100
0010
0000
1000
0000
,
0001
0000
1000
0010
1000
0001
0200
0000
,
0300
0000
0001
1000
0100
0000
0010
0000
,
0001
0000
1000
0000
0001
0100
0020
0000
,
0030
1000
0000
00M0
,
0000
0001
0000
M000
,
0000
0100
0000
000M
,
0000
0010
0000
0M00
,
0000
0000
0001
1000
0010
0000
1000
0000
,
0001
0010
0001
0000
0100
0000
0010
0000
,
1000
0001
0200
0000
0000
0301
2000
0000
,
3000
0001
0010
0000
0001
0000
1000
0010
,
0100
0000
0010
1000
0001
1000
0100
0000
,
1000
0002
0000
0000
,
0003
0000
1000
0010
1000
0001
1000
0000
,
0100
0000
0010
0001
0010
0100
2000
0000
,
3001
0000
1000
0010
1000
0001
0010
0000
,
0001
0000
1000
0010
1000
0001
0200
0000
,
0310
0000
1000
0010
1000
0000
0001
0010
,
0001
0000
1000
0000
0020
0000
1030
0001
,
1000
0000
0001
0010
0001
1000
0010
0000
,
1000
0002
1003
0010
,
0000
0000
2000
0000
3001
0010
0200
0000
,
0310
0001
2000
0000
3010
1000
0002
0000
,
1003
0100
0020
0000
0031
1000
0002
0000
,
1003
0010
0200
0000
0301
1000
0200
0000
,
1300
0001
0010
0001
1000
0000
0010
1000
,
0010
0000
1000
0000
0020
0000
1030
0001
,
0010
0000
0001
1000
0010
1000
0002
0000
,
0013
0001
0020
0000
0000
0000
0000
0000
,
0030
0000
0004
0000
0003
4000
0000
3000
,
0000
0000
0004
0040
0000
0000
0000
0000
0000
0000
0000
0000
0033
0000
0000
0000
,
0001
0100
0000
0M00
,
0000
0001
0000
000M
,
0000
1000
0000
M000
,
0000
0100
0000
0M00
,
0000
0010
0000
00M0
,
0000
0001
0000
000M
,
0000
0100
0000
0M00
,
0000
0010
0000
00M0
,
0000
0000
0000
0000
1000
0100
2000
0000
3001
0000
0020
0000
0031
0000
2000
0000
,
3001
0010
0002
0000
0203
0000
0000
0000
0000
0000
0300
0000
1001
0000
0000
0000
,
0110
0000
1001
0000
0000
0000
0001
0010
,
0200
0000
0310
0001
2000
0000
3001
0100
,
0010
0100
0002
0000
1003
0000
0001
1000
,
0200
0000
1300
0001
0020
0000
0031
0000
,
1000
0000
0010
1000
0001
0000
0010
0000
,
0100
0000
1000
0001
2000
0000
3010
0000
,
0100
0000
0001
1000
0020
0000
1030
0001
,
0100
0010
2000
0000
3001
0000
0010
0000
,
0001
1000
0000
0MM0
,
0000
0000
0010
1000
0002
0000
1003
0010
,
0200
0000
0301
1000
0020
0000
1030
0001
,
2000
3020
2030
3002
,
0203
0302
2003
3200
,
0320
0032
0000
0000
,
0003
2000
0000
0000
,
3000
0002
0000
0003
,
0000
0000
1000
0010
1000
0001
0100
0000
,
1001
0000
0000
0000
;

//---------------dance-single - WaterDrops----------------
#NOTES:
     dance-single:
     Ace Of Hearts (2011):
     Easy:
     4:
     0.245,0.000,0.007,0.186,0.000: // measure 1
0000
0000
0000
0000
,  // measure 2
0000
0000
0000
0000
,  // measure 3
0000
0000
0000
0000
,  // measure 4
0000
0000
0000
0000
,  // measure 5
0000
0000
0000
0000
,  // measure 6
0001
0000
0001
0000
,  // measure 7
1000
1000
1000
0000
,  // measure 8
0001
0000
0001
0000
,  // measure 9
0001
0001
0001
0000
,  // measure 10
0000
0000
0000
0000
,  // measure 11
1000
0000
0000
0000
1000
0000
0000
2000
,  // measure 12
0000
0000
3000
0000
,  // measure 13
0100
0000
0000
0000
0100
0000
0000
0200
,  // measure 14
0000
0000
0300
0000
,  // measure 15
0010
0000
0000
0000
0010
0000
0000
0020
,  // measure 16
0000
0000
0030
0000
,  // measure 17
0001
0000
0000
0000
0002
0000
0000
1003
,  // measure 18
0000
0040
0000
0030
,  // measure 19
0100
0000
0000
0000
0100
0000
0000
0200
,  // measure 20
0000
0340
0000
0030
,  // measure 21
1000
0000
0000
0000
1000
0000
0000
2000
,  // measure 22
0000
3004
0000
0003
,  // measure 23
0010
0000
0000
0000
0010
0000
0000
0020
,  // measure 24
0000
0034
0000
0003
,  // measure 25
1000
0000
0000
0000
1000
0000
0000
2000
,  // measure 26
0000
3040
0000
0030
,  // measure 27
2000
0000
0000
0000
,  // measure 28
3002
0000
0000
0000
,  // measure 29
2003
0000
0000
0000
,  // measure 30
0000
0000
0000
0000
,  // measure 31
3200
0000
0000
0000
,  // measure 32
0300
0040
0000
0030
,  // measure 33
0001
0001
0001
0000
,  // measure 34
1000
1000
1000
0000
,  // measure 35
0010
0010
0010
0000
,  // measure 36
0100
0000
0100
0000
,  // measure 37
0001
0001
0001
0000
,  // measure 38
1000
1000
1000
0000
,  // measure 39
0100
0100
0100
0000
,  // measure 40
0010
0000
0010
0000
,  // measure 41
0004
0000
0003
0000
,  // measure 42
4000
0000
3000
0000
,  // measure 43
0400
0000
0300
0000
,  // measure 44
0040
0000
0030
0000
,  // measure 45
0000
0001
0001
0001
,  // measure 46
0000
0100
0100
0100
,  // measure 47
0000
0010
0010
0010
,  // measure 48
0000
1000
0000
1000
,  // measure 49
0000
0001
0001
0001
,  // measure 50
0000
0100
0100
0100
,  // measure 51
0000
0010
0010
0010
,  // measure 52
0000
1000
1000
1000
,  // measure 53
0000
0001
0000
0000
,  // measure 54
0000
0001
0000
0000
,  // measure 55
0000
1000
0000
0000
,  // measure 56
0000
1000
0000
0000
,  // measure 57
0000
0010
0000
0010
,  // measure 58
0000
1000
0000
0001
,  // measure 59
0001
0002
0000
2003
,  // measure 60
0000
3001
0001
0001
,  // measure 61
0000
0010
0010
0010
,  // measure 62
0000
0020
0000
0030
,  // measure 63
0000
0001
1000
0001
,  // measure 64
0000
1000
0010
1000
,  // measure 65
0000
0001
0100
0001
,  // measure 66
0000
1000
0001
1000
,  // measure 67
0000
0010
0000
0100
,  // measure 68
0000
0001
0100
0001
,  // measure 69
0000
1000
0010
1000
,  // measure 70
0000
0001
0100
0001
,  // measure 71
0000
1000
0001
1000
,  // measure 72
0000
0001
0010
0001
,  // measure 73
0000
1000
0010
1000
,  // measure 74
0000
0010
0100
0010
,  // measure 75
0000
1000
0000
0001
,  // measure 76
0000
0100
0010
0100
,  // measure 77
0000
0001
0100
0001
,  // measure 78
0000
1000
0001
1000
,  // measure 79
0000
0004
0000
0003
,  // measure 80
0000
4000
0000
3000
,  // measure 81
0000
0001
0000
0000
,  // measure 82
0000
1000
0000
0000
,  // measure 83
0000
0001
0000
0000
,  // measure 84
0000
1000
0000
0000
,  // measure 85
0000
0010
0000
0000
,  // measure 86
0000
0100
0000
0000
,  // measure 87
0000
0010
0000
0000
,  // measure 88
0000
0100
0000
0000
,  // measure 89
0000
0000
0001
0000
0001
0000
1000
1000
,  // measure 90
1000
0020
0030
0100
,  // measure 91
0100
0100
0000
0001
,  // measure 92
1000
0001
0000
1000
,  // measure 93
0100
1000
0000
0001
,  // measure 94
1000
0001
0000
1000
,  // measure 95
0010
1000
0000
0010
,  // measure 96
0000
0100
0000
0001
,  // measure 97
0100
0001
0000
1000
,  // measure 98
0100
1000
0000
0001
,  // measure 99
0001
0001
0000
0000
,  // measure 100
0000
1000
0001
1000
,  // measure 101
0000
0010
1000
0010
,  // measure 102
0000
2000
3002
2003
,  // measure 103
3002
0023
0032
2003
,  // measure 104
3002
2003
0000
0000
,  // measure 105
3000
0002
0000
0000
,  // measure 106
0003
0020
0000
0030
,  // measure 107
0000
0001
1000
0001
,  // measure 108
1001
0000
0000
0000
;

//---------------dance-single - Cucumber----------------
#NOTES:
     dance-single:
     Ace Of Hearts (2011):
     Beginner:
     2:
     0.174,0.000,0.014,0.304,0.000: // measure 1
0000
0000
0000
0000
,  // measure 2
0000
0000
0000
0000
,  // measure 3
0000
0000
0000
0000
,  // measure 4
0000
0000
0000
0000
,  // measure 5
0000
0000
0000
0000
,  // measure 6
0002
0000
0003
0000
,  // measure 7
0001
0000
0000
0000
,  // measure 8
2000
0000
3000
0000
,  // measure 9
1000
0000
0000
0000
,  // measure 10
0000
0000
0000
0000
,  // measure 11
0002
0000
0000
0000
,  // measure 12
0003
0000
0000
0000
,  // measure 13
2000
0000
0000
0000
,  // measure 14
3000
0000
0000
0000
,  // measure 15
0200
0000
0000
0000
,  // measure 16
0300
0000
0000
0000
,  // measure 17
0020
0000
0000
0000
0000
0000
0000
0030
,  // measure 18
0000
0000
0000
0000
,  // measure 19
0001
0000
0001
0000
,  // measure 20
0002
0000
0003
0000
,  // measure 21
1000
0000
1000
0000
,  // measure 22
2000
0000
3000
0000
,  // measure 23
0010
0000
0010
0000
,  // measure 24
0020
0000
0030
0000
,  // measure 25
0100
0000
0100
0000
,  // measure 26
0200
0000
0300
0000
,  // measure 27
2000
0000
0000
0000
,  // measure 28
3002
0000
0000
0000
,  // measure 29
2003
0000
0000
0000
,  // measure 30
0000
0000
0000
0000
,  // measure 31
3020
0000
0000
0000
,  // measure 32
0030
0000
0000
0000
,  // measure 33
1000
0000
1000
0000
,  // measure 34
2000
0000
3000
0000
,  // measure 35
0010
0000
0010
0000
,  // measure 36
0020
0000
0030
0000
,  // measure 37
0100
0000
0100
0000
,  // measure 38
0200
0000
0300
0000
,  // measure 39
0001
0000
0001
0000
,  // measure 40
0002
0000
0003
0000
,  // measure 41
4000
0000
3000
0000
,  // measure 42
0004
0000
0003
0000
,  // measure 43
0040
0000
0000
0000
,  // measure 44
0000
0000
0030
0000
,  // measure 45
0000
0001
0000
0001
,  // measure 46
0000
0002
0000
0003
,  // measure 47
0000
1000
0000
1000
,  // measure 48
0000
2000
0000
3000
,  // measure 49
0000
0100
0000
0100
,  // measure 50
0000
0200
0000
0300
,  // measure 51
0000
0010
0000
0010
,  // measure 52
0000
0020
0000
0030
,  // measure 53
0000
0001
0000
0000
,  // measure 54
0000
0001
0000
0000
,  // measure 55
0000
0001
0000
0000
,  // measure 56
0000
0001
0000
0000
,  // measure 57
0000
0001
0000
0001
,  // measure 58
0000
2000
0000
3000
,  // measure 59
0000
0100
0000
0100
,  // measure 60
0000
0200
0000
0300
,  // measure 61
0000
0010
0000
0010
,  // measure 62
0000
0020
0000
0030
,  // measure 63
0000
0001
0000
0001
,  // measure 64
0000
0002
0000
0003
,  // measure 65
0000
1000
0000
1000
,  // measure 66
0000
2000
0000
3000
,  // measure 67
0000
0010
0000
0010
,  // measure 68
0000
0020
0000
0030
,  // measure 69
0000
1000
0000
1000
,  // measure 70
0000
2000
0000
3000
,  // measure 71
0000
0001
0000
0001
,  // measure 72
0000
0002
0000
0003
,  // measure 73
0000
0100
0000
0100
,  // measure 74
0000
0200
0000
0300
,  // measure 75
0000
0010
0000
0010
,  // measure 76
0000
0020
0000
0030
,  // measure 77
0000
1000
0000
1000
,  // measure 78
0000
2000
0000
3000
,  // measure 79
0000
4004
0000
0000
,  // measure 80
0000
0000
0000
3003
,  // measure 81
0000
0001
0000
0000
,  // measure 82
0000
0001
0000
0000
,  // measure 83
0000
0001
0000
0000
,  // measure 84
0000
0001
0000
0000
,  // measure 85
0000
1000
0000
0000
,  // measure 86
0000
1000
0000
0000
,  // measure 87
0000
1000
0000
0000
,  // measure 88
0000
1000
0000
0000
,  // measure 89
0000
0010
0010
0010
,  // measure 90
0000
2000
3000
0002
,  // measure 91
0000
0003
0000
0010
,  // measure 92
0000
0010
0000
0020
,  // measure 93
0000
0030
0000
0001
,  // measure 94
0000
0001
0000
0002
,  // measure 95
0000
0003
0000
1000
,  // measure 96
0000
1000
0000
2000
,  // measure 97
0000
3000
0000
0100
,  // measure 98
0000
0100
0000
0200
,  // measure 99
0000
0300
0000
0000
,  // measure 100
0000
0010
0000
0010
,  // measure 101
0000
0020
0000
0030
,  // measure 102
0000
0001
0001
0001
,  // measure 103
0001
1000
1000
1000
,  // measure 104
1000
2000
0000
0000
,  // measure 105
0000
3002
0000
0000
,  // measure 106
0000
0023
0000
0000
,  // measure 107
0030
0000
0200
0300
,  // measure 108
1001
0000
0000
0000
;
