#TITLE:Nasty Girl;
#SUBTITLE:(Nightcore Mix);
#ARTIST:Renegade Mastaz;
#TITLETRANSLIT:;
#SUBTITLETRANSLIT:;
#ARTISTTRANSLIT:;
#GENRE:Nightcore Techno;
#CREDIT:Ace Of Hearts;
#BANNER:Nasty Girl - bn.png;
#BACKGROUND:Nasty Girl - bg.png;
#LYRICSPATH:;
#CDTITLE:Ace Of Hearts.png;
#MUSIC:Nasty Girl.ogg;
#OFFSET:1.200;
#SAMPLESTART:49.500;
#SAMPLELENGTH:12.000;
#SELECTABLE:YES;
#BPMS:0.000=173.900,35.000=347.800,37.000=173.900,51.000=347.800,53.000=173.900,69.000=86.950,101.000=173.900,128.500=347.800,132.500=173.900,197.000=86.950,210.750=173.900,212.500=86.950,213.000=173.900,259.000=347.800,260.500=173.900,277.000=86.950,295.000=173.900,387.000=86.950,387.500=347.800,388.500=173.900;
#DISPLAYBPM:86.950:173.900;
#STOPS:35.000=0.086
,35.500=0.086
,36.000=0.086
,36.500=0.086
,51.000=0.086
,51.500=0.086
,52.000=0.043
,52.250=0.043
,52.500=0.086
,128.500=0.043
,128.750=0.043
,129.000=0.086
,129.500=0.086
,130.000=0.086
,130.500=0.086
,131.000=0.086
,131.500=0.086
,132.000=0.086
,210.750=0.043
,210.875=0.043
,211.000=0.086
,211.250=0.086
,211.500=0.086
,211.750=0.086
,212.000=0.086
,212.250=0.086
,259.000=0.086
,259.500=0.086
,260.000=0.086
,456.000=0.345
,457.000=0.345
,458.000=0.345
,459.000=0.345
,460.000=0.345
,461.000=0.345
;
#BGCHANGES:;
#KEYSOUNDS:;

//---------------dance-single - Expert----------------
#NOTES:
     dance-single:
     Ace Of Hearts (2011):
     Challenge:
     10:
     0.704,0.443,0.380,0.718,0.288:
0000
0000
0000
0000
,
0002
0003
0021
0000
0000
0230
0000
0000
,
2300
3000
1002
0000
0000
0203
0000
0000
,
0320
0030
2010
0000
0000
3002
0000
0000
,
0023
0030
0210
0000
0000
2300
0000
0000
,
3002
0003
0201
0000
0000
0320
0000
0000
,
2030
3000
1002
0000
0000
0203
0000
0000
,
0320
0030
2010
0000
0000
3200
0000
0000
,
0320
0030
0012
0000
1003
0010
1000
0001
,
0010
0100
2000
0000
3001
0200
0000
0310
,
0100
0001
2000
0000
3100
0020
0000
0130
,
1000
0001
0200
0000
0301
2000
0000
3001
,
0100
0010
0200
0000
0000
0000
0301
0001
,
1000
0100
1000
0000
0002
0000
0000
0000
1003
0000
0200
0000
0000
0000
0310
0000
,
0100
1000
0002
0000
0103
0020
0000
1030
,
0001
0000
0010
0001
0010
0000
0100
0000
1000
0000
0001
0100
0001
0000
1000
0100
,
1000
0000
0001
0000
0100
0001
0100
0000
0010
1000
0010
0000
1000
0001
1000
0001
,
0010
0001
0010
0001
2000
0000
0000
0000
3001
0100
0010
200M
0000
3001
0M10
0000
,
0001
1000
001M
0200
0000
0301
10M0
0000
0100
0010
0M01
2000
0000
3001
M100
0000
,
0010
1000
0M01
0020
0000
0130
100M
0000
0100
0010
M001
2000
0000
3001
01M0
0000
,
0010
1000
0M01
2000
0000
3100
001M
0000
0100
1000
0M01
0200
0000
0310
1000
0000
,
0001
0100
0010
2000
0000
3001
0010
0000
0001
1000
0010
0200
0000
0310
1000
0000
,
0001
0010
0001
2000
0000
3010
0100
0000
0001
1000
0100
0010
0000
0000
0000
0000
,
0100
1000
0001
0200
0000
0310
1000
0000
0010
0100
0001
2000
0000
3100
0010
0000
,
0100
1000
0001
0200
0000
0310
1000
0000
0001
1000
0010
0100
0000
0000
0000
0000
,
0102
0000
1003
1020
0000
0000
0130
0000
0001
0000
0000
0000
1000
0000
0010
0000
,
1000
0002
0000
0013
0100
0000
1000
0100
,
0010
0002
0000
1003
0010
0000
0100
0010
,
1000
0001
0000
0000
0000
0000
0010
0001
,
1000
0020
0000
0130
M001
1000
01M0
0010
,
M100
1000
00M1
0100
001M
1000
0M01
0010
,
010M
0010
M001
1000
0M10
0100
001M
1000
,
0001
0000
0010
0001
0010
0000
0100
0000
1000
0000
0001
0000
0100
0000
0010
0000
,
1000
1001
0001
0011
,
0010
0100
1000
0000
1001
0000
0001
0100
,
0010
1000
0010
0000
0110
0000
0100
0000
,
0001
0000
1001
0000
0000
1000
0001
0001
,
0100
0010
1000
0000
0001
0000
0011
0000
,
0010
0001
1000
0000
1010
0000
0010
0010
,
0100
0001
1000
0000
1100
0000
0100
0000
,
0010
0000
0011
0000
0000
0001
1000
0010
,
1000
0001
0M10
0000
010M
0000
11M0
0000
,
1M00
0001
M100
0000
011M
0000
0M10
0010
,
100M
0001
M100
0000
0M10
0000
101M
0000
,
1M00
0000
110M
0000
00M0
0100
M010
0010
,
0100
1000
0M01
0000
010M
0000
M110
0000
,
0M10
1000
00M1
0000
M101
0000
010M
0100
,
M010
1000
00M1
0000
001M
0000
M110
0000
,
01M0
110M
0M00
0000
,
0000
0000
0000
0000
2002
3003
0000
0101
0000
0000
0000
0000
0220
0330
0000
1010
,
0000
0000
0000
1000
2200
3300
0000
0110
0000
0000
0000
0000
0022
0033
0000
0101
,
0000
0000
0000
0100
0220
0330
0000
1010
0000
0000
0000
0000
2002
3003
0000
0101
,
0000
0000
0000
0000
0000
0000
0001
0100
0001
0000
1000
0000
0100
0000
0010
0000
0100
0000
1000
0001
1000
0000
0010
1000
0010
0000
0100
0000
0001
0000
1000
0000
,
0100
0010
0001
0000
0201
0000
0000
0000
0000
0000
0320
0000
0000
0000
0000
0000
,
2030
3000
1200
0000
0000
0320
0000
0000
,
0032
0003
0201
0000
0000
0320
0000
0000
,
2030
3000
1200
0000
0000
0320
0000
0000
,
0032
0003
0201
0000
0000
0320
0000
0000
,
2030
3000
1200
0000
0000
0320
0000
0000
,
0032
0003
2001
0000
0000
3020
0000
0000
,
0230
0300
0102
0000
1003
0100
0010
0100
,
1000
0001
0200
0000
0310
2000
0000
3001
,
0010
0001
2000
0000
3010
0200
0000
0301
,
0100
0010
2000
0000
3001
0020
0000
0031
,
1000
0010
0200
0000
0000
0000
0301
1000
,
0001
0000
0020
0000
0031
2000
0000
3010
,
0100
0010
2000
0000
3001
0020
0000
0031
,
1000
0000
0010
1000
0010
0000
0100
0000
0001
0000
1000
0000
0100
0000
0010
0001
,
0010
0000
0100
0000
1000
0001
1000
0000
0010
1000
0010
0000
0100
0001
0100
0010
,
0100
0001
1000
0001
0020
0000
0030
0000
0001
1000
0010
0200
00M0
0301
1000
0000
,
010M
0010
0100
2000
00M0
3001
0100
0000
001M
1000
0001
0020
M000
0130
1000
0000
,
0M01
1000
0010
0100
000M
0000
0000
0000
0M10
1000
0001
0020
000M
0130
1000
0000
,
M100
0010
0001
2000
000M
3010
0100
0000
M001
0100
0010
2000
0M00
3001
0010
0000
,
010M
1000
0001
0100
00M0
0000
0000
0000
0020
0000
1030
0001
0010
0000
0000
0000
,
0000
0000
0220
0330
0000
0000
0000
0000
0000
0000
0000
0000
2200
0000
3300
0000
,
0000
0000
2002
3003
0000
0000
0000
0000
0000
0000
0001
0000
0101
0000
0000
0000
,
0000
0000
0220
0330
0000
0000
0000
0000
0000
0000
0000
0000
2020
0000
3030
0000
,
0000
0101
0001
1000
0100
0020
0000
0130
,
2000
0000
3001
0100
0010
2000
0000
3001
,
0200
0000
0310
1000
0001
0020
0000
0130
,
2000
0000
3001
0100
0010
1000
0000
0000
,
0000
0001
0010
0010
0001
1000
0010
0000
,
0000
0000
0100
0000
0101
0000
0001
1000
,
0000
0000
0200
0000
0300
0010
0001
0000
,
0000
0000
0000
1000
0100
1000
0002
0000
,
0003
0000
2000
0000
3010
0100
0001
0000
,
10M1
0000
1M00
0000
010M
0010
M001
0000
,
1M01
0000
100M
1000
0M10
0100
M001
1000
,
01M0
0000
0010
0000
010M
0000
1000
0000
00M1
0000
0100
0001
0100
0000
0010
0000
,
1000
0000
0001
0010
0001
0000
1000
0020
0000
0000
0030
0000
1M00
0000
0000
0000
,
M001
0000
0M11
0000
001M
0001
1M00
0000
,
101M
0000
0M10
0010
M100
0001
1M00
0000
,
010M
M110
0M10
M011
,
0M00
0001
10M0
1000
010M
0010
M001
0000
,
01M0
0000
M110
0000
001M
1000
0M01
0000
,
M011
0000
001M
0010
M100
1000
00M1
0000
,
M100
011M
0M10
2000
,
0000
0000
3001
1000
0001
0100
0010
1000
,
0001
0010
0100
0010
0001
1000
0010
0100
,
0001
1000
0100
0010
0001
1000
0100
1000
,
0001
0100
0010
1000
0001
0010
0100
1000
,
0100
0010
0001
1000
0010
0100
0010
1000
,
0001
0010
0100
1000
0001
0100
0010
0100
,
0001
1000
0100
0010
0100
1000
0001
0100
,
0010
1000
0001
0010
0100
1000
0001
0000
,
0000
1000
0020
0000
0130
0002
0000
1003
,
0010
0100
0001
1000
0100
0020
0000
0031
,
0100
0010
1000
0001
0010
0200
0000
0310
,
0001
1000
0010
0100
0001
1000
0000
0100
,
0010
0100
1000
0001
0100
0002
0000
1003
,
0100
0010
0100
1000
0001
0200
0000
0310
,
1000
0001
0010
0100
1000
0002
0000
0103
,
0010
1000
0001
0100
0001
1000
0000
0100
,
0010
0000
0001
0000
1000
0000
0010
0000
0100
0000
0001
0000
0000
0MM0
0000
0000
,
1100
0MM0
0011
0MM0
0110
0MM0
1100
0MM0
,
0011
0MM0
0101
0MM0
0110
0MM0
0010
1000
,
2M02
0000
00M0
0000
,
0M00
0000
00M0
0000
,
3M03
0000
000M
0000
,
M000
0000
00M0
0000
,
0M00
0000
0000
0000
;

//---------------dance-single - Hard----------------
#NOTES:
     dance-single:
     Ace Of Hearts (2011):
     Hard:
     8:
     0.539,0.374,0.026,0.586,0.195:
0000
0000
0000
0000
,
1000
0000
0002
0000
0000
0203
0000
0000
,
0302
0000
2003
0000
0000
3200
0000
0000
,
0320
0000
0032
0000
0000
2003
0000
0000
,
3020
0000
0230
0000
0000
0300
0000
0000
,
0001
0000
2000
0000
0000
3200
0000
0000
,
0320
0000
0032
0000
0000
2003
0000
0000
,
3020
0000
0230
0000
0000
0302
0000
0000
,
2003
0000
3020
0000
0030
0000
1000
0010
,
1000
0000
0002
0000
1003
0100
0000
0000
,
1000
0000
0002
0000
1003
0020
0000
0030
,
0000
0000
2000
0000
0000
3002
0000
0000
,
0023
0230
0000
0300
,
0000
0000
2000
0000
3001
0100
0000
0000
,
0001
0000
2000
0000
3010
0200
0000
0300
,
0000
0000
0001
0100
0001
0000
1000
0001
,
1000
0000
0010
0000
1000
0000
0001
0010
,
0001
0000
1000
0000
0002
0000
0000
0000
1003
0000
0001
0020
0000
0031
1000
0000
,
0001
0000
1000
0020
0000
1030
0001
0000
0100
0000
0001
2000
0000
3001
0010
0000
,
0100
0000
1000
0002
0000
1003
0010
0000
0100
0000
0001
2000
0000
3001
0010
0000
,
0001
0000
1000
0020
0000
0130
0001
0000
1000
0000
0001
0200
0000
0310
1000
0000
,
0001
0010
0001
0020
0000
0031
1000
0000
0010
1000
0010
2000
0000
3001
0010
0000
,
0100
1000
0100
2000
0000
3001
0100
0000
0001
1000
0001
0100
0000
0000
0000
0000
,
0010
0100
0010
2000
0000
3001
0010
0000
0001
1000
0001
0200
0000
0301
1000
0000
,
0001
0010
0001
2000
0000
3001
0100
0000
0001
1000
0001
0010
0000
0000
0000
0000
,
0002
0000
1003
0020
0000
0000
1030
0000
0001
0000
0000
0000
1000
0000
0010
0000
,
1000
0002
0000
1003
0100
0000
0010
0001
,
0010
0200
0000
1300
0001
0000
1000
0010
,
1000
0001
0000
0000
0000
0000
1000
0010
,
1000
0002
0000
1003
0010
0000
1000
0001
,
1000
0200
0000
1300
0001
0000
1000
0010
,
1000
0002
0000
1003
0100
0000
0010
0001
,
0010
0001
1000
0001
1000
0000
0010
0000
,
0010
1000
0001
0010
,
0001
1000
0001
0000
0100
0000
0010
1000
,
0020
1030
0001
0010
,
0100
0000
1000
0000
0000
0001
0100
0000
,
0001
1000
0001
0010
,
0001
1000
0001
0000
0100
0000
0010
1000
,
0020
0130
0001
1000
,
0100
0000
0010
0000
0000
0001
0010
0001
,
1000
0001
1000
0000
0010
0000
1000
0000
,
0001
0010
0001
0000
1000
0000
0010
1000
,
0010
1000
0001
0000
0010
0000
0100
0000
,
1000
0000
0001
0000
0000
1000
0010
1000
,
0010
1000
0001
0000
0100
0000
0001
0000
,
1000
0100
1000
0000
0001
0000
0010
0001
,
0010
0001
1000
0000
0010
0000
0100
0000
,
0001
0000
1000
0000
0000
0001
0010
0000
,
0001
0000
0000
0000
1000
0000
0000
1000
0000
0000
0000
0000
0002
0003
0000
0100
,
0000
0000
0000
0010
0010
0000
0000
0010
0000
0000
0000
0000
2000
3000
0000
0001
,
0000
0000
0000
0100
0100
0000
0000
0100
0000
0000
0000
0000
0002
0003
0000
1000
,
0000
0000
0000
0000
0001
0010
0001
0000
1000
0010
1000
0001
0010
0100
1000
0100
,
0010
0001
1000
0000
0020
0000
0000
0000
0000
0000
0230
0000
0000
0000
0000
0000
,
0302
0000
2003
0000
0000
3200
0000
0000
,
0320
0000
0230
0000
0000
2300
0000
0000
,
3002
0203
0300
0000
,
0010
0000
2000
0000
0000
3002
0000
0000
,
0023
0000
0032
0000
0000
2003
0000
0000
,
3020
0000
0230
0000
0000
0302
0000
0000
,
2003
3020
0000
0030
,
0000
0000
2000
0000
3001
0010
0000
0000
,
0001
0000
2000
0000
3001
0200
0000
0300
,
0000
0000
0020
0000
0000
2030
0000
0000
,
3002
0000
0203
0000
0300
0000
0001
1000
,
0100
0000
0020
0000
0130
1000
0000
0000
,
0001
0000
2000
0000
3010
0200
0000
0300
,
0000
0000
0001
1000
0001
0000
1000
0100
,
1000
0000
0001
0100
0001
0100
0001
1000
,
0100
0000
1000
0000
0002
0000
0003
0000
1000
0010
1000
0020
0000
0130
0001
0000
,
1000
0100
1000
0200
0000
0310
0001
0000
1000
0010
1000
0020
0000
0130
0001
0000
,
1000
0001
1000
0100
0000
0000
0000
0000
0010
0001
0010
0002
0000
1003
0010
0000
,
1000
0001
1000
0002
0000
0103
0010
0000
1000
0010
1000
0020
0000
0130
0001
0000
,
1000
0010
1000
0001
0000
0000
0000
0000
0020
0000
0031
1000
0010
0000
0000
0000
,
0000
0100
0000
0000
0000
0000
0002
0003
,
0000
1000
0000
0000
0000
0010
0010
0000
,
0000
0100
0000
0000
0000
0000
0002
0003
,
0000
0000
1000
0010
1000
0002
0000
1003
,
0100
0000
0010
0001
0010
0200
0000
1300
,
0001
0000
1000
0010
1000
0002
0000
1003
,
0100
0000
1000
0001
1000
0100
0000
0000
,
0000
0010
0001
0001
1000
0100
0010
0000
,
0000
0000
0100
0000
1000
0000
0001
0010
,
0000
0000
0002
0000
0000
1003
0100
0000
,
0000
0000
0000
1000
0010
1000
0002
0000
,
0003
0000
0010
0000
0001
1000
0010
0000
,
1000
0000
0001
0000
0010
0001
0010
0000
,
0001
0000
1000
0010
1000
0010
0100
0000
,
0001
0000
1000
0000
0001
0100
0001
0000
,
0001
1000
0001
0000
0001
0000
1000
0000
,
0010
0000
1000
0000
0001
0100
0001
0000
,
1000
0000
0100
0100
0010
0001
1000
0000
,
0001
0100
0010
0100
,
0000
0001
1000
1000
0001
0100
0010
0000
,
0100
0000
0001
0000
1000
0100
1000
0000
,
0001
0000
0010
0010
0001
1000
0100
0000
,
1000
0001
1000
0200
,
0300
0000
1000
0001
1000
0100
0010
0000
,
0100
0000
1000
0000
0001
0100
0001
0000
,
1000
0000
0010
0010
1000
0001
0010
0000
,
0001
1000
0010
0100
,
0000
0001
1000
1000
0100
0010
0001
0000
,
1000
0000
0010
0000
1000
0001
1000
0000
,
0100
0000
0010
0010
0001
1000
0010
0000
,
0100
0010
1000
0001
,
0000
0000
0020
0000
0031
2000
0000
3010
,
0100
0000
0010
1000
0001
0020
0000
0031
,
1000
0000
0001
0010
0100
2000
0000
3001
,
0100
0000
0001
0100
0010
1000
0000
0000
,
0000
0000
0001
0010
0100
2000
0000
3001
,
0010
0000
0001
1000
0001
0200
0000
0301
,
1000
0000
0010
1000
0001
0020
0000
0130
,
1000
0000
0001
0100
0010
1000
0000
0000
,
0000
0000
0001
0010
0100
1000
0000
0000
,
1001
0001
0101
0100
,
0110
0000
0010
0000
1010
0000
1000
0001
,
2002
0000
0000
0000
,
0000
0000
0000
0000
,
3003
0000
0000
0000
;

//---------------dance-single - Medium----------------
#NOTES:
     dance-single:
     Ace Of Hearts (2011):
     Medium:
     6:
     0.382,0.249,0.005,0.333,0.084: // measure 1
0000
0000
0000
0000
,  // measure 2
0001
0000
0002
0000
0000
0103
0000
0000
,  // measure 3
0010
0000
0020
0000
0000
1030
0000
0000
,  // measure 4
0001
0000
0002
0000
0000
0013
0000
0000
,  // measure 5
0100
0100
0000
0000
,  // measure 6
0010
0000
0020
0000
0000
0031
0000
0000
,  // measure 7
1000
0000
2000
0000
0000
3010
0000
0000
,  // measure 8
0100
0000
0200
0000
0000
0301
0000
0000
,  // measure 9
1000
1000
0000
0004
,  // measure 10
0000
0003
0000
0000
2000
0000
0000
0000
3001
0000
0010
0000
0000
0000
0000
0000
,  // measure 11
0001
0000
2000
0000
3001
0100
0000
0000
,  // measure 12
0000
0000
0002
0000
0000
1003
0000
0000
,  // measure 13
0010
0200
0000
0000
,  // measure 14
0300
0000
0002
0000
1003
0100
0000
0000
,  // measure 15
1000
0000
0002
0000
1003
0010
0000
0000
,  // measure 16
0000
0000
1000
0001
1000
0000
0010
1000
,  // measure 17
0010
1000
1000
0040
,  // measure 18
0000
0000
0000
0000
0030
0000
0000
0000
1000
0000
0000
1000
0000
0000
1000
0000
,  // measure 19
0001
0000
0000
0001
0000
0000
0001
0000
0100
0000
0000
0100
0000
0000
0100
0000
,  // measure 20
0010
0000
0000
0010
0000
0000
0010
0000
1000
0000
0000
1000
0000
0000
1000
0000
,  // measure 21
0001
0000
0000
0001
0000
0000
0001
0000
0010
0000
0000
0010
0000
0000
0010
0000
,  // measure 22
0002
0000
0000
1000
0000
0000
1003
0000
0020
0000
0000
1000
0000
0000
1030
0000
,  // measure 23
0002
0000
0000
0100
0000
0000
0103
0000
0010
0000
0000
0010
0000
0000
0000
0000
,  // measure 24
2000
0000
0000
0100
0000
0000
3100
0000
0020
0000
0000
0001
0000
0000
0031
0000
,  // measure 25
2000
0000
0000
0010
0000
0000
3010
0000
0100
0000
0000
0100
0000
0000
0000
0000
,  // measure 26
0001
0000
0000
0002
0000
0000
0000
0000
0103
0000
0000
0000
0010
0000
0000
0000
,  // measure 27
1000
0002
0000
1003
0010
0000
1000
0000
,  // measure 28
0001
0020
0000
0031
1000
0000
0010
0000
,  // measure 29
0000
0010
0000
0000
0000
0000
1000
0000
,  // measure 30
0001
0020
0000
0031
1000
0000
0010
0000
,  // measure 31
1000
0002
0000
1003
0100
0000
0010
0000
,  // measure 32
0001
2000
0000
3010
1000
0000
0001
0000
,  // measure 33
0000
0004
0000
0000
0000
0000
0000
0000
,  // measure 34
0003
1000
0001
1000
,  // measure 35
0010
1000
0010
0000
1000
0000
0001
0000
,  // measure 36
0010
0001
1000
0010
,  // measure 37
1000
1000
0000
0001
,  // measure 38
1000
0100
1000
0001
,  // measure 39
1000
0010
1000
0000
0001
0000
0010
0000
,  // measure 40
0100
1000
0001
1000
,  // measure 41
0100
0000
0100
0000
0000
0000
1000
0001
,  // measure 42
1000
0100
1000
0001
,  // measure 43
0100
0001
0100
0000
0001
0000
1000
0000
,  // measure 44
0100
1000
0001
0100
,  // measure 45
0010
0010
0000
1000
,  // measure 46
0001
0100
0001
1000
,  // measure 47
0100
0010
0100
0000
1000
0000
0001
0000
,  // measure 48
0100
0001
1000
0001
,  // measure 49
0010
0010
0000
0001
,  // measure 50
1000
0000
0010
0000
0000
0000
0000
1000
0000
0000
0000
0000
0001
0000
0000
0001
,  // measure 51
0000
0000
0000
0000
0010
0000
0000
0010
0000
0000
0000
0000
0100
0000
0000
0100
,  // measure 52
0000
0000
0000
0000
1000
0000
0000
1000
0000
0000
0000
0000
0001
0000
0000
0001
,  // measure 53
0000
0000
0000
0000
1000
0000
0000
1000
0000
0000
0000
0000
0400
0000
0000
0000
,  // measure 54
0300
0000
2000
0000
0000
3001
0000
0000
,  // measure 55
0010
0000
0002
0000
0000
1003
0000
0000
,  // measure 56
0010
0000
2000
0000
0000
3001
0000
0000
,  // measure 57
1000
0200
0300
0000
,  // measure 58
1000
0000
0002
0000
0000
0103
0000
0000
,  // measure 59
0001
0000
2000
0000
0000
3100
0000
0000
,  // measure 60
0010
0000
0002
0000
0000
1003
0000
0000
,  // measure 61
0100
0020
0000
0030
,  // measure 62
0000
0000
0002
0000
1003
0010
0000
0000
,  // measure 63
1000
0000
0002
0000
1003
0100
0000
0000
,  // measure 64
0000
0000
0020
0000
0000
0032
0000
0000
,  // measure 65
1003
0020
0030
4000
,  // measure 66
3000
0000
0002
0000
1003
0020
0000
0000
,  // measure 67
1030
0000
0002
0000
1003
0200
0000
0000
,  // measure 68
0300
0000
0010
0001
0010
0000
0001
1000
,  // measure 69
0001
1000
0001
0040
,  // measure 70
0000
0000
0000
0000
0030
0000
0000
0000
0001
0000
0000
2000
0000
0000
3001
0000
,  // measure 71
0010
0000
0000
0002
0000
0000
1003
0000
0010
0000
0000
0200
0000
0000
0301
0000
,  // measure 72
1000
0000
0000
1000
0000
0000
0000
0000
0001
0000
0000
0020
0000
0000
0130
0000
,  // measure 73
1000
0000
0000
0002
0000
0000
0103
0000
0010
0000
0000
0200
0000
0000
0301
0000
,  // measure 74
1000
0000
0000
1000
0000
0000
0000
0000
0020
0000
0000
1030
0000
0000
0000
0000
,  // measure 75
0000
1000
0000
0000
0000
0000
0010
0000
,  // measure 76
0000
0010
0000
0000
0000
0000
0100
0000
,  // measure 77
0000
0100
0000
0000
0000
0000
0001
0000
,  // measure 78
0000
0001
0000
0000
0000
2000
0000
3001
,  // measure 79
0010
0000
0001
0000
0000
2000
0000
3001
,  // measure 80
0100
0000
0010
0000
0000
2000
0000
3001
,  // measure 81
0010
0000
0100
0000
0000
0100
0000
0000
,  // measure 82
0000
0000
1000
0001
1000
0000
0010
0000
,  // measure 83
0000
0000
1000
0000
0001
0000
1000
0010
,  // measure 84
0000
0000
1000
0000
0000
0001
0100
0000
,  // measure 85
0000
0000
0000
0001
1000
0000
0020
0000
,  // measure 86
0030
1000
0001
0010
,  // measure 87
0100
0000
1000
0000
0001
1000
0001
0000
,  // measure 88
1000
0000
0010
0000
1000
0001
1000
0000
,  // measure 89
0010
0000
0100
0000
0001
0000
1000
0001
,  // measure 90
1000
0000
0001
0010
0001
0000
1000
0000
,  // measure 91
0010
0000
1000
0000
0001
0100
0001
0000
,  // measure 92
1000
0001
0010
0001
,  // measure 93
1000
0010
0100
0100
,  // measure 94
0000
0001
0100
0010
,  // measure 95
0100
0000
0001
0000
1000
0010
1000
0000
,  // measure 96
0001
0010
0001
1000
,  // measure 97
0001
1000
0010
0200
,  // measure 98
0300
0001
0100
0001
,  // measure 99
1000
0000
0010
0000
0100
0010
0100
0000
,  // measure 100
0001
1000
0001
0010
,  // measure 101
0100
1000
0001
0001
,  // measure 102
0000
1000
0010
1000
,  // measure 103
0001
0000
1000
0000
0010
1000
0010
0000
,  // measure 104
0100
0001
1000
0001
,  // measure 105
0010
0001
1000
1000
,  // measure 106
0000
0000
0020
0000
0000
2030
0000
3001
,  // measure 107
0100
0000
0001
0000
1000
0020
0000
1030
,  // measure 108
0001
0000
0010
0000
0001
2000
0000
3001
,  // measure 109
0100
0000
0010
0000
0000
0010
0000
0000
,  // measure 110
0000
0000
0100
0000
0001
2000
0000
3001
,  // measure 111
0010
0000
0001
0000
1000
0020
0000
1030
,  // measure 112
0001
0000
0010
0000
0100
2000
0000
3001
,  // measure 113
0100
0000
0010
0000
0000
0010
0000
0000
,  // measure 114
0000
0000
1000
0000
0001
0020
0000
0000
,  // measure 115
0031
0001
1000
1000
,  // measure 116
0010
0000
0010
0000
0100
0000
0001
1000
,  // measure 117
2002
0000
0000
0000
,  // measure 118
0000
0000
0000
0000
,  // measure 119
3003
0000
0000
0000
;

//---------------dance-single - Easy----------------
#NOTES:
     dance-single:
     Ace Of Hearts (2011):
     Easy:
     4:
     0.236,0.125,0.005,0.106,0.000: // measure 1
0000
0000
0000
0000
,  // measure 2
0000
0000
0001
0000
0000
0001
0000
0000
,  // measure 3
0000
0000
1000
0000
0000
1000
0000
0000
,  // measure 4
0000
0020
0000
0000
,  // measure 5
0000
0030
0000
0000
,  // measure 6
0000
0000
1000
0000
0000
1000
0000
0000
,  // measure 7
0000
0000
0010
0000
0000
0010
0000
0000
,  // measure 8
0000
0000
0100
0000
0000
0100
0000
0000
,  // measure 9
0000
0002
0000
0003
,  // measure 10
0000
0000
1000
0000
0000
1000
0000
0000
,  // measure 11
0000
0000
0010
0000
0000
0010
0000
0000
,  // measure 12
0000
0000
1000
0000
0000
1000
0000
0000
,  // measure 13
0000
0002
0000
0003
,  // measure 14
0000
0000
0010
0000
0000
0010
0000
0000
,  // measure 15
0000
0000
0001
0000
0000
0001
0000
0000
,  // measure 16
0000
1000
1000
0010
,  // measure 17
0010
1000
1000
0004
,  // measure 18
0000
0003
1000
1000
,  // measure 19
0010
0010
0100
0100
,  // measure 20
0001
0001
1000
1000
,  // measure 21
0100
0100
0010
0010
,  // measure 22
0001
0001
1000
1000
,  // measure 23
0010
0010
0200
0300
,  // measure 24
0001
0001
1000
1000
,  // measure 25
0010
0010
2000
3000
,  // measure 26
0001
0001
0000
1000
,  // measure 27
1000
1000
0000
0001
,  // measure 28
0001
0001
0000
0100
,  // measure 29
0000
0100
0000
0000
0000
0000
0001
0000
,  // measure 30
0001
0001
0000
1000
,  // measure 31
1000
1000
0000
0010
,  // measure 32
0010
0010
0000
0100
,  // measure 33
0000
0400
0000
0300
,  // measure 34
0000
0001
0001
0001
,  // measure 35
0000
1000
1000
1000
,  // measure 36
0000
0100
0100
0100
,  // measure 37
0000
0100
0000
0010
,  // measure 38
0000
0001
0001
0001
,  // measure 39
0000
1000
1000
1000
,  // measure 40
0000
0010
0010
0010
,  // measure 41
0000
0010
0000
1000
,  // measure 42
0000
1000
1000
1000
,  // measure 43
0000
0001
0001
0001
,  // measure 44
0000
0010
0010
0010
,  // measure 45
0000
0010
0000
0100
,  // measure 46
0000
1000
1000
1000
,  // measure 47
0000
0001
0001
0001
,  // measure 48
0000
0100
0100
0100
,  // measure 49
0000
0100
0000
0001
,  // measure 50
0000
0000
0000
0000
0002
0000
0000
0003
0000
0000
0000
0000
2000
0000
0000
3000
,  // measure 51
0000
0000
0000
0000
0020
0000
0000
0030
0000
0000
0000
0000
0200
0000
0000
0300
,  // measure 52
0000
0000
0000
0000
0002
0000
0000
0003
0000
0000
0000
0000
2000
0000
0000
3000
,  // measure 53
0000
0000
0000
0000
0200
0000
0000
0300
0000
0000
0000
0000
0040
0000
0000
0000
,  // measure 54
0030
0000
0001
0000
0000
0001
0000
0000
,  // measure 55
0000
0000
1000
0000
0000
1000
0000
0000
,  // measure 56
0000
0200
0000
0000
,  // measure 57
0000
0300
0000
0000
,  // measure 58
0000
0000
0010
0000
0000
0010
0000
0000
,  // measure 59
0000
0000
0100
0000
0000
0100
0000
0000
,  // measure 60
0000
2000
0000
0000
,  // measure 61
0000
3000
0000
0000
,  // measure 62
0000
0000
0001
0000
0000
0001
0000
0000
,  // measure 63
0000
0000
0010
0000
0000
0010
0000
0000
,  // measure 64
0000
0000
0001
0000
0000
0001
0000
0000
,  // measure 65
0000
0000
2000
0000
0000
3000
0000
0000
,  // measure 66
0000
0000
0010
0000
0000
0010
0000
0000
,  // measure 67
0000
0000
1000
0000
0000
1000
0000
0000
,  // measure 68
0000
0001
0001
0010
,  // measure 69
0010
0001
0001
4000
,  // measure 70
0000
3000
0010
0010
,  // measure 71
0100
0100
0001
0001
,  // measure 72
2000
3000
0001
0001
,  // measure 73
0010
0010
0100
0100
,  // measure 74
0020
0030
0001
0001
,  // measure 75
0000
1000
1000
1000
,  // measure 76
0000
0010
0010
0010
,  // measure 77
0000
0000
0100
0000
0000
0100
0000
0000
,  // measure 78
0000
0001
0001
0001
,  // measure 79
0000
1000
1000
1000
,  // measure 80
0000
0010
0010
0010
,  // measure 81
0000
0000
1000
0000
0000
1000
0000
0000
,  // measure 82
0000
0001
0001
0001
,  // measure 83
0000
0010
0000
0001
,  // measure 84
0000
1000
0000
0100
,  // measure 85
0000
0000
1000
1000
,  // measure 86
0000
0001
0000
1000
,  // measure 87
1000
1000
0000
0010
,  // measure 88
0010
0010
0000
0100
,  // measure 89
0100
0100
0000
0001
,  // measure 90
0001
0001
0001
1000
,  // measure 91
1000
1000
0000
0100
,  // measure 92
0100
0100
0000
0010
,  // measure 93
0010
0010
0000
0010
,  // measure 94
0000
0001
0000
1000
,  // measure 95
1000
1000
0000
0010
,  // measure 96
0010
0010
0000
0100
,  // measure 97
0100
0100
0000
0002
,  // measure 98
0000
1003
0000
0010
,  // measure 99
0010
0010
0000
0100
,  // measure 100
0100
0100
0000
0001
,  // measure 101
0001
0001
0000
0001
,  // measure 102
0000
0100
0000
0010
,  // measure 103
0010
0010
0000
1000
,  // measure 104
1000
1000
0000
0001
,  // measure 105
0001
0001
0000
0001
,  // measure 106
0000
1000
0000
1000
,  // measure 107
0000
0100
0100
0100
,  // measure 108
0000
0010
0010
0010
,  // measure 109
0000
0000
0001
0000
0000
0001
0000
0000
,  // measure 110
0000
1000
1000
1000
,  // measure 111
0000
0001
0001
0001
,  // measure 112
0000
1000
1000
1000
,  // measure 113
0000
0000
0010
0000
0000
0010
0000
0000
,  // measure 114
0000
0000
1000
0000
0000
1000
0000
0000
,  // measure 115
1000
1000
0001
0001
,  // measure 116
0100
0100
0001
1000
,  // measure 117
2002
0000
0000
0000
,  // measure 118
0000
0000
0000
0000
,  // measure 119
3003
0000
0000
0000
;

//---------------dance-single - Novice----------------
#NOTES:
     dance-single:
     Ace Of Hearts (2011):
     Beginner:
     2:
     0.143,0.093,0.005,0.063,0.000: // measure 1
0000
0000
0000
0000
,  // measure 2
0000
0001
0000
0001
,  // measure 3
0000
0001
0000
0000
,  // measure 4
0000
1000
0000
1000
,  // measure 5
0000
1000
0000
0000
,  // measure 6
0000
0100
0000
0100
,  // measure 7
0000
0100
0000
0000
,  // measure 8
0000
0010
0000
0010
,  // measure 9
0000
0010
0000
0000
,  // measure 10
0000
0001
0000
0001
,  // measure 11
0000
0001
0000
0000
,  // measure 12
0000
1000
0000
1000
,  // measure 13
0000
1000
0000
0000
,  // measure 14
0000
0010
0000
0010
,  // measure 15
0000
0010
0000
0000
,  // measure 16
0000
0100
0000
0100
,  // measure 17
0000
0200
0000
0300
,  // measure 18
0000
0002
0000
0000
,  // measure 19
0000
0000
0000
0003
,  // measure 20
0000
1000
0000
1000
,  // measure 21
0000
0010
0000
0010
,  // measure 22
0000
0100
0000
0100
,  // measure 23
0000
0002
0000
0003
,  // measure 24
0000
1000
0000
1000
,  // measure 25
0000
0200
0000
0300
,  // measure 26
0000
0010
0000
0010
,  // measure 27
0000
0010
0000
0000
,  // measure 28
0000
0001
0000
0001
,  // measure 29
0000
0001
0000
0000
,  // measure 30
0000
1000
0000
1000
,  // measure 31
0000
1000
0000
0000
,  // measure 32
0000
0010
0000
0010
,  // measure 33
0000
0010
0000
0000
,  // measure 34
0000
1000
0000
1000
,  // measure 35
0000
1000
0000
0000
,  // measure 36
0000
0001
0000
0001
,  // measure 37
0000
0001
0000
0000
,  // measure 38
0000
0010
0000
0010
,  // measure 39
0000
0010
0000
0000
,  // measure 40
0000
0001
0000
0001
,  // measure 41
0000
0001
0000
0000
,  // measure 42
0000
1000
0000
1000
,  // measure 43
0000
1000
0000
0000
,  // measure 44
0000
0010
0000
0010
,  // measure 45
0000
0010
0000
0000
,  // measure 46
0000
0100
0000
0100
,  // measure 47
0000
0100
0000
0000
,  // measure 48
0000
0001
0000
0001
,  // measure 49
0000
0001
0000
0000
,  // measure 50
0000
1000
0000
1000
,  // measure 51
0000
1000
0000
0001
,  // measure 52
0000
0001
0000
0100
,  // measure 53
0000
0100
0000
0020
,  // measure 54
0030
1000
0000
1000
,  // measure 55
0000
1000
0000
0000
,  // measure 56
0000
0010
0000
0010
,  // measure 57
0000
0010
0000
0000
,  // measure 58
0000
0100
0000
0100
,  // measure 59
0000
0100
0000
0000
,  // measure 60
0000
0001
0000
0001
,  // measure 61
0000
0001
0000
0000
,  // measure 62
0000
1000
0000
1000
,  // measure 63
0000
1000
0000
0000
,  // measure 64
0000
0100
0000
0100
,  // measure 65
0000
0200
0000
0300
,  // measure 66
0000
0010
0000
0010
,  // measure 67
0000
0010
0000
0000
,  // measure 68
0000
0001
0000
0001
,  // measure 69
0000
0002
0000
0000
,  // measure 70
0000
0003
0000
1000
,  // measure 71
0000
1000
0000
0020
,  // measure 72
0000
0030
0000
0100
,  // measure 73
0000
0100
0000
0002
,  // measure 74
0000
0003
0000
1000
,  // measure 75
0000
1000
0000
1000
,  // measure 76
0000
0000
0000
0010
,  // measure 77
0000
0010
0000
0010
,  // measure 78
0000
0000
0000
0100
,  // measure 79
0000
0100
0000
0100
,  // measure 80
0000
0000
0000
0001
,  // measure 81
0000
0001
0000
0001
,  // measure 82
0000
0000
0000
1000
,  // measure 83
0000
1000
0000
1000
,  // measure 84
0000
0000
0000
0100
,  // measure 85
0000
0000
0000
0020
,  // measure 86
0000
0030
0000
0001
,  // measure 87
0000
0001
0000
0001
,  // measure 88
0000
0000
0000
1000
,  // measure 89
0000
1000
0000
1000
,  // measure 90
0000
0000
0000
0010
,  // measure 91
0000
0010
0000
0010
,  // measure 92
0000
0000
0000
0100
,  // measure 93
0000
0100
0000
0100
,  // measure 94
0000
0000
0000
0001
,  // measure 95
0000
0001
0000
0001
,  // measure 96
0000
0000
0000
1000
,  // measure 97
0000
1000
0000
1000
,  // measure 98
0000
0000
0000
0100
,  // measure 99
0000
0100
0000
0100
,  // measure 100
0000
0000
0000
0010
,  // measure 101
0000
0010
0000
0010
,  // measure 102
0000
0000
0000
0001
,  // measure 103
0000
0001
0000
0001
,  // measure 104
0000
0000
0000
1000
,  // measure 105
0000
1000
0000
1000
,  // measure 106
0000
0000
0000
0010
,  // measure 107
0000
0010
0000
0010
,  // measure 108
0000
0000
0000
1000
,  // measure 109
0000
1000
0000
1000
,  // measure 110
0000
0000
0000
0001
,  // measure 111
0000
0001
0000
0001
,  // measure 112
0000
0000
0000
0100
,  // measure 113
0000
0100
0000
0100
,  // measure 114
0000
0000
0000
0000
,  // measure 115
0010
1000
1000
0001
,  // measure 116
0001
1000
1000
0000
,  // measure 117
2002
0000
0000
0000
,  // measure 118
0000
0000
0000
0000
,  // measure 119
3003
0000
0000
0000
;
