#TITLE:Midnight Lightning Bolt;
#SUBTITLE:;
#ARTIST:Iosys;
#TITLETRANSLIT:;
#SUBTITLETRANSLIT:;
#ARTISTTRANSLIT:;
#GENRE:J-Rock;
#CREDIT:Ace Of Hearts;
#BANNER:Midnight Lightning Bolt - bn.png;
#BACKGROUND:Midnight Lightning Bolt - bg.png;
#LYRICSPATH:;
#CDTITLE:Ace Of Hearts.png;
#MUSIC:Midnight Lightning Bolt.ogg;
#OFFSET:1.560;
#SAMPLESTART:42.340;
#SAMPLELENGTH:26.000;
#SELECTABLE:YES;
#BPMS:0.000=155.000,30.000=310.000,31.000=155.000,42.000=310.000,43.500=155.000,45.000=310.000,47.000=155.000,62.000=310.000,64.000=155.000,76.500=310.000,79.250=155.000,104.000=310.000,116.000=155.000,164.000=310.000,166.500=155.000,168.000=310.000,170.500=155.000,194.000=310.000,195.000=155.000,206.000=310.000,207.500=155.000,209.000=310.000,211.000=155.000,212.000=77.500,219.000=155.000,220.000=77.500,226.000=155.000,226.500=310.000,229.250=155.000,252.000=310.000,264.000=155.000,312.000=310.000,314.500=155.000,316.000=310.000,318.500=155.000,328.000=77.500,341.750=155.000,342.500=310.000,345.000=155.000,393.000=310.000,395.500=155.000,397.000=310.000,399.500=155.000,401.000=77.500,405.000=155.000,419.000=310.000,420.000=155.000,431.000=310.000,432.500=155.000,434.000=310.000,436.000=155.000;
#DISPLAYBPM:77.500:155.000;
#STOPS:30.000=0.193
,42.000=0.145
,42.750=0.145
,45.000=0.097
,45.500=0.097
,46.000=0.097
,46.500=0.097
,62.000=0.048
,62.250=0.048
,62.500=0.048
,62.750=0.048
,63.000=0.048
,63.250=0.097
,63.750=0.048
,76.500=0.097
,77.000=0.097
,77.500=0.097
,78.000=0.145
,78.750=0.097
,104.000=0.097
,104.500=0.097
,105.000=0.097
,105.500=0.097
,106.000=0.097
,106.500=0.097
,107.000=0.097
,107.500=0.097
,108.000=0.097
,108.500=0.097
,109.000=0.097
,109.500=0.097
,110.000=0.048
,110.250=0.048
,110.500=0.048
,110.750=0.048
,111.000=0.097
,111.500=0.097
,112.000=0.193
,113.000=0.097
,113.500=0.193
,114.500=0.097
,115.000=0.097
,115.500=0.097
,164.000=0.145
,164.750=0.145
,165.500=0.193
,168.000=0.145
,168.750=0.145
,169.500=0.193
,194.000=0.193
,206.000=0.145
,206.750=0.145
,209.000=0.097
,209.500=0.097
,210.000=0.097
,210.500=0.097
,219.000=0.048
,219.125=0.048
,219.250=0.048
,219.375=0.048
,219.500=0.048
,219.625=0.097
,219.875=0.048
,226.500=0.097
,227.000=0.097
,227.500=0.097
,228.000=0.145
,228.750=0.097
,242.000=0.048
,242.125=0.048
,242.250=0.048
,242.375=0.048
,242.500=0.048
,242.625=0.048
,242.750=0.048
,242.875=0.048
,243.000=0.048
,243.125=0.048
,243.250=0.048
,243.375=0.048
,243.500=0.048
,243.625=0.048
,243.750=0.048
,243.875=0.048
,252.000=0.097
,252.500=0.097
,253.000=0.097
,253.500=0.097
,254.000=0.097
,254.500=0.097
,255.000=0.097
,255.500=0.097
,256.000=0.048
,256.250=0.048
,256.500=0.048
,256.750=0.048
,257.000=0.048
,257.250=0.048
,257.500=0.048
,257.750=0.048
,258.000=0.048
,258.250=0.048
,258.500=0.048
,258.750=0.048
,259.000=0.048
,259.250=0.048
,259.500=0.048
,259.750=0.048
,260.000=0.193
,261.000=0.097
,261.500=0.193
,262.500=0.097
,263.000=0.097
,263.500=0.097
,312.000=0.145
,312.750=0.145
,313.500=0.193
,316.000=0.145
,316.750=0.145
,317.500=0.193
,341.750=0.484
,342.500=0.193
,343.500=0.097
,344.000=0.097
,344.500=0.097
,393.000=0.145
,393.750=0.145
,394.500=0.193
,397.000=0.145
,397.750=0.145
,398.500=0.193
,419.000=0.193
,431.000=0.145
,431.750=0.145
,434.000=0.097
,434.500=0.097
,435.000=0.097
,435.500=0.097
;
#BGCHANGES:;
#KEYSOUNDS:;

//---------------dance-single - Expert----------------
#NOTES:
     dance-single:
     Ace Of Hearts (2011):
     Challenge:
     11:
     0.980,0.369,0.568,0.839,1.000: // measure 1
0000
0000
0000
0000
,  // measure 2
2000
0000
3010
0000
0000
0000
0100
0001
,  // measure 3
2000
0000
3100
0000
0020
0031
0000
0200
,  // measure 4
0004
0000
0000
0000
0000
0303
2002
3003
,  // measure 5
1000
0000
0010
1000
0010
1000
0001
0000
1000
0000
0000
1010
0000
0000
0120
0000
,  // measure 6
0000
0000
0000
0000
0000
0000
1030
0000
0000
0100
0000
0000
2000
0000
0000
0000
0000
0000
3001
0000
0100
0000
0001
0000
0200
0000
0000
0000
0000
0000
0000
0000
0000
0310
0000
0000
0000
0000
0000
0000
0000
0000
2000
0000
0000
0000
0000
0000
,  // measure 7
0000
0000
3001
0000
0021
0000
0000
0000
0130
0000
0000
1100
0000
0000
1000
0001
,  // measure 8
0100
0001
0100
0001
2000
0000
0000
0000
3010
0000
0000
0000
0400
0000
0000
0000
,  // measure 9
0302
0000
0013
0100
0010
0001
1000
0000
1020
0000
0000
0130
0000
0000
0102
0000
,  // measure 10
0000
0000
1003
0010
1000
0010
1000
0001
1001
0000
0000
1100
0000
0000
0220
0000
,  // measure 11
0330
0000
1001
0000
2002
0000
3003
0000
1010
0000
0000
0101
0000
0000
0220
0000
,  // measure 12
0330
0000
0000
0000
0101
0000
0101
0000
2010
0000
3001
0000
0201
0000
0000
0300
,  // measure 13
0120
0000
1030
0002
0000
0103
0010
1000
,  // measure 14
0004
0000
0000
0023
0000
0130
1000
0001
,  // measure 15
2000
0000
0000
3020
0000
0130
0001
1000
,  // measure 16
0100
0000
0000
0000
0000
0000
1000
0000
0000
0000
0000
0000
0002
0000
0000
0000
0000
0000
0103
0000
0010
0000
0100
0000
0010
0000
0000
1000
0000
0000
0001
0000
0000
1000
0000
0000
0001
0000
0000
0100
0000
0000
0000
0000
0000
0001
0000
0000
,  // measure 17
0200
0000
0000
0320
0000
1030
0001
0010
,  // measure 18
0200
0000
0000
0320
0000
0031
0100
0010
,  // measure 19
1000
0000
0001
0100
0010
1000
0010
0100
0001
1000
0000
0001
0010
0001
1000
0010
,  // measure 20
0100
0000
0101
0000
1001
0000
1100
0000
1001
0000
0000
0101
0000
0001
0100
0010
,  // measure 21
1000
0100
0010
0001
0010
0001
1000
0020
,  // measure 22
0000
0000
2030
0000
3001
0400
0000
0300
,  // measure 23
0001
1000
0100
0010
0100
1000
0001
0100
,  // measure 24
0020
0000
0000
2030
0002
0000
0010
3003
,  // measure 25
2000
3100
0010
0001
0200
0310
1000
0100
,  // measure 26
0020
0000
0230
0000
1300
0002
0000
0003
,  // measure 27
1000
0010
0100
0010
1000
0001
0010
0100
,  // measure 28
2000
0000
0000
0000
0000
0000
3001
0000
0100
0010
0100
0010
0100
0000
0001
0000
,  // measure 29
2000
0000
3002
0023
0000
0031
2000
3010
,  // measure 30
0210
0000
0301
1000
0010
1000
0001
0000
0021
0000
0000
0000
0130
0000
1000
0000
,  // measure 31
1020
0000
0130
0001
1000
0001
0010
0001
1000
0010
0100
0000
0020
0000
0130
0000
,  // measure 32
0001
0000
0000
1000
0000
0000
0100
0000
0000
0000
0000
0000
0010
0000
0000
0000
0000
0000
0100
0000
0000
1000
0000
0000
0001
0000
0000
0000
0000
0000
0010
0000
0000
0001
0000
0000
1000
0000
0000
0000
0000
0000
0010
0000
0100
0000
0010
0000
,  // measure 33
0200
0000
0301
0100
0001
0100
0001
0100
0010
1000
0000
0004
0000
0000
0000
0003
,  // measure 34
2001
0000
3010
0100
0001
1000
0100
0000
0120
0000
0000
0000
0031
0000
1000
0000
,  // measure 35
0010
0100
0001
0000
2001
0000
3100
0010
0001
1000
0001
0000
0201
0000
0310
0000
,  // measure 36
1000
0001
0010
0000
0100
0000
0010
0001
1000
0001
0010
0000
0001
0000
0100
0000
,  // measure 37
0010
0100
0010
0100
0001
1000
0001
1000
0100
0010
0100
0010
0001
1000
0001
1000
,  // measure 38
0010
0100
0001
0000
1000
0010
0100
0010
2000
0000
0000
0000
3001
0100
0010
0000
,  // measure 39
2010
0000
3001
0010
0001
1000
0010
0000
0100
0001
1000
0000
1020
0000
0130
0000
,  // measure 40
0001
0000
0000
1000
0000
0000
0001
0000
0000
0000
0000
0000
0100
0000
0000
0010
0000
0000
0100
0000
0000
0001
0000
0000
0000
0000
0000
1000
0000
0000
0010
0000
0000
0100
0000
0000
0001
0000
0000
0000
0000
0000
1000
0000
0100
0000
1000
0000
,  // measure 41
0200
0000
0310
0001
1000
0001
1000
0001
0100
0010
1000
0004
0000
0000
0000
0000
,  // measure 42
0023
0030
0000
0200
0300
0000
1001
0000
0000
0000
2000
0000
0000
0000
3010
0000
,  // measure 43
0100
0000
0000
0002
0003
0000
0110
0000
0000
0000
0000
0000
0002
0000
0000
0000
,  // measure 44
0013
0100
0010
0000
0002
0000
1003
0010
2000
0000
3001
0000
0000
0000
0210
0000
,  // measure 45
0301
0000
0000
1000
0000
0000
0001
0000
0000
1000
0000
0000
0010
0000
0000
0100
0000
0000
0001
0000
0100
0000
0001
0000
0100
0000
0000
0010
0000
0000
1000
0000
0000
0001
0000
0000
0020
0000
0000
0000
0000
0000
0000
0000
0000
0000
0000
0000
,  // measure 46
0230
0000
1300
0100
0010
0001
1000
0000
0010
0000
0000
0110
0000
0000
0102
0000
,  // measure 47
0000
0000
0000
0000
0000
0000
1003
0000
0000
0100
0000
0000
0010
0000
0000
0000
0000
0000
0100
0000
1000
0000
0100
0000
1000
0000
0000
0000
0000
0000
0000
0000
0000
0001
0000
0000
0000
0000
0000
0000
0000
0000
0021
0000
0000
0000
0000
0000
,  // measure 48
0000
0000
0130
1000
0002
0000
0000
0003
1001
0000
0000
1000
0000
0000
1020
0000
,  // measure 49
0000
0000
0000
0000
0000
0000
0130
0000
0000
0001
0000
0000
1000
0000
0000
0100
0000
0000
0010
0000
0100
0000
0010
0000
0100
0000
0000
0000
0000
0000
0000
0000
0000
0000
0000
0000
4000
0000
0000
0000
0000
0000
0000
0000
0000
0000
0000
0000
,  // measure 50
3001
0000
0100
0010
0100
0001
2000
0000
3010
0000
0000
0110
0000
0000
0020
0000
,  // measure 51
0000
0000
1030
0001
0010
0100
0010
0001
1000
0000
0000
0010
0000
0000
0220
0000
,  // measure 52
0330
0000
0001
0000
2002
0000
3003
0000
1010
0000
0000
0110
0000
0000
0202
0000
,  // measure 53
0000
0303
1001
1001
0021
0130
2100
0000
,  // measure 54
3002
0000
0000
2003
0000
3010
0100
0001
2000
0000
0000
3020
0000
0130
0001
1000
,  // measure 55
0200
0000
0000
0000
0000
0000
0000
0000
0000
0000
0000
0000
0000
0000
0000
0000
0000
0000
0000
0000
0000
0000
0000
0000
0000
0000
0000
0000
0000
0000
0000
0000
0000
0000
0000
0000
2300
0000
0000
0000
0000
0000
0000
0000
0000
0000
0000
0000
0000
0000
0000
0000
0000
0000
0000
0000
0000
0000
0000
0000
3001
0000
0000
0000
0000
0000
0000
0000
0000
0000
0000
0000
0100
0000
0000
0000
0000
0000
0000
0000
0000
0000
0000
0000
0010
0000
0000
0000
0000
0000
0000
0000
0000
0000
0000
0000
0100
0000
0000
0000
0000
0000
0000
0000
0000
0000
0000
0000
0001
0000
0000
0000
0000
0000
0000
0000
0000
0000
0000
0000
1000
0000
0000
0000
0000
0000
0000
0000
0000
0000
0000
0000
0001
0000
0000
0000
0010
0000
0000
0000
0001
0000
0000
0000
0010
0000
0000
0000
0000
0000
0100
0000
0000
0000
0000
0000
1000
0000
0000
0000
0000
0000
0100
0000
0000
0000
0000
0000
1000
0000
0000
0000
0000
0000
0001
0000
0000
0000
0000
0000
0000
0000
0000
0000
0000
0000
1000
0000
0000
0000
0000
0000
,  // measure 56
0002
0000
0103
0020
0000
0130
0001
1000
0200
0000
0000
0320
0000
0130
1000
0001
,  // measure 57
0100
0000
0001
1000
0000
0001
0010
0000
0010
0001
0000
1000
0100
1000
0100
1000
0000
0000
0000
0000
1001
0000
0000
0000
0101
0000
0000
0000
0110
0000
0000
0000
,  // measure 58
1001
0000
0000
1100
0000
0100
0010
0001
1000
0000
0010
0000
1000
0000
0100
0000
,  // measure 59
0010
0001
0000
2000
0000
0000
3020
0000
,  // measure 60
0130
0002
0000
0003
0100
0010
1000
0001
,  // measure 61
0010
0000
0000
0000
0001
0000
0000
0000
0100
0000
0000
0000
0010
0000
0000
0000
1000
0010
1000
0010
0100
0001
0100
0001
1000
0100
1000
0100
0010
0001
0010
0001
,  // measure 62
1000
0001
0010
0100
1000
0001
0000
0020
,  // measure 63
0000
0000
0032
0000
1003
0010
0000
0000
,  // measure 64
1000
0001
0100
0010
1000
0100
0010
0001
,  // measure 65
0100
0010
0100
0001
1000
0010
1000
0001
0010
0100
1000
0100
0010
0001
1000
0010
,  // measure 66
2000
0000
3200
0320
0000
0130
1000
0001
,  // measure 67
0201
0000
0310
1000
0001
0010
0001
0000
0201
0000
0310
1000
0001
1000
0100
0000
,  // measure 68
0120
0000
0031
1000
0010
1000
0001
1000
0010
0100
0001
0000
1000
0100
0010
0000
,  // measure 69
0001
0000
0000
0010
0000
0000
0100
0000
0000
0000
0000
0000
1000
0000
0000
0000
0000
0000
0001
0000
0000
0100
0000
0000
0010
0000
0000
0100
0000
0000
0001
0000
0000
0000
0000
0000
1000
0000
0000
0000
0000
0000
0100
0000
0010
0000
0100
0000
,  // measure 70
0020
0000
0031
1000
0010
1000
0001
0010
0100
1000
0000
0040
0000
0000
0000
0030
,  // measure 71
0210
0000
0301
1000
0100
1000
0001
0000
0201
0000
0310
1000
0001
0000
1000
0000
,  // measure 72
0100
0010
0001
1000
0010
0100
0010
1000
0001
0010
0100
0000
2100
0000
3002
0000
,  // measure 73
0103
0010
1000
0000
1200
0000
0310
0100
1000
0001
0100
0000
0120
0000
1030
0001
,  // measure 74
0010
0100
0010
0100
1000
0100
1000
0100
0010
0001
0010
0100
1000
0001
0100
0010
,  // measure 75
1000
0001
0100
0000
0120
0000
1030
0001
0010
0001
1000
0000
0010
0100
0001
0000
,  // measure 76
1000
0000
0010
0100
0001
0000
1000
0001
0010
0100
1000
0000
1002
0000
0103
0000
,  // measure 77
0010
0000
0000
1000
0000
0000
0001
0000
0000
0000
0000
0000
0010
0000
0000
0001
0000
0000
1000
0000
0000
0010
0000
0000
0000
0000
0000
0100
0000
0000
0010
0000
0000
1000
0000
0000
0001
0000
0000
0000
0000
0000
1000
0000
0010
0000
1000
0000
,  // measure 78
0020
0000
0130
0001
1000
0001
1000
0001
0010
0100
0010
0004
0000
0000
1003
0000
,  // measure 79
0020
0030
0000
2000
3000
0000
0110
0000
0000
0000
0002
0000
0000
0000
0003
0000
,  // measure 80
0101
0000
0000
0020
0030
0000
1001
0000
0000
0000
0000
0000
0002
0000
0000
0000
,  // measure 81
0103
0010
0100
0000
0001
1000
0100
0010
0100
1000
0001
0000
0100
0010
1000
0001
,  // measure 82
0010
0000
0000
0100
0000
0000
1000
0000
0000
0100
0000
0000
0010
0000
0000
0001
0000
0000
0010
0000
0100
0000
0010
0000
0100
0000
0000
1000
0000
0000
0001
0000
0000
0100
0000
0000
0020
0000
0000
0000
0000
0000
0030
0000
0000
0000
0000
0000
,  // measure 83
2010
0000
0000
3000
0210
0000
0000
0300
0102
0000
0000
0000
1003
0000
0100
0000
0120
0000
0000
0000
0032
0000
0000
0003
2001
0000
0000
0000
3020
0000
0000
0030
,  // measure 84
0210
0000
0000
0000
0000
0000
0000
0000
0000
0000
0000
0000
0000
0000
0000
0000
0000
0000
0000
0000
0000
0000
0000
0000
0301
0000
0000
0000
0000
0000
0000
0000
0000
0000
0000
0000
2001
0000
0000
0000
0000
0000
0000
0000
0000
0000
0000
0000
0000
0000
0000
0000
0000
0000
0000
0000
0000
0000
0000
0000
3010
0000
0000
0000
0000
0000
0000
0000
0000
0000
0000
0000
0100
0000
0000
0000
0000
0000
0000
0000
0000
0000
0000
0000
0001
0000
0000
0000
0100
0000
0000
0000
0001
0000
0000
0000
0100
0000
0000
0000
0000
0000
0010
0000
0000
0000
0000
0000
0100
0000
0000
0000
0000
0000
0010
0000
0000
0000
0000
0000
1000
0000
0000
0000
0000
0000
0010
0000
0000
0000
0000
0000
1000
0000
0000
0000
0000
0000
0010
0000
0000
0000
0000
0000
1000
0000
0000
0000
0000
0000
0001
0000
0000
0000
0000
0000
0000
0000
0000
0000
0000
0000
0400
0000
0000
0000
0000
0000
0000
0000
0000
0000
0000
0000
0000
0000
0000
0000
0000
0000
0000
0000
0000
0000
0000
0000
0300
0000
0000
0000
0000
0000
,  // measure 85
0102
0000
0000
0003
2001
0000
0000
3000
1200
0000
0000
0000
0310
0000
0001
0000
2001
0000
0000
3000
1020
0000
0000
0030
0210
0000
0000
0300
0102
0000
0000
0003
,  // measure 86
2001
0000
3100
0120
0000
0031
1000
1010
0000
0000
0120
0000
0000
0000
1030
0000
,  // measure 87
0002
0000
0013
0000
0210
0000
1300
0001
0100
0010
1000
0000
0001
0100
0010
0000
,  // measure 88
1000
0010
0100
0001
1000
0100
0010
0000
0100
1000
0001
0100
0010
0100
0001
1000
,  // measure 89
0100
1000
0001
0100
0010
0100
0001
1000
0100
0010
0100
1000
0001
0100
0010
1000
,  // measure 90
0001
0000
0000
0010
0000
0000
0100
0000
1000
0000
0100
0000
2000
0000
0000
0000
0000
0000
3001
0000
0000
0100
0000
0000
0001
0000
0000
0100
0000
0000
0001
0000
0000
0100
0000
0000
0010
0000
0000
1000
0000
0000
0000
0000
0000
0400
0000
0000
,  // measure 91
0000
0000
0300
0000
0010
0001
1000
0000
1020
0000
0130
0001
1000
0100
0010
0001
,  // measure 92
0010
0100
1000
0001
0100
0010
0100
0001
1000
0100
0010
0100
1000
0001
0100
0010
,  // measure 93
0100
0001
1000
0100
0010
0001
0010
0100
1000
0001
0100
0010
1000
0010
0100
0001
,  // measure 94
1000
0100
1000
0001
0010
0100
0010
0100
1000
0001
1000
0001
0010
0100
0010
0100
,  // measure 95
1000
0001
0100
0010
0100
0001
1000
0000
0100
0010
0001
0010
0100
1000
0001
0000
,  // measure 96
1000
0010
0100
0010
1000
0001
0010
0100
0010
0001
1000
0010
0100
0001
1000
0100
,  // measure 97
1000
0001
0100
0001
1000
0010
1000
0000
0001
0010
0100
1000
0000
0001
1000
0010
,  // measure 98
0100
0000
0000
0010
0000
0000
1000
0000
0001
0000
1000
0000
0002
0000
0000
0000
0000
0000
0103
0000
0000
0010
0000
0000
1000
0000
0000
0010
0000
0000
0100
0000
0000
0001
0000
0000
1000
0000
0000
0100
0000
0000
0010
0000
0000
0004
0000
0000
,  // measure 99
0000
0000
1003
0100
0010
0000
0000
0002
0003
0000
0110
0000
0000
0000
2000
0000
,  // measure 100
0000
0000
3001
0000
0100
0000
0000
0020
0030
0000
1001
0000
0000
0000
0000
0000
,  // measure 101
2000
0000
0000
3000
1200
0000
0310
0000
0001
1000
0000
1040
0000
0000
0000
0000
,  // measure 102
0000
0000
0000
0000
0130
0001
0100
0001
1000
0000
0010
0000
1000
0000
0001
0000
0100
0000
0010
0000
0100
0000
0000
0000
0001
0000
0000
0000
0000
0000
1001
0000
,  // measure 103
0000
0000
0000
0000
0000
0000
2000
0000
0000
0000
0000
0000
0000
0000
0000
0000
0000
0000
3010
0000
0000
0100
0000
0000
0001
0000
0000
0100
0000
0000
0010
0000
1000
0000
0010
0000
1000
0000
0000
0000
0000
0000
0000
0000
0000
0001
0000
0000
,  // measure 104
0000
0000
0021
0000
0000
0000
0130
1000
0001
1000
0010
1000
0001
0000
0000
0101
,  // measure 105
0000
0000
0000
0000
0000
0000
0100
0000
0000
0010
0000
0000
0100
0000
0000
0001
0000
0000
1000
0000
0000
0100
0000
0000
0010
0000
0000
0001
0000
0000
1000
0000
0010
0000
1000
0000
0010
0000
0000
0000
0000
0000
0000
0000
0000
0000
0000
0000
,  // measure 106
0400
0000
0000
0000
0302
0000
1003
0100
1000
0001
0100
0000
0110
0000
0000
0010
,  // measure 107
0000
0000
2010
0000
0000
0000
3001
0010
0100
1000
0100
0010
0001
0000
0000
0100
,  // measure 108
0000
0000
0220
0000
0330
0000
0101
0000
2002
0000
3003
0000
1100
0000
0000
1001
,  // measure 109
0000
0022
0000
0033
1001
1001
1010
0101
;

//---------------dance-single - Hard----------------
#NOTES:
     dance-single:
     Ace Of Hearts (2011):
     Hard:
     9:
     0.678,0.312,0.292,0.933,0.347:
0000
0000
0000
0000
,
0002
0000
0013
0000
0000
0000
0100
1000
,
0002
0000
0103
0000
0010
1000
0000
0001
,
0040
0000
0000
0000
0000
0030
2002
3003
,
0001
0000
0010
0000
0001
1000
0001
0000
0010
0000
0000
0100
0000
0000
2000
0000
,
0000
0000
3001
0000
0100
0000
0001
1000
0001
0000
0000
0100
0000
0000
0020
0000
,
0000
0000
1030
0000
0001
0000
0010
0001
0010
0000
0000
0100
0000
0000
0020
0000
,
0000
0031
1000
0200
0310
0000
0400
0000
,
1300
0000
0001
0010
0001
0000
1000
0000
0010
0000
0000
0100
0000
0000
0002
0000
,
0000
0000
1003
0000
0010
0000
1000
0001
1000
0000
0000
0100
0000
0000
0020
0000
,
0000
0000
0130
0000
0200
0000
0000
0000
1300
0000
0000
0001
0000
0000
0020
0000
,
0000
0030
0001
0001
1001
1000
0000
0000
,
0020
0000
0130
0002
0000
1003
0100
0010
,
0004
0000
0000
2003
0000
3010
0100
0001
,
2000
0000
0000
3020
0000
0130
0001
1000
,
0100
0000
0010
0000
0100
0000
1000
0000
0001
0010
0000
0001
1000
0001
0000
1000
,
0002
0000
0000
0203
0000
0301
1000
0100
,
0020
0000
0000
0032
0000
1003
0010
0100
,
0002
0000
0000
2003
0000
3100
0010
0100
,
1000
0000
0001
0000
0100
0000
0010
0000
0100
0000
0000
0101
0000
0000
0001
0000
,
1000
0100
0010
0100
1000
0001
0100
0020
,
0000
0000
2030
0000
3001
0200
0000
0300
,
0001
1000
0100
1000
0001
0100
0010
1000
,
0002
0000
0000
1003
0020
0030
2002
3003
,
1000
0100
1000
0001
0100
0010
0100
0001
,
2000
0000
3200
0000
0310
0002
0000
0000
,
1003
0010
0100
0010
1000
0001
0010
0100
,
2000
0000
0000
3001
0020
0000
0030
0000
,
0002
0000
2003
3020
0000
1030
0002
0013
,
0210
0000
1300
0000
2002
3003
0001
0100
,
0120
0000
1030
0000
1002
0000
0023
0030
,
0210
0000
1300
0001
0000
1000
0010
2000
,
0000
0000
3001
0100
0001
0100
0001
0100
0001
0100
0000
0020
0000
0000
0030
0000
,
2000
0000
3001
0000
0200
0000
0310
1000
,
1002
0000
0023
0030
0210
0000
2300
3000
,
1002
0000
0103
0020
0000
1030
0001
0200
,
0310
1000
0000
0001
0010
0001
0000
1000
0010
1000
0000
0000
0001
0000
0010
0000
,
0210
0000
1300
0000
1002
0000
0103
0010
,
2010
3100
0120
0031
,
2001
0000
3010
0100
0000
0001
1000
0200
,
0000
0000
1300
0001
1000
0001
1000
0001
1000
0001
0000
0200
0000
0000
0310
0000
,
1000
0000
0000
0001
0000
0000
1001
0000
0000
0000
2000
0000
0000
0000
3010
0000
,
0100
0000
0000
0001
0000
0000
1001
0000
0000
0000
0000
0000
2000
0000
0000
0000
,
3020
0000
0130
0000
0002
0013
0000
0200
,
4300
0004
0000
0000
0000
0000
0000
0000
0000
0000
0000
0000
3003
0000
0000
0000
,
0002
0000
1003
0010
1000
0000
0001
0000
0010
0000
0000
0100
0000
0000
2000
0000
,
0000
0000
3001
0000
1000
0000
0010
0100
0010
0000
0000
1000
0000
0000
0200
0000
,
0000
0000
1300
0000
0001
0000
0100
0001
0100
0000
0000
0010
0000
0000
2000
0000
,
0000
3001
0010
0200
1300
0000
0004
0000
,
2003
0000
3010
0100
0010
0000
1000
0000
0001
0000
0000
0100
0000
0000
0020
0000
,
0000
0000
0130
0000
0001
0000
1000
0010
1000
0000
0000
0001
0000
0000
0020
0000
,
0000
0000
0031
0000
0002
0000
0000
0000
1003
0000
0000
0100
0000
0000
0120
0000
,
0000
0030
0001
0001
1001
1000
0000
0000
,
0200
0000
0000
0320
0000
0031
1000
0100
2000
0000
0000
3002
0000
0013
0100
1000
,
0200
0000
0000
0000
0000
0000
0320
0000
0000
0000
0130
0000
1000
0000
0001
0000
0100
0000
0010
0000
0100
0000
0001
0000
1000
0100
0000
0010
0001
0010
0000
0100
,
2000
0000
3001
0200
0000
0301
1000
0100
0020
0000
0000
0032
0000
0013
0100
1000
,
0002
0000
0000
0103
0000
0010
0100
0001
1000
0000
0100
0000
1000
0000
0001
0000
,
0100
0000
0000
0110
0000
0000
0010
0000
1000
0000
0001
0000
0010
0000
0100
0000
,
1000
0100
0000
0020
0000
0030
0100
0000
,
1000
0001
0000
0000
1000
0010
0100
0010
,
1000
0000
0000
0000
0001
0000
0000
0000
0010
0000
0000
0000
0100
0000
0000
0000
4000
0400
0000
0000
0000
0000
0000
0000
0000
0000
0000
0000
3300
0000
0000
0000
,
0100
0010
0001
1000
0010
0100
0000
0002
,
0000
1003
0020
0000
0130
0001
0000
0000
,
1000
0100
0010
0001
1000
0100
0010
0100
,
2000
0000
0000
3010
0200
0000
0000
0000
,
0302
0000
2003
3200
0000
0310
0100
1000
,
1002
0000
0103
0000
0120
0000
1030
0001
,
0021
0130
2100
3001
,
0201
0000
0310
2000
0000
3001
0010
0200
,
0000
0000
0310
0001
0010
0001
0010
0001
0010
0001
0000
2000
0000
0000
3000
0000
,
1200
0000
0310
0001
2001
0000
3010
0100
,
0102
0000
1003
0010
0120
0000
1030
0000
,
1002
0000
0000
0000
0013
0000
0200
0000
0000
0000
1300
0000
0001
0000
0100
0010
,
0100
0010
0000
1000
0010
1000
0020
0000
0000
0000
1030
0000
0001
0000
1000
0000
,
1020
0000
0130
0000
0102
0000
1003
0100
,
0120
0031
2001
3010
,
0210
0000
0301
1000
0000
0100
0010
0200
,
0000
0000
1300
0001
1000
0001
1000
0001
1000
0001
0000
0200
0000
0000
0310
0000
,
1000
0000
0000
0010
0000
0000
0110
0000
0000
0000
0200
0000
0000
0000
0300
0000
,
0001
0000
0000
1000
0000
0000
1100
0000
0000
0000
0000
0000
0200
0000
0000
0000
,
0320
0000
0031
0000
0200
0301
0000
2000
,
3400
0040
0000
0000
0000
0000
0000
0000
0000
0000
0000
0000
0330
0000
0000
0000
,
0020
0000
0031
0000
2000
0000
3001
0010
0002
0000
1003
0000
0020
0000
0130
0000
,
0002
0000
0000
0000
1003
0000
0200
0000
0000
0000
0310
0000
0100
0000
2000
0000
0000
0000
3001
0010
0001
0010
0001
0010
0001
0010
0000
0200
0000
0000
0000
0000
,
2300
0000
3001
0000
0200
0000
0301
1000
0002
0000
0023
0000
0230
0000
2300
0000
,
3002
0000
0103
0020
0000
1030
0001
0100
0000
0000
0002
0000
0000
0000
1003
0000
,
0100
0010
0012
0000
1003
0000
1020
0000
,
0130
0001
2001
0000
3100
0000
0120
0000
,
0031
0000
2001
0000
3010
0200
0000
0301
,
1000
0000
0020
0000
0000
0000
0130
0001
0100
0001
0100
0001
0100
0001
0000
2000
,
0000
3000
1020
0000
0130
0001
2001
0000
,
3100
0010
0012
0000
1003
0010
0210
0000
,
0302
0000
0003
0000
1000
0200
0000
0310
,
0100
0000
1000
0000
0001
0010
0000
0100
1000
0100
0000
0010
0001
0010
0000
0000
,
0100
1000
1002
0000
0103
0000
0120
0000
,
1030
0001
0021
0000
0130
0000
2100
0000
,
3001
0000
0000
1000
0100
0020
0000
0130
,
1000
0000
0001
0000
0200
0000
0310
0100
0010
0100
0010
0100
0010
0100
0000
0002
,
0000
0000
1003
0000
0100
0000
0000
1000
0000
0000
1001
0000
0000
0000
0002
0000
,
0000
0000
1003
0000
0100
0000
0000
0010
0000
0000
0011
0000
0000
0000
0000
0000
,
0002
0000
0000
0000
0103
0000
0010
0000
2000
3001
0000
0020
0000
0000
0000
0000
,
0030
0000
2002
3003
2000
0000
3010
0100
0010
0000
1000
0000
0001
0000
0000
0100
,
0000
0000
0020
0000
0000
0000
1030
0000
0001
0000
0010
0001
0010
0000
0000
0100
,
0000
0000
2000
0000
0000
0000
3001
0000
0100
0000
0010
1000
0010
0000
0000
0100
,
0000
0002
0000
1003
0010
2000
3001
0000
,
0040
0000
0000
0000
0032
0000
1003
0010
1000
0000
0001
0000
0010
0000
0000
0001
,
0000
0000
2000
0000
0000
0000
3010
0000
0100
0000
0001
0100
0001
0000
0000
1000
,
0000
0000
0200
0000
0000
0000
0310
0000
0020
0000
0000
0000
0031
0000
0000
1000
,
0000
0020
0000
0000
1030
1000
1100
0100
;

//---------------dance-single - Medium----------------
#NOTES:
     dance-single:
     Ace Of Hearts (2011):
     Medium:
     7:
     0.522,0.255,0.016,0.865,0.125:
0000
0000
0000
0000
,
0000
0000
0000
0000
0000
0000
0001
1000
,
0002
0000
0103
0000
0001
0200
0000
0040
,
0000
0000
0330
1001
,
1000
0000
0010
0000
1000
0000
0000
0000
0001
0000
0000
1000
0000
0000
0020
0000
,
0000
0000
1030
0000
0001
0000
0000
0000
1000
0000
0000
0010
0000
0000
0200
0000
,
0000
0000
0301
0000
1000
0000
0000
0000
0010
0000
0000
0100
0000
0000
0002
0000
,
0000
1003
0100
0010
0001
0000
2000
0000
,
3001
0000
0100
0000
0001
0000
0000
0000
1000
0000
0000
0001
0000
0000
0020
0000
,
0000
0000
0031
0000
1000
0000
0000
0000
0010
0000
0000
0100
0000
0000
0002
0000
,
0000
0000
1003
0000
0200
0000
0000
0000
0310
0000
0000
0010
0000
0000
0020
0000
,
0000
0030
0001
0001
0010
0001
0000
0000
,
2000
0000
0000
3020
0000
0130
0001
0100
,
0002
0000
0000
2003
0000
3001
0100
0001
,
0200
0000
0000
0320
0000
1030
0001
1000
,
0002
0000
0000
0000
0013
0000
0100
0000
4000
0000
0000
0000
0000
3000
0000
0000
,
0002
0000
0000
0203
0000
0310
1000
0010
,
0200
0000
0000
0302
0000
1003
0100
1000
,
0200
0000
0000
0310
0000
0001
0010
0001
,
0010
0000
0001
0000
1000
0000
0001
0000
1000
0000
0000
0100
0000
0000
0010
0000
,
0001
0010
0001
0010
0100
0010
0100
2000
,
0000
3002
0203
0300
,
0010
1000
0010
1000
0001
0100
0001
0100
,
0020
0000
0000
1030
0001
0000
1001
0000
,
0001
1000
0001
1000
0010
0100
0010
2000
,
0000
0000
3020
0000
0130
0002
0000
0000
,
1003
0010
1000
0010
0100
0001
0100
0001
,
2000
0000
0000
3001
0020
0000
0030
0000
,
0001
0000
1000
0020
0000
1030
0002
1003
,
0200
0000
0310
0000
0200
0000
1300
0001
,
0020
0031
2000
3010
,
0200
0000
0310
1000
0000
0001
0010
0200
,
0000
0000
4300
0004
0000
0000
0000
0000
0000
0000
0000
3003
0000
0000
0000
0000
,
0002
0000
0023
0000
0230
0000
0310
0001
,
2000
3020
0230
0302
,
2003
0000
3010
0200
0000
0301
1000
0002
,
0000
0003
0000
0020
0000
0031
2000
3001
,
0200
0000
0310
0000
0200
0000
0301
1000
,
0020
1030
0002
0013
,
0200
0000
0310
0001
0000
1000
0010
0200
,
0000
0000
0304
4000
0000
0000
0000
0000
0000
0000
0000
3003
0000
0000
0000
0000
,
1000
0000
0000
0010
0000
0000
1000
0000
0000
0000
0002
0000
0000
0000
0003
0000
,
0100
0000
0000
0010
0000
0000
0100
0000
0000
0000
0000
0000
0002
0000
0000
0000
,
2003
0000
3010
0000
1000
0002
0000
0020
,
0000
0000
0000
0033
,
0001
0000
1000
0000
0001
0000
0000
0000
1000
0000
0000
0010
0000
0000
0200
0000
,
0000
0000
0301
0000
1000
0000
0000
0000
0001
0000
0000
0100
0000
0000
0020
0000
,
0000
0000
1030
0000
0001
0000
0000
0000
0010
0000
0000
0100
0000
0000
2000
0000
,
0000
3001
0100
0010
1000
0000
0002
0000
,
1003
0000
0100
0000
1000
0000
0000
0000
0001
0000
0000
0100
0000
0000
0020
0000
,
0000
0000
1030
0000
0001
0000
0000
0000
1000
0000
0000
0100
0000
0000
0020
0000
,
0000
0000
0130
0000
1000
0000
0000
0000
0001
0000
0000
0001
0000
0000
0002
0000
,
0000
0003
1000
1000
0010
1000
0000
0000
,
0002
0000
0000
0023
0000
0000
0130
0000
2000
0000
0000
3002
0000
0000
0103
0000
,
0020
0000
0000
2030
0000
0000
3001
0000
0100
0000
0001
0000
1000
0000
0000
0000
,
0002
0000
0000
0203
0000
0000
0310
0000
2000
0000
0000
3002
0000
0000
0013
0000
,
0200
0000
0000
2300
0000
0000
3001
0000
1000
0000
0001
0000
0100
0000
0001
0000
,
0100
0000
0000
0010
0000
0000
0100
0000
0001
0000
0100
0000
0001
0000
1000
0000
,
0001
1000
0000
0020
0000
0000
1030
0000
,
0001
0100
0000
0000
0001
0100
0001
0100
,
0010
1000
0010
1000
0004
0000
0000
0003
,
1000
0100
1000
0100
0010
0001
0000
2000
,
0000
3010
0200
0000
0301
1000
0000
0000
,
0001
0010
0100
1000
0100
0010
0001
1000
,
0002
0000
0000
1003
0020
0000
0000
0000
,
1030
0000
0001
0020
0000
0031
2000
3010
,
2000
0000
3001
0000
0020
0000
0031
1000
,
0020
1030
0002
0103
,
0020
0000
1030
0002
0000
1003
0010
0100
,
0000
0000
0040
4000
0000
0000
0000
0000
0000
0000
0000
3030
0000
0000
0000
0000
,
2000
0000
3010
0100
0002
0000
1003
0100
,
0020
0000
0130
1000
0002
0000
0203
0000
,
0320
0000
1030
0002
0000
1003
0010
2000
,
0000
3000
0000
0002
0000
0013
0001
1000
,
0002
0000
0013
0000
0200
0000
1300
0001
,
2000
3020
0230
0301
,
2000
0000
3100
0010
0000
0100
1000
0002
,
0000
0000
4003
0040
0000
0000
0000
0000
0000
0000
0000
3030
0000
0000
0000
0000
,
0010
0000
0000
1000
0000
0000
0001
0000
0000
0000
0020
0000
0000
0000
0030
0000
,
0001
0000
0000
0010
0000
0000
0100
0000
0000
0000
0000
0000
2000
0000
0000
0000
,
3002
0000
0013
0000
0001
2000
0000
0020
,
0000
0000
0000
3030
,
0020
0000
1030
0000
0002
0000
1003
0100
2000
0000
3002
0000
0023
0000
0230
0000
,
2300
0000
3001
0020
0000
0031
1000
0002
0000
0000
0003
0000
0000
0000
0000
0000
,
2000
0000
3020
0000
2030
0000
3001
0010
0002
0000
0023
0000
0230
0000
2300
0000
,
3002
0000
1003
0100
0000
1000
0100
1000
0000
0000
0002
0000
0000
0000
1003
0000
,
0020
1030
0002
0000
0013
0000
0200
0000
,
1300
0001
0020
0000
0031
0000
2000
0000
,
3010
0000
0200
0000
0301
1000
0000
0001
,
0010
0000
0100
0000
0000
0000
0040
0004
0000
0000
0000
0000
0000
0000
0000
0033
,
0000
0000
0002
0000
1003
0100
0020
0000
,
0130
1000
0002
0000
0103
0001
2000
0000
,
3200
0000
0300
0000
0010
0200
0000
0000
,
1300
0002
0000
0003
0000
2000
0000
3010
,
0200
0310
2000
0000
3001
0000
0020
0000
,
0130
1000
0002
0000
0103
0000
0020
0000
,
0130
0000
0000
0001
0100
0002
0000
1003
,
0100
0000
1000
0000
0000
0000
0004
4000
0000
0000
0000
0000
0000
0000
0000
3003
,
0000
0000
0000
0000
1000
0000
0000
0001
0000
0000
0100
0000
0000
0000
0020
0000
,
0000
0000
0030
0000
1000
0000
0000
0010
0000
0000
0100
0000
0000
0000
0000
0000
,
0002
0000
0000
0000
0023
0000
0130
0000
2000
0200
3000
0020
0000
0000
0000
0000
,
0330
0000
1001
0000
0001
0000
0100
0000
0001
0000
0000
0000
1000
0000
0000
0100
,
0000
0000
0020
0000
0000
0000
0130
0000
1000
0000
0000
0000
0001
0000
0000
0100
,
0000
0000
0020
0000
0000
0000
0130
0000
0001
0000
0000
0000
1000
0000
0000
0100
,
0000
0020
0000
0130
1000
0001
1000
0000
,
0200
0000
0000
0000
1300
0000
0001
0000
0100
0000
0000
0000
0010
0000
0000
1000
,
0000
0000
0002
0000
0000
0000
0013
0000
0100
0000
0000
0000
1000
0000
0000
0001
,
0000
0000
0200
0000
0000
0000
0310
0000
1000
0000
0000
0000
0001
0000
0000
0100
,
0000
0020
0000
0030
1000
1000
0010
0100
;

//---------------dance-single - Easy----------------
#NOTES:
     dance-single:
     Ace Of Hearts (2011):
     Easy:
     5:
     0.237,0.028,0.031,0.229,0.023: // measure 1
0000
0000
0000
0000
,  // measure 2
0000
0000
0000
0000
,  // measure 3
0000
0000
0000
0000
,  // measure 4
0004
0000
0000
0003
,  // measure 5
2000
3000
0010
0010
,  // measure 6
0010
0000
1000
1000
,  // measure 7
1000
0000
0001
0001
,  // measure 8
0001
0000
2000
3000
,  // measure 9
0020
0030
0100
0100
,  // measure 10
0100
0000
0001
0001
,  // measure 11
0001
0000
0000
0000
0200
0000
0000
0300
,  // measure 12
0000
0001
0001
0000
,  // measure 13
1000
0000
1000
0000
,  // measure 14
0001
0000
0001
0000
,  // measure 15
0010
0000
0010
0000
,  // measure 16
0100
0100
0100
0000
,  // measure 17
1000
0000
1000
0000
,  // measure 18
0001
0000
0001
0000
,  // measure 19
0010
0000
0010
0000
,  // measure 20
0001
0000
0000
0000
,  // measure 21
1000
1000
1000
0000
,  // measure 22
0020
0000
0030
0000
,  // measure 23
0100
0100
0100
0000
,  // measure 24
0002
0000
0003
0001
,  // measure 25
0100
0100
0100
0000
,  // measure 26
0020
0000
0030
0000
,  // measure 27
1000
1000
1000
0000
,  // measure 28
0002
0000
0003
0000
,  // measure 29
2002
0000
3003
1000
0000
0000
1000
0000
,  // measure 30
0001
0001
0001
0000
,  // measure 31
0010
0010
0010
0000
,  // measure 32
0001
0001
0001
0000
,  // measure 33
4000
0004
0000
0000
0000
0000
0000
0000
3003
0000
0000
0000
0000
0000
0000
0000
,  // measure 34
0001
0001
0001
0000
,  // measure 35
0100
0100
0100
0000
,  // measure 36
0001
0001
0001
0000
,  // measure 37
0100
0000
0010
0010
,  // measure 38
1000
1000
1000
0000
,  // measure 39
0001
0001
0001
0000
,  // measure 40
0010
0010
0010
0000
,  // measure 41
0004
4000
0000
0000
0000
0000
0000
0000
3003
0000
0000
0000
0000
0000
0000
0000
,  // measure 42
0220
0000
0000
0330
0000
0000
0000
0000
,  // measure 43
2002
0000
0000
3003
0000
0000
0000
0000
,  // measure 44
1000
0000
1000
0000
1000
0000
0000
0020
,  // measure 45
0000
0000
0000
0030
,  // measure 46
2000
3000
0010
0010
,  // measure 47
0010
0000
0100
0100
,  // measure 48
0100
0000
0001
0001
,  // measure 49
0001
0000
0020
0030
,  // measure 50
0002
0003
1000
1000
,  // measure 51
1000
0000
0010
0010
,  // measure 52
0010
0000
0000
0000
2000
0000
0000
3000
,  // measure 53
0000
0010
0010
0000
,  // measure 54
2000
0000
0000
3000
0000
0000
0000
0000
0020
0000
0000
0030
0000
0000
0000
0000
,  // measure 55
0200
0000
0000
0300
0000
0000
0000
0000
0001
0000
0001
0000
0001
0000
0000
0000
,  // measure 56
0020
0000
0000
0030
0000
0000
0000
0000
0002
0000
0000
0003
0000
0000
0000
0000
,  // measure 57
2000
0000
0000
3000
0000
0000
0000
0000
0010
0000
0000
0000
0000
0000
0000
0000
,  // measure 58
0000
0000
1000
1000
,  // measure 59
1000
0000
0020
0000
,  // measure 60
0030
0000
0100
0100
,  // measure 61
0100
0000
0002
0003
,  // measure 62
1000
1000
1000
0000
,  // measure 63
0020
0000
0030
0000
,  // measure 64
0100
0100
0100
0000
,  // measure 65
0020
0000
0030
0000
,  // measure 66
0220
0000
0330
0100
0000
0000
0100
0000
,  // measure 67
0001
0001
0001
0000
,  // measure 68
1000
1000
1000
0000
,  // measure 69
0100
0100
0100
0000
,  // measure 70
4000
0004
0000
0000
0000
0000
0000
0000
3003
0000
0000
0000
0000
0000
0000
0000
,  // measure 71
0001
0001
0001
0000
,  // measure 72
0100
0100
0100
0000
,  // measure 73
0010
0010
0010
0000
,  // measure 74
1000
0000
0001
0001
,  // measure 75
0100
0100
0100
0000
,  // measure 76
0010
0010
0010
0000
,  // measure 77
1000
1000
1000
0000
,  // measure 78
0004
4000
0000
0000
0000
0000
0000
0000
3003
0000
0000
0000
0000
0000
0000
0000
,  // measure 79
0220
0000
0000
0330
0000
0000
0000
0000
,  // measure 80
2002
0000
0000
3003
0000
0000
0000
0000
,  // measure 81
0001
0000
0001
0000
0001
0000
0000
0020
,  // measure 82
0000
0000
0000
0030
,  // measure 83
0002
0000
0003
0000
0010
0010
0010
0000
,  // measure 84
0200
0300
4000
3000
,  // measure 85
0002
0000
0003
0000
0100
0100
0100
0000
,  // measure 86
0020
0000
0000
0000
0000
0000
0000
0030
0000
0000
1000
0000
0000
0000
0000
0000
,  // measure 87
1000
0001
0001
0001
,  // measure 88
0000
0100
0100
0100
,  // measure 89
0000
0010
0010
0010
,  // measure 90
0000
0000
0000
0000
4000
0004
0000
0000
0000
0000
0000
0000
3003
0000
0000
0000
,  // measure 91
0000
0001
0001
0001
,  // measure 92
0000
0010
0010
0010
,  // measure 93
0000
0000
0100
0100
,  // measure 94
1000
1000
0000
0001
,  // measure 95
0001
1000
1000
1000
,  // measure 96
0000
0010
0010
0010
,  // measure 97
0000
0000
0000
0100
0000
0100
0000
0000
,  // measure 98
0000
0000
0000
0000
0004
4000
0000
0000
0000
0000
0000
0000
3003
0000
0000
0000
,  // measure 99
0000
0000
0000
0000
1000
0000
0000
1000
0000
0000
1000
0000
0000
0000
0000
0000
,  // measure 100
0000
0000
0000
0000
0010
0000
0000
0010
0000
0000
0010
0000
0000
0000
0000
0000
,  // measure 101
0000
1000
1000
2000
,  // measure 102
0000
3000
0002
0000
0003
0000
0100
0000
,  // measure 103
0100
0100
0000
0001
,  // measure 104
0001
0001
0000
1000
,  // measure 105
1000
1000
0000
0020
,  // measure 106
0030
0200
0300
0001
,  // measure 107
0001
0001
0000
1000
,  // measure 108
1000
0000
0000
0000
1000
0000
0000
0000
0000
0000
0000
0000
0010
0000
0000
0010
,  // measure 109
0000
0010
0000
0000
1000
0001
1000
0001
;

//---------------dance-single - Novice----------------
#NOTES:
     dance-single:
     Ace Of Hearts (2011):
     Beginner:
     2:
     0.142,0.000,0.000,0.240,0.000: // measure 1
0000
0000
0000
0000
,  // measure 2
0000
0000
0000
0000
,  // measure 3
0000
0000
0000
0000
,  // measure 4
0000
0000
0000
0000
,  // measure 5
1000
0000
0000
0000
2000
0000
0000
3000
,  // measure 6
0000
0000
0000
0000
0002
0000
0000
0003
,  // measure 7
0000
0000
0000
0000
2000
0000
0000
3000
,  // measure 8
0000
0000
0010
0000
,  // measure 9
0010
0000
0000
0000
0020
0000
0000
0030
,  // measure 10
0000
0000
0000
0000
2000
0000
0000
3000
,  // measure 11
0000
0000
0000
0000
0002
0000
0000
0003
,  // measure 12
0000
2000
3000
0000
,  // measure 13
0010
0000
0000
0000
,  // measure 14
0010
0000
0000
0000
,  // measure 15
0100
0000
0000
0000
,  // measure 16
0200
0000
0300
0000
,  // measure 17
0001
0000
0000
0000
,  // measure 18
0001
0000
0000
0000
,  // measure 19
1000
0000
0000
0000
,  // measure 20
1000
0000
0000
0000
,  // measure 21
0010
0000
0010
0000
,  // measure 22
0020
0000
0030
0000
,  // measure 23
1000
0000
1000
0000
,  // measure 24
2000
0000
3000
0000
,  // measure 25
0001
0000
0001
0000
,  // measure 26
0002
0000
0003
0000
,  // measure 27
0010
0000
0010
0000
,  // measure 28
0020
0000
0000
0000
,  // measure 29
0030
0000
0000
0000
,  // measure 30
0001
0000
0001
0000
,  // measure 31
0002
0000
0003
0000
,  // measure 32
1000
0000
1000
0000
,  // measure 33
4000
0000
3000
0000
,  // measure 34
0010
0000
0010
0000
,  // measure 35
0020
0000
0030
0000
,  // measure 36
0100
0000
0100
0000
,  // measure 37
0100
0000
0000
0000
,  // measure 38
0001
0000
0001
0000
,  // measure 39
0002
0000
0003
0000
,  // measure 40
0010
0000
0010
0000
,  // measure 41
0040
0000
0030
0000
,  // measure 42
0002
0000
0000
0003
0000
0000
0000
0000
,  // measure 43
2000
0000
0000
3000
0000
0000
0000
0000
,  // measure 44
0010
0000
0010
0000
,  // measure 45
0020
0000
0030
0000
,  // measure 46
1000
0000
0000
0000
2000
0000
0000
3000
,  // measure 47
0000
0000
0000
0000
0002
0000
0000
0003
,  // measure 48
0000
0000
0000
0000
0020
0000
0000
0030
,  // measure 49
0000
0000
0001
0000
,  // measure 50
0001
0000
0000
0000
0002
0000
0000
0003
,  // measure 51
0000
0000
0000
0000
2000
0000
0000
3000
,  // measure 52
0000
0000
0000
0000
0020
0000
0000
0030
,  // measure 53
0000
2000
3000
0000
,  // measure 54
0001
0000
0001
0000
,  // measure 55
1000
0000
2000
3000
,  // measure 56
0100
0000
0100
0000
,  // measure 57
0010
0000
0010
0000
,  // measure 58
0000
0000
0001
0000
,  // measure 59
0001
0000
0002
0000
,  // measure 60
0003
0000
0100
0000
,  // measure 61
0100
0000
0200
0300
,  // measure 62
0010
0000
0010
0000
,  // measure 63
0020
0000
0030
0000
,  // measure 64
1000
0000
1000
0000
,  // measure 65
2000
0000
0000
0000
,  // measure 66
3000
0000
0000
0000
,  // measure 67
0010
0000
0010
0000
,  // measure 68
0020
0000
0030
0000
,  // measure 69
0100
0000
0100
0000
,  // measure 70
0400
0000
0300
0000
,  // measure 71
0001
0000
0001
0000
,  // measure 72
0002
0000
0003
0000
,  // measure 73
1000
0000
1000
0000
,  // measure 74
1000
0000
0000
0000
,  // measure 75
0100
0000
0100
0000
,  // measure 76
0100
0000
0000
0000
,  // measure 77
0010
0000
0010
0000
,  // measure 78
0040
0000
0030
0000
,  // measure 79
0002
0000
0000
0003
0000
0000
0000
0000
,  // measure 80
2000
0000
0000
3000
0000
0000
0000
0000
,  // measure 81
0010
0000
0010
0000
,  // measure 82
0020
0000
0030
0000
,  // measure 83
1000
0000
1000
0000
,  // measure 84
0010
0000
0040
0030
,  // measure 85
1000
0000
1000
0000
,  // measure 86
0002
0000
0000
0000
0000
0000
0000
0003
0000
0000
0000
0000
0000
0000
0000
0000
,  // measure 87
0000
1000
0000
1000
,  // measure 88
0000
1000
0000
0000
,  // measure 89
0000
0010
0000
0010
,  // measure 90
0000
0040
0000
0030
,  // measure 91
0000
0100
0000
0100
,  // measure 92
0000
0100
0000
0000
,  // measure 93
0000
0000
0001
0000
,  // measure 94
0001
0000
0000
0000
,  // measure 95
0000
1000
0000
1000
,  // measure 96
0000
1000
0000
0000
,  // measure 97
0000
0020
0000
0030
,  // measure 98
0000
4000
0000
3000
,  // measure 99
0000
0000
0002
0000
0000
0003
0000
0000
,  // measure 100
0000
0000
2000
0000
0000
3000
0000
0000
,  // measure 101
0000
0010
0010
0020
,  // measure 102
0030
1000
0000
2000
,  // measure 103
0000
3000
0000
0000
0000
0000
0020
0000
,  // measure 104
0000
0030
0000
0000
0000
0000
2000
0000
,  // measure 105
0000
3000
0000
0000
0000
0000
0001
0000
,  // measure 106
0000
0001
0000
0002
,  // measure 107
0000
0003
0000
0000
0000
0000
0200
0000
,  // measure 108
0000
0300
0000
0000
0000
0000
0020
0000
,  // measure 109
0000
0030
0000
0000
1000
0000
1000
0000
;
