#TITLE:Little Wish;
#SUBTITLE:;
#ARTIST:Yukari Tamura;
#TITLETRANSLIT:;
#SUBTITLETRANSLIT:;
#ARTISTTRANSLIT:;
#GENRE:J-Pop;
#CREDIT:Ace Of Hearts;
#BANNER:Little Wish - bn.png;
#BACKGROUND:Little Wish - bg.png;
#LYRICSPATH:Little Wish Lyrics.lrc;
#CDTITLE:Ace Of Hearts.png;
#MUSIC:Little Wish.ogg;
#OFFSET:1.090;
#SAMPLESTART:67.900;
#SAMPLELENGTH:12.000;
#SELECTABLE:YES;
#BPMS:0.000=131.960,398.000=65.980,406.000=131.960,426.000=65.980,442.000=131.960;
#STOPS:;
#BGCHANGES:2.250=Little Wish AMV.avi=1.000=1=0=0=StretchNoLoop==CrossFade==,
99999=-nosongbg-=1.000=0=0=0 // don't automatically add -songbackground-
;
#KEYSOUNDS:;

//---------------dance-single - Hard----------------
#NOTES:
     dance-single:
     Ace Of Hearts (2011 Rewrite):
     Hard:
     8:
     0.509,0.388,0.041,0.816,0.108:
0000
0000
0000
0000
,
1000
0100
0010
0001
2000
0000
3000
0010
,
2000
0000
3001
0020
0000
0230
0000
0000
,
0300
0010
0001
1000
0001
0100
0010
0200
,
0000
0301
1000
0200
0000
0300
0000
0000
,
0000
0010
0001
1000
0002
0000
1003
0020
,
0000
1030
0002
0000
0023
0000
0130
2000
,
0000
3000
0001
0100
0001
1000
0100
0020
,
0000
0130
1000
0002
0000
1003
0100
0000
,
0010
0100
1000
0002
0000
0200
0000
0000
,
0000
0000
0003
0000
,
0000
0310
1000
0002
0000
0000
0000
0000
,
0000
0000
0003
1000
0000
0010
0010
0000
,
1000
0000
0001
0000
1000
0010
1000
0000
0002
0000
0000
0000
0003
0000
0000
0000
,
1000
0001
0010
0200
0000
1300
0000
0002
,
0000
0103
0000
0020
0000
0130
0001
0000
,
0000
1000
0010
0200
0000
0301
1000
0000
,
0000
0000
0100
0010
0002
0000
0003
0000
,
1000
0100
0010
0200
0000
0000
1300
0001
,
0000
0000
1000
0010
0100
0001
1000
0200
,
0000
0310
0100
0000
2000
0000
3001
0100
,
0000
0000
0220
0330
,
0010
1000
0001
2000
0000
3020
0000
0230
,
0000
0302
0000
2003
0000
3010
0200
0000
,
0300
0001
1000
0200
0000
0310
0100
0000
,
0000
0000
0010
0001
2000
0000
3000
0000
,
0010
1000
0001
2000
0000
0000
3100
0010
,
0000
0000
0100
1000
0001
0100
0010
2000
,
0000
3001
0100
0020
0000
0000
1030
0001
,
0000
0000
0000
0000
0000
0000
1000
0100
2000
0000
0000
0000
3002
0000
0000
0000
,
0103
0010
1000
0002
0000
0013
0100
0000
,
0000
0000
0000
0000
0000
0000
0010
0001
0020
0000
0000
0000
0230
0000
0000
0000
,
1300
0001
0100
0020
0000
1030
0001
0200
,
0000
0300
0000
0001
2000
0000
3000
0000
,
0010
1000
0001
0020
0000
0130
1000
0004
,
0000
0003
0000
1000
0010
1000
0001
1000
,
0000
0100
0010
0002
0000
1003
0200
0000
,
0320
0000
0031
1001
,
1000
0010
0100
0001
2002
0000
3003
1000
,
0020
0000
0130
0002
0000
2003
0000
0000
,
3000
0100
0010
0100
1000
0001
0100
0020
,
0000
1030
0001
0200
0000
0000
0000
0302
,
0000
1003
0100
0010
0200
0000
1300
0002
,
0000
0103
0020
0000
2030
0000
3001
0200
,
0000
0000
0310
1000
0001
0010
0100
2000
,
0000
3001
0100
0020
0000
1030
0001
0000
,
0100
0001
1000
0100
0220
0000
0330
0010
,
0002
0000
1003
0020
0000
0130
0002
0000
,
0003
1000
0010
1000
0001
0010
0100
2000
,
0000
3001
0100
0020
0000
1030
0001
0010
,
0100
0000
0000
1000
0000
0000
0001
0000
0200
0000
0000
0000
0310
0000
2000
0000
,
0000
3001
0020
0000
0230
0000
1300
0004
,
0000
0003
1000
0010
0100
0010
1000
0002
,
0000
0013
0100
2000
0000
3001
0100
0000
,
0010
0100
0001
2000
0000
0200
0000
0000
,
0000
0000
3000
0000
,
0000
0310
0001
2000
0000
0000
0000
0000
,
0000
0000
0000
3010
0000
0100
0100
0000
,
0001
0000
1000
0000
0010
1000
0010
0000
0200
0000
0000
0000
0300
0000
0000
0000
,
0001
1000
0100
0020
0000
0230
0000
2300
,
0000
3002
0000
0103
0000
0010
2000
0000
,
3000
0001
0010
0002
0000
1003
0100
0000
,
0000
0000
0010
0100
1000
0000
0000
0000
,
0001
0100
0010
2000
0000
0000
3001
0010
,
0000
0000
0001
1000
0010
0100
0010
2000
,
0000
3001
0200
0000
0320
0000
1030
0002
,
0000
0000
0003
0000
0000
0000
1000
0100
2000
0000
0000
0000
3002
0000
0000
0000
,
0103
0010
0100
0002
0000
1003
0200
0000
,
0300
0000
0000
0000
0000
0000
0010
0001
0020
0000
0000
0000
0230
0000
0000
0000
,
1300
0001
0100
0020
0000
1030
0001
0100
,
0000
0000
0000
0010
2000
0000
3000
0000
,
0001
0010
0100
2000
0000
3001
0100
0020
,
0000
0030
0000
1000
0001
1000
0010
1000
,
0000
0001
0010
0200
0000
1300
0002
0000
,
0023
0000
0130
1100
,
1000
0001
0100
0010
2020
0000
3030
1000
,
0002
0000
0013
0200
0000
2300
0000
0000
,
3000
0001
0100
0010
1000
0001
0010
0200
,
0000
1300
0001
0200
0000
0000
0000
0320
,
0000
1030
0001
0010
0200
0000
1300
0002
,
0000
1003
0020
0000
2030
0000
3001
0100
,
0000
0000
0010
0100
0001
1000
0100
0020
,
0000
0130
1000
0002
0000
0103
0010
0000
,
0100
0001
1000
0001
0022
0000
0033
0010
,
0200
0000
1300
0002
0000
2003
0000
0000
,
3000
0001
1000
0010
0100
0001
0100
0020
,
0000
1030
0001
0020
0000
0031
1000
0010
,
0100
0000
0000
0001
0000
0000
1000
0000
0200
0000
0000
0000
0310
0000
0002
0000
,
0000
1003
0020
0000
0230
0000
0301
1000
,
0000
0000
0001
0010
0100
0010
0001
2000
,
0000
3010
0100
0002
0000
1003
0100
0000
,
0010
0100
1000
0002
0000
0000
2003
0000
,
0000
0000
3020
0000
0000
0000
1030
0000
0002
0000
0000
0023
0000
0000
0130
0000
,
2000
0000
0000
0000
0000
0000
0000
0000
3000
0000
0001
0010
0001
0000
1000
0000
,
0010
0000
0100
0001
0100
0000
0010
0000
1000
0000
0001
0010
0001
0000
1000
0001
,
2000
0000
0000
0000
0000
0000
0000
0000
3000
0000
0001
0100
0001
0000
1000
0000
,
0100
0000
0010
0000
0100
0000
1000
0000
0001
0000
1000
0010
1000
0000
0001
0100
,
0002
0000
0000
0000
0000
0000
0003
0000
2000
0000
0000
3200
0000
0000
0320
0000
,
0000
0000
0000
0032
0000
0000
1003
0000
0020
0000
0000
0230
0000
0000
0301
0000
,
2000
0000
0000
3200
0000
0000
0310
0001
0020
0000
0230
0000
1300
0100
0010
0002
,
0000
1003
0200
0000
0300
0000
0000
1000
0002
0000
0023
0000
0031
0010
0100
2000
,
0000
3001
0010
0002
0000
0003
0000
1000
0020
0000
0000
0000
0030
0000
0000
0000
,
1000
0010
0100
0002
0000
1003
0100
2000
,
0000
3000
0000
0001
0100
0010
0100
0001
,
0000
1000
0100
0020
0000
0130
2000
0000
,
3020
0030
1000
1001
,
0001
0000
0100
0000
0010
0000
1000
0000
0002
0000
0003
0010
0200
0000
1300
0002
,
0000
0203
0000
0000
0300
0010
1000
0010
0100
0001
0100
0002
0000
1003
0100
1000
,
0000
0000
0000
0000
0000
0001
0010
0100
2000
0000
3001
0020
0000
0031
2000
0000
,
3002
0000
1003
0100
0000
0000
0010
0001
0010
0100
1000
0002
0000
1003
0010
0200
,
0000
0301
1001
0000
1000
0100
0010
0001
2002
0000
0000
0000
3003
0000
1000
0000
,
0020
0000
0130
0002
0000
2003
0000
0000
,
3000
0100
0010
0001
0010
0100
1000
0002
,
0000
1003
0010
0200
0000
0301
1000
0100
,
0010
0000
0000
0001
0000
0000
1000
0000
0020
0000
0000
0000
0130
0000
0002
0000
,
0000
1003
0200
0000
0320
0000
0130
1000
,
0000
0000
0001
0100
0010
0100
0001
2000
,
0000
3100
0010
0002
0000
1003
0010
0000
,
1000
0001
0010
0200
0000
1300
0001
0020
,
0000
0032
0000
2003
0000
3100
0020
0000
,
0130
1000
0001
0100
0010
0100
0001
1000
,
0002
0000
0103
0020
0000
1030
0002
0000
,
0013
0100
1000
0010
0000
0100
0000
0002
,
0000
2003
0000
3020
0000
0130
0002
0000
,
1003
0001
0100
0020
0000
0000
0000
0000
,
0000
0000
0000
0000
,
0000
0000
0000
0030
;

//---------------dance-single - Expert----------------
#NOTES:
     dance-single:
     Ace Of Hearts (2011 Rewrite):
     Challenge:
     11:
     0.785,0.440,0.583,0.714,0.516: // measure 1
0000
0000
0000
0000
,  // measure 2
0001
0100
0010
1000
0002
0000
0003
0010
,  // measure 3
0200
0000
0000
0000
1300
0000
0002
0000
0000
0000
1003
0010
0200
0000
0000
0000
,  // measure 4
0300
0001
0100
0010
1000
0100
0010
0002
,  // measure 5
0000
1003
0100
0040
0000
0030
0000
0000
,  // measure 6
0000
0100
1000
0001
0200
0000
0310
2000
,  // measure 7
0000
3001
0020
0000
0230
0000
1300
0002
,  // measure 8
0000
0000
0003
0000
1000
0000
0010
0100
0002
0000
1003
0000
0100
0000
0020
0000
,  // measure 9
0030
0000
0000
0001
0010
0100
1000
0000
0000
2002
0000
0000
3003
0000
0000
0101
0000
0000
1010
0000
0000
1000
0010
0100
,  // measure 10
0001
1000
0100
0020
0000
0200
0000
0000
,  // measure 11
0000
0000
0000
0030
,  // measure 12
0000
1300
0001
0200
0000
0000
0000
0000
,  // measure 13
0000
0000
0000
0301
0010
0100
1000
0000
0000
1002
0000
0000
0000
0000
0000
0013
0000
0000
0110
0000
0000
0100
1000
0100
,  // measure 14
1000
0000
0001
0000
0100
0010
1000
0000
0001
0000
0010
0000
0110
0000
0100
1000
,  // measure 15
0002
0000
1003
0000
1100
0000
0100
0010
0001
0010
0100
0000
1100
0000
1000
0010
,  // measure 16
0100
0010
1000
0000
1001
0000
0001
0010
0200
0000
1300
0000
1010
0000
0010
0100
,  // measure 17
0001
0100
0010
0000
1010
0000
1000
0001
0020
0000
0031
0000
0101
0000
0100
0010
,  // measure 18
1000
0001
1000
0000
1100
0000
0100
0010
0001
1000
0001
0000
0101
0000
0100
0010
,  // measure 19
2000
0000
3010
0000
0110
0000
0100
0001
1000
0100
0010
0000
0110
0000
0100
1000
,  // measure 20
0002
0000
0103
0000
0110
0000
0010
1000
0010
0100
0001
0000
1001
0000
1000
0100
,  // measure 21
0020
0000
0130
0000
1100
0000
1000
0001
0100
0000
0110
0000
0010
0000
1010
0000
,  // measure 22
1000
0001
0010
0000
0110
0000
0100
1000
0001
0000
0100
0000
0110
0000
0010
1000
,  // measure 23
0002
0000
0013
0000
0110
0000
0100
1000
0002
0000
0103
0000
0110
0000
0010
1000
,  // measure 24
0001
0010
0100
0000
1100
0000
1000
0001
0200
0000
0310
0000
1010
0000
1000
0001
,  // measure 25
0010
0100
1000
0000
1001
0000
0001
0100
0020
0000
1030
0000
1001
0000
0001
0100
,  // measure 26
0010
1000
0001
0000
0101
0000
0100
0010
1000
0001
0010
0000
0110
0000
0100
1000
,  // measure 27
0001
0100
0001
0000
1001
0000
1000
0100
0020
0000
0031
0000
0101
0000
0100
0010
,  // measure 28
2000
0000
3001
0000
0011
0000
0010
0000
0100
1000
0001
0000
0101
0000
0100
0010
,  // measure 29
1000
0001
0010
0000
0110
0000
0100
1000
0001
0000
1001
0000
1000
0000
1100
0000
,  // measure 30
0100
0010
0001
0000
1001
0000
1000
0010
0200
0000
0300
0000
0102
0000
0000
0000
,  // measure 31
1003
0100
0010
0012
0000
0103
0010
2010
,  // measure 32
0000
0000
3002
0000
0000
0000
0103
0010
2000
0000
3000
0000
1200
0000
0000
0000
,  // measure 33
0310
0001
1000
1200
0000
0310
0001
0100
,  // measure 34
0010
1000
0001
0000
0010
0000
0100
0000
1000
0001
0100
0000
0110
0000
0010
0000
,  // measure 35
1000
0001
0100
0000
0110
0000
0010
1000
0001
0010
0100
0000
1100
0000
1000
0001
,  // measure 36
0100
0010
0100
0000
0101
0000
0001
0000
0011
0000
0010
0000
0010
0000
0110
0000
,  // measure 37
0000
0000
0000
0100
0000
0000
1000
0000
0000
1002
0000
0000
0000
0000
0000
0103
0000
0000
0020
0000
0000
1030
0010
0100
,  // measure 38
0001
0000
0000
1000
0000
0000
0010
0000
0000
1000
0000
0000
0001
0000
0000
0000
0000
0000
0010
0000
0100
0000
0010
0000
0100
0000
0000
0000
0000
0000
1000
0000
0000
0000
0000
0000
1001
0000
0000
0000
0000
0000
0001
0000
0100
0000
0001
0000
,  // measure 39
0100
0010
0000
1000
0001
0000
0010
0100
2000
0000
0001
3000
0001
0000
0100
0010
,  // measure 40
1000
0000
0001
0000
0010
0000
0210
0000
0000
0000
1300
0001
2000
0000
0000
0000
,  // measure 41
3000
0000
0001
0100
0010
0000
1000
0000
1100
0000
0100
0010
0001
0000
2000
0000
,  // measure 42
0000
0000
3010
0100
0001
0000
2002
0000
0000
0000
0000
0000
3003
0000
2200
0000
,  // measure 43
0300
0000
3001
0100
0010
0000
1000
0000
2100
0000
0000
0000
3010
0000
0210
0000
,  // measure 44
0000
0301
1000
0000
1020
0000
0130
0104
,  // measure 45
0000
0003
1000
0100
0010
0100
1000
0002
,  // measure 46
0000
0000
1003
0010
0100
0000
0202
0000
0303
0000
1001
0000
1100
0000
0000
0000
,  // measure 47
0110
0000
0010
0001
1000
0010
0100
0001
2000
0000
0100
3000
0100
0000
0010
0001
,  // measure 48
1000
0010
0100
0102
0000
2003
0200
3000
,  // measure 49
0300
0000
0010
0100
1000
0000
0001
0000
0100
0010
1000
0000
0001
0000
0010
0000
,  // measure 50
0001
1000
0010
0000
0100
0000
0102
0000
0000
0000
1003
0000
0100
0000
0010
0000
,  // measure 51
0001
1000
0000
0010
0100
0000
0001
0000
0021
0000
0000
0000
0130
0000
2100
0000
,  // measure 52
0000
3001
0200
0300
0120
0000
1030
1400
,  // measure 53
0000
0300
0010
0100
1100
1000
0001
0200
,  // measure 54
0000
0000
0000
0301
1000
0001
1000
0000
0000
2020
0000
0000
3030
0000
0000
0101
0000
0000
1001
0000
0000
1000
0100
0010
,  // measure 55
0001
0000
1000
0000
0010
0100
0002
0000
0000
0000
2000
0000
0000
0000
0000
0000
,  // measure 56
0000
0000
0000
0003
,  // measure 57
0000
3010
1000
0200
0000
0000
0000
0000
,  // measure 58
0000
0000
0000
0310
0001
0010
0001
0000
0000
2001
0000
0000
0000
0000
0000
3010
0000
0000
0110
0000
0000
0100
0001
0100
,  // measure 59
0001
0000
1000
0000
0100
0010
0001
0000
1000
0000
0010
0000
0110
0000
0100
0001
,  // measure 60
2000
0000
3100
0000
0110
0000
0010
0001
1000
0001
1000
0000
1010
0000
0010
0100
,  // measure 61
0001
1000
0001
0000
0011
0000
0010
0100
2000
0000
3001
0000
0101
0000
0100
0010
,  // measure 62
1000
0001
0010
0000
0110
0000
0100
1000
0002
0000
0103
0000
0110
0000
0010
1000
,  // measure 63
0001
0010
0100
0000
1100
0000
1000
0001
0100
0010
1000
0000
1001
0000
0001
0010
,  // measure 64
0002
0000
1003
0000
1010
0000
0010
0100
0002
0000
1003
0000
1100
0000
0100
0010
,  // measure 65
0001
1000
0010
0000
0110
0000
0100
0001
1000
0010
0100
0000
0101
0000
0001
1000
,  // measure 66
0200
0000
0310
0000
0011
0000
0001
1000
0010
0000
0110
0000
0100
0000
0101
0000
,  // measure 67
0001
1000
0100
0000
0110
0000
0010
0100
2000
0000
3000
0000
1020
0000
0000
0000
,  // measure 68
0130
0001
1000
1200
0000
0310
0001
2001
,  // measure 69
0000
0000
3200
0000
0000
0000
0310
0100
2000
0000
3000
0000
1002
0000
0000
0000
,  // measure 70
0103
0010
1000
0002
0000
0013
0100
1000
,  // measure 71
0001
0000
0000
0010
0000
0000
0100
0000
0000
0000
0000
0000
0010
0000
0000
0000
0000
0000
0001
0000
0000
0000
0000
0000
1000
0000
0000
0010
0000
0000
0100
0000
0000
0000
0000
0000
0101
0000
0000
0000
0000
0000
0001
0000
1000
0000
0001
0000
,  // measure 72
1000
0000
0000
0100
0000
0000
0010
0000
0000
0000
0000
0000
0011
0000
0000
0000
0000
0000
0001
0000
0000
1000
0000
0000
0010
0000
0000
1000
0000
0000
0001
0000
0000
0000
0000
0000
0101
0000
0000
0000
0000
0000
0100
0000
0010
0000
0100
0000
,  // measure 73
0010
1000
0001
0000
0101
0000
0100
0000
0110
0000
0010
0000
0010
0000
1010
0000
,  // measure 74
0000
0000
0000
1000
0000
0000
0100
0000
0000
0020
0000
0000
0000
0000
0000
0130
0000
0000
1000
0000
0000
0001
0010
0100
,  // measure 75
1000
0000
0000
0001
0000
0000
0100
0000
0000
0010
0000
0000
0100
0000
0000
0000
0000
0000
0001
0000
0100
0000
0010
0000
1000
0000
0000
0000
0000
0000
0001
0000
0000
0000
0000
0000
0011
0000
0000
0000
0000
0000
0000
0000
0000
0010
0000
0000
,  // measure 76
0100
1000
0000
0100
0010
0000
0001
1000
0020
0000
0100
0030
0100
0000
0001
0000
,  // measure 77
2000
0000
0000
0000
3100
0000
0020
0000
0000
0000
0130
1000
0200
0000
0000
0000
,  // measure 78
0300
0000
0010
0001
1000
0000
0001
0000
0010
0100
1000
0000
0001
0000
2001
0000
,  // measure 79
0000
3100
0010
0022
0000
0000
0033
2002
,  // measure 80
0003
3010
0100
0001
0021
0000
0130
2100
,  // measure 81
0000
3001
0200
0300
0120
0000
1030
1002
,  // measure 82
0000
0003
0010
0100
1000
0001
0100
0020
,  // measure 83
0000
0000
0130
0001
1000
0000
1200
0000
0300
0000
0110
0000
0011
0000
0000
0000
,  // measure 84
0001
0000
0000
0000
0000
0000
1000
0000
0000
0010
0000
0000
0100
0000
0000
0010
0000
0000
0100
0000
0000
0001
0000
0000
2000
0000
0000
0000
0000
0000
0010
0000
0000
3000
0000
0000
0010
0000
0000
0000
0000
0000
0100
0000
0001
0000
0100
0000
,  // measure 85
0001
1000
0100
0000
0010
0000
0002
0000
0000
0000
0103
0010
0200
0000
0000
0000
,  // measure 86
0000
0310
0100
0001
1000
0100
0010
0002
,  // measure 87
0000
0103
0010
2010
0000
3001
0010
0100
,  // measure 88
0010
0001
0000
1000
0010
0000
0100
0000
0102
0000
0000
0000
1003
0000
1200
0000
,  // measure 89
0000
0310
0002
0003
0201
0000
0310
4010
,  // measure 90
0000
3000
0001
0010
0100
0010
0001
2000
,  // measure 91
0000
0000
0000
0000
0000
0000
3001
0000
0010
0000
0001
0000
0010
0000
0000
0000
0000
0000
0210
0000
0000
0000
0000
0000
0000
0000
0000
1300
0000
0000
0001
0000
0000
0000
0000
0000
0101
0000
0000
0000
0000
0000
0100
0000
0010
0000
0100
0000
,  // measure 92
0010
0000
1000
0000
0001
0010
0100
0000
2000
0000
3000
0000
2000
0000
0000
0000
,  // measure 93
0000
0000
3002
0000
0000
0000
1003
0000
0200
0000
0000
0320
0000
0000
0130
0000
,  // measure 94
2000
0000
0000
0000
0000
0000
0000
0000
3000
0000
0001
0100
0001
1000
0100
0010
,  // measure 95
0001
0010
0100
1000
0001
0100
0010
0100
0001
1000
0100
0010
0002
0000
1003
0010
,  // measure 96
0200
0000
0000
0000
0000
0000
0000
0000
0300
0000
0010
1000
0001
0100
0001
1000
,  // measure 97
0100
0010
0001
0010
0100
1000
0001
0100
0010
1000
0001
1000
0020
0000
1030
0001
,  // measure 98
2000
0000
0000
0000
3000
0000
0001
0010
0200
0000
0000
0320
0000
0000
0032
0000
,  // measure 99
0000
0000
0000
2003
0000
0000
3010
0000
0200
0000
0000
0302
0000
0000
1003
0000
,  // measure 100
0020
0000
0000
2030
0000
0000
3001
0010
0200
0000
2300
0000
3001
0100
0010
0200
,  // measure 101
0000
0001
0302
0000
0003
0000
0000
1000
0200
0000
0320
0000
0130
1000
0001
0200
,  // measure 102
0000
0000
0000
0000
0000
0000
0000
0000
0000
0000
0000
0000
0310
0000
0000
0000
0000
0000
0000
0000
0000
0000
0000
0000
1000
0000
0000
0000
0000
0000
0000
0000
0000
0000
0000
0000
0001
0000
0000
0000
0000
0000
0000
0000
0000
0000
0000
0000
0010
0000
0000
0000
0000
0000
0001
0000
0000
0000
0000
0000
0010
0000
0000
0000
0000
0000
0000
0000
0000
0000
0000
0000
0100
0000
0000
0000
0000
0000
0000
0000
0000
0000
0000
0000
1000
0000
0000
0000
0000
0000
0000
0000
0000
0000
0000
0000
0001
0000
0000
0000
0000
0000
0000
0000
0000
0000
0000
0000
0100
0000
0000
0000
0000
0000
0000
0000
0000
0000
0000
0000
0010
0000
0000
0000
0000
0000
0000
0000
0000
0000
0000
0000
0000
0000
0000
0000
0000
0000
0000
0000
0000
0000
0000
0000
1010
0000
0000
0000
0000
0000
0000
0000
0000
0000
0000
0000
0000
0000
0000
0000
0000
0000
0000
0000
0000
0000
0000
0000
1000
0000
0000
0000
0000
0000
0000
0000
0001
0000
0000
0000
0000
0000
0000
0000
1000
0000
0000
0000
0000
0000
0000
0000
,  // measure 103
0001
0000
0000
0010
0000
0000
0100
0000
0000
0000
0000
0000
1100
0000
0000
0000
0000
0000
1000
0000
0000
0001
0000
0000
0100
0000
0000
0001
0000
0000
1000
0000
0000
0000
0000
0000
1010
0000
0000
0000
0000
0000
0010
0000
0100
0000
0010
0000
,  // measure 104
0100
0001
1000
0000
1100
0000
0100
0000
0110
0000
0010
0000
0010
0000
0011
0000
,  // measure 105
0000
0000
0000
0001
0000
0000
1000
0000
0000
1020
0000
0000
0000
0000
0000
0100
0000
0000
0230
0000
0000
0301
1000
0001
,  // measure 106
1000
0000
0000
0010
0000
0000
0000
0000
0000
1000
0000
0000
0001
0000
0000
0000
0000
0000
1000
0000
0100
0000
0010
0000
0001
0000
0000
0000
0000
0000
0000
0000
0000
0000
0000
0000
1011
0000
0000
0000
0000
0000
0000
0000
0000
0000
0000
0000
,  // measure 107
1000
0000
0010
0000
0100
0000
0001
0000
2002
0000
3003
1000
0200
0000
0310
0002
,  // measure 108
0000
0000
0103
0010
0200
0000
0000
0000
0000
0000
0310
0000
1000
0000
0001
0000
0010
0000
0100
0000
0010
0000
0002
0000
0000
0000
1003
0000
0010
0000
0100
0000
,  // measure 109
0000
0000
0000
0000
0000
0001
0100
0010
2000
0000
3001
0020
0000
0031
2000
0000
,  // measure 110
3020
0000
0000
0000
0000
0000
0130
0000
0000
0001
0000
0000
0000
0000
0000
0000
0000
0000
1000
0000
0000
0100
0000
0000
0110
0000
0000
0010
0000
0000
0001
0000
0000
2001
0000
0000
0000
0000
0000
3001
0010
0001
0010
0000
0000
0210
0000
0000
,  // measure 111
0000
0000
1300
0000
1101
0000
0000
0000
1000
0000
0001
0010
0100
1000
0100
0010
0002
0000
0000
0000
0103
0000
0000
0000
0100
0000
0000
0000
0010
0000
0000
0000
,  // measure 112
2000
0000
0000
0000
3001
0000
0020
0000
0000
0000
0031
1000
0002
0000
0000
0000
,  // measure 113
0003
0100
0010
1000
0001
0010
0100
2000
,  // measure 114
0000
3001
0100
0120
0000
1030
0001
0010
,  // measure 115
0001
0100
0000
0001
1000
0000
0100
0000
0120
0000
0000
0000
0031
0000
2001
0000
,  // measure 116
0000
3010
0200
0300
0102
0000
1003
1200
,  // measure 117
0000
0300
0010
0100
1000
0001
0100
0020
,  // measure 118
0000
0000
0000
1030
0001
1000
0001
0000
0000
0021
0000
0000
0030
0000
0000
0110
0000
0000
1100
0000
0000
1000
0001
1000
,  // measure 119
0001
0000
0100
0000
0010
1000
0001
0000
0010
0000
0100
0000
1000
0000
0002
0000
,  // measure 120
0000
0203
0000
0320
0000
1030
0002
0000
,  // measure 121
0013
0100
0010
0001
1000
0100
0010
0100
,  // measure 122
2000
0000
3001
0200
0000
0301
2000
0000
,  // measure 123
3100
0010
0001
0101
0000
0200
0000
0320
,  // measure 124
0000
2030
0000
3002
0000
0103
0010
0000
,  // measure 125
1000
0100
1000
0040
0000
0000
0000
0000
,  // measure 126
0000
0000
0000
0000
,  // measure 127
0000
0000
0000
0030
;

//---------------dance-single - Medium----------------
#NOTES:
     dance-single:
     Ace Of Hearts (2011 Rewrite):
     Medium:
     6:
     0.374,0.259,0.004,0.592,0.051:
0000
0000
0000
0000
,
0001
0100
0001
0000
2000
0000
3000
0001
,
0010
0000
0000
0002
0000
2003
0000
0000
,
3000
0001
0100
0000
0001
0000
1000
0100
,
0000
1000
0000
0002
0000
0003
0000
0000
,
0000
1000
0010
0000
2000
0000
3001
0020
,
0000
0000
0031
0000
2000
0000
3001
0100
,
0000
0000
0001
1000
0002
0000
0000
2003
,
0000
0000
0000
3010
0000
0100
0100
0000
,
0002
0000
1003
0020
0000
0230
0000
0000
,
0000
0000
0000
0000
,
0300
0001
0000
2000
0000
0000
0000
0000
,
3000
0000
0000
0001
0000
0010
0010
0000
,
0000
0000
0002
0003
,
1000
0000
0001
0020
0000
0031
0000
1000
,
0000
0010
0000
2000
0000
3001
0100
0000
,
0000
0001
0000
2000
0000
3001
0010
0000
,
0000
0000
0001
1000
0001
0000
0000
0000
,
1000
0000
0010
2000
0000
0000
3001
0100
,
0000
0000
0001
0000
1000
0100
1000
0000
,
0001
0000
0100
0000
0002
0000
1003
0100
,
0000
0000
0020
0030
,
0001
0000
1000
0020
0000
1030
0000
0001
,
0000
0010
0000
0002
0000
1003
0100
0000
,
0000
1000
0000
0002
0000
1003
0010
0000
,
0000
0000
0100
0001
0100
0000
0000
0000
,
0001
0000
1000
0200
0000
0000
1300
0001
,
0000
0000
1000
0010
1000
0000
0001
0000
,
0001
0000
0010
0200
0000
0000
0310
0001
,
0000
0000
0000
1000
0020
0000
2030
0000
,
3001
0000
0010
0002
0000
1003
0010
0000
,
0000
0000
0000
1000
0002
0000
0203
0000
,
0310
0000
1000
0002
0000
0000
1003
0100
,
0000
0000
0000
0010
0001
0000
0000
0000
,
2000
0000
3001
0200
0000
0000
0301
1000
,
0000
0000
0000
0010
1000
0020
0000
0130
,
0000
0001
0000
2000
0000
3001
0200
0000
,
0000
0300
0010
0010
,
1000
0001
1000
0000
0020
0000
0030
1000
,
0001
0000
1000
0020
0000
0230
0000
0000
,
0300
0001
1000
0000
0010
0000
1000
0002
,
0000
0000
1003
0010
0000
0000
0000
0000
,
0000
1000
0001
0000
0200
0000
0301
2000
,
0000
3001
0010
0000
0200
0000
1300
0001
,
0000
0000
1000
0000
0010
0000
1000
0002
,
0000
0013
0001
0020
0000
0130
1000
0000
,
0001
0100
0001
0000
2000
0000
3000
0010
,
1000
0000
0001
0020
0000
0130
0200
0000
,
0300
0000
1000
0001
2000
0000
3001
0200
,
0000
0000
0301
2000
0000
3000
0000
0000
,
0000
0001
0010
0000
0002
0000
1003
0020
,
0000
1030
0001
0000
0020
0000
0130
1000
,
0000
0000
0001
0100
0002
0000
1003
0200
,
0000
0000
1300
0002
0000
1003
0010
0000
,
2000
0000
3001
0010
0000
0200
0000
0000
,
0000
0000
0000
0000
,
0300
1000
0000
0002
0000
0000
0000
0000
,
0003
0000
0000
1000
0000
0100
0100
0000
,
0000
0000
0020
0030
,
0100
0000
0010
0002
0000
1003
0000
0010
,
0000
1000
0000
0002
0000
1003
0010
0000
,
0000
1000
0000
0020
0000
0000
0130
0000
,
0000
0000
0001
1000
0001
0000
0000
0000
,
0010
0000
0001
2000
0000
0000
3001
0100
,
0000
0000
0001
0000
2000
0000
3001
0100
,
0000
0010
0100
0000
0002
0000
1003
0100
,
0000
0000
0000
0010
0002
0000
2003
0000
,
3010
0000
1000
0002
0000
1003
0100
0000
,
0000
0000
0000
0010
0002
0000
2003
0000
,
3010
0000
1000
0002
0000
0000
1003
0100
,
0000
0000
0000
1000
0001
0000
0000
0000
,
1000
0000
0001
0200
0000
0301
1000
0001
,
0000
0000
0000
0010
0001
0020
0000
0130
,
0000
1000
0000
0002
0000
1003
0020
0000
,
0000
0030
0100
0100
,
0001
1000
0001
0000
0020
0000
0030
0001
,
2000
0000
3010
0200
0000
0302
0000
0000
,
0003
1000
0010
0000
1000
0000
0001
0020
,
0000
0000
0031
1000
0000
0000
0000
0000
,
0000
0010
1000
0000
0002
0000
1003
0020
,
0000
1030
0001
0000
0020
0000
0031
1000
,
0000
0000
0001
1000
0002
0000
0000
0203
,
0000
0000
0000
0320
0000
1030
1000
0000
,
0001
1000
0001
0000
0200
0000
0300
0001
,
0100
0000
0001
2000
0000
3002
0000
0000
,
0003
1000
0100
0000
0020
0000
0130
1000
,
0000
0002
0000
0103
0000
0000
0000
0000
,
0000
0010
0100
0000
0002
0000
1003
0100
,
0000
0010
0100
0000
2000
0000
3001
0100
,
0000
0000
0001
0100
0002
0000
0000
2003
,
0000
0000
0000
3020
0000
0130
0100
0000
,
0002
0000
1003
0020
0000
2030
0000
0000
,
0000
0000
3000
0000
0000
0000
0000
0000
0001
0000
0000
0020
0000
0000
0031
0000
,
2000
0000
0000
0000
0000
0000
0000
0000
3000
0000
0004
0400
0000
0000
0000
0000
,
0000
0000
0000
0000
,
0303
0000
0000
0000
0000
0000
0000
0000
0000
0000
0004
4000
0000
0000
0000
0000
,
0000
0000
0000
0000
,
3003
0000
0000
0000
0000
0000
0000
0000
1000
0000
0000
0100
0000
0000
0020
0000
,
0000
0000
0031
0000
0000
0000
1000
0000
0002
0000
0000
1003
0000
0000
0100
0000
,
0020
0000
0000
0000
0230
0000
0000
0000
1300
0000
1000
0000
1000
0000
0001
0020
,
0000
0130
1000
0000
0000
0000
0000
0001
0010
0000
0010
0000
0010
0000
0100
2000
,
0000
0000
3001
0010
0000
0000
0000
0001
2000
0000
0000
0000
3000
0000
0000
0000
,
0010
0000
1000
0002
0000
0000
1003
0100
,
0000
0000
0000
1000
0001
0020
0000
0031
,
0000
1000
0000
0020
0000
1030
0002
0000
,
0000
0003
1000
1000
,
0001
0000
0100
0000
0001
0000
0000
0000
2000
0000
3000
0001
0010
0000
0001
1000
,
0000
0200
0000
0300
0000
0010
0001
0000
2000
0000
3001
0200
0000
0000
0301
1000
,
0000
0000
0000
0000
0000
0001
0010
0000
0002
0000
1003
0020
0000
1030
0001
0000
,
2000
0000
3001
0100
0000
0000
0001
0100
0002
0000
0000
2003
0000
0000
0000
3020
,
0000
0030
0110
0000
0100
0001
0100
0000
0020
0000
0000
0000
0030
0000
1000
0000
,
0001
0000
1000
0020
0000
2030
0000
0000
,
3000
0001
0010
0000
0002
0000
1003
0020
,
0000
0000
1030
0001
0000
0000
0000
0000
,
0000
1000
0100
0000
0020
0000
0130
2000
,
0000
3001
0100
0000
0002
0000
1003
0010
,
0000
0000
1000
0010
2000
0000
0000
3002
,
0000
0000
0000
0023
0000
0130
0100
0000
,
2000
0000
3001
0010
0000
0100
0000
0010
,
0000
0001
0000
2000
0000
3001
0020
0000
,
0031
0000
1000
0000
0010
1000
0010
0000
,
2000
0000
3001
0200
0000
0301
1000
0000
,
0001
0000
1000
0010
0000
0200
0000
0301
,
0000
2000
0000
3020
0000
1030
0001
0000
,
2000
0000
3001
0020
0000
0000
0000
0000
,
0000
0000
0000
0000
,
0000
0000
0000
0030
;

//---------------dance-single - Easy----------------
#NOTES:
     dance-single:
     Ace Of Hearts (2011 Rewrite):
     Easy:
     3:
     0.163,0.129,0.004,0.131,0.000:
0000
0000
0000
0000
,
0001
0001
0001
0000
,
0010
0000
0020
0000
,
0030
0000
0001
0001
,
0001
0000
1000
0000
,
0000
0000
0010
0000
,
0010
0000
0100
0000
,
0100
0000
0001
0001
,
0001
0000
1000
0000
,
0010
0010
0020
0000
,
0000
0000
0000
0000
,
0000
0000
0030
0000
,
0000
0000
1000
1000
,
0000
0000
0002
0003
,
0010
0000
0010
0000
,
0010
0000
0010
0010
,
0000
0100
0100
0100
,
0000
1000
1000
0000
,
0001
0000
0002
0000
,
0003
0000
1000
1000
,
1000
0000
0020
0000
,
0030
0000
2000
3000
,
0001
0000
0001
0000
,
0001
0000
0001
0001
,
0000
0100
0100
0100
,
0000
0010
0010
0000
,
1000
0000
2000
0000
,
3000
0000
0001
0000
,
0001
0000
0002
0000
,
0003
0000
0010
0010
,
0010
0000
0002
0000
,
0003
0000
1000
1000
,
1000
0000
0200
0000
,
0300
0000
0010
0000
,
0001
0000
0001
0001
,
0001
0000
1000
1000
,
1000
0000
0020
0000
,
0000
0000
0030
0000
,
1000
1000
1000
0000
,
0001
0000
0002
0000
,
0003
0000
0100
0100
,
0100
0000
0100
0000
,
0000
0000
0010
0000
,
0010
0000
1000
0000
,
1000
0000
0001
0001
,
0001
0000
1000
0000
,
0010
0010
0010
0000
,
0100
0000
0200
0000
,
0300
0000
0001
0001
,
0001
0000
1000
0000
,
0000
0000
0010
0000
,
0010
0000
0100
0000
,
0100
0000
0001
0001
,
0001
0000
1000
0000
,
0010
0000
0020
0000
,
0000
0000
0000
0000
,
0000
0000
0030
0000
,
0000
0000
1000
1000
,
0000
0000
0002
0003
,
1000
0000
1000
0000
,
1000
0000
1000
1000
,
0000
0010
0010
0010
,
0000
0100
0100
0000
,
0001
0000
0002
0000
,
0003
0000
1000
1000
,
1000
0000
0020
0000
,
0030
0000
0100
0100
,
0100
0000
0002
0000
,
0003
0000
1000
1000
,
1000
0000
0200
0000
,
0300
0000
0010
0000
,
0001
0000
0001
0001
,
0001
0000
1000
1000
,
1000
0000
0020
0000
,
0000
0000
0030
0000
,
0100
0100
0100
0000
,
0001
0000
0002
0000
,
0003
0000
1000
1000
,
1000
0000
0100
0000
,
0000
0000
0010
0000
,
0010
0000
0001
0000
,
0001
0000
1000
1000
,
1000
0000
0001
0000
,
0010
0010
0010
0000
,
0100
0000
0200
0000
,
0300
0000
0010
0010
,
0010
0000
0001
0000
,
0000
0000
1000
0000
,
1000
0000
0010
0000
,
0010
0000
0100
0100
,
0100
0000
0001
0000
,
1000
0000
2000
0000
,
3000
0000
0001
0001
,
0001
0000
0000
0040
,
0000
0000
0030
0000
,
0000
0000
0004
0000
,
0000
0000
0003
0000
,
0000
0000
2000
0000
,
3000
0000
0020
0000
,
0030
0000
1000
1000
,
1000
0000
0010
0010
,
0010
0000
1000
0000
,
0001
0000
0001
0000
,
0001
0000
0010
0010
,
0010
0000
0002
0000
,
0000
0000
0003
0000
,
1000
1000
1000
0010
,
0020
0030
1000
1000
,
1000
0000
0001
0001
,
0010
0010
0002
0003
,
1001
0000
1000
1000
1000
0000
0000
0000
,
0010
0000
0020
0000
,
0030
0000
0100
0100
,
0100
0000
0001
0000
,
0000
0000
1000
0000
,
1000
0000
0100
0000
,
0100
0000
0010
0010
,
0010
0000
0001
0000
,
1000
0000
1000
1000
,
1000
0000
0020
0000
,
0030
0000
0100
0100
,
0100
0000
0002
0000
,
0003
0000
1000
0000
,
0100
0000
1000
1000
,
1000
0000
0020
0000
,
0000
0000
0000
0000
,
0000
0000
0000
0030
;

//---------------dance-single - Novice----------------
#NOTES:
     dance-single:
     Ace Of Hearts (2011 Rewrite):
     Beginner:
     1:
     0.104,0.078,0.004,0.106,0.000:
0000
0000
0000
0000
,
0000
0000
0001
0000
,
0001
0000
0001
0000
,
0000
0000
1000
0000
,
1000
0000
1000
0000
,
0000
0000
0100
0000
,
0000
0000
0100
0000
,
0000
0000
0020
0000
,
0000
0000
0030
0000
,
0001
0000
0002
0000
,
0000
0000
0000
0000
,
0000
0000
0003
0000
,
0000
0000
1000
0000
,
0000
0000
0010
0000
,
0000
0000
1000
0000
,
1000
0000
1000
0000
,
0000
0000
0001
0000
,
0000
0000
0010
0000
,
0010
0000
0010
0000
,
0000
0000
0001
0000
,
0001
0000
0001
0000
,
0000
0000
1000
0000
,
0000
0000
0010
0000
,
0010
0000
0010
0000
,
0000
0000
0100
0000
,
0000
0000
0001
0000
,
0001
0000
0001
0000
,
0000
0000
0010
0000
,
0010
0000
0010
0000
,
0000
0000
0100
0000
,
0100
0000
0100
0000
,
0000
0000
1000
0000
,
1000
0000
1000
0000
,
0000
0000
0001
0000
,
0000
0000
0100
0000
,
0000
0000
0010
0000
,
0010
0000
0020
0000
,
0000
0000
0030
0000
,
1000
0000
1000
0000
,
2000
0000
3000
0000
,
0000
0000
0010
0000
,
0010
0000
0010
0000
,
0000
0000
0100
0000
,
0000
0000
0001
0000
,
0000
0000
2000
0000
,
0000
0000
3000
0000
,
0010
0000
0010
0000
,
0020
0000
0030
0000
,
0000
0000
1000
0000
,
1000
0000
1000
0000
,
0000
0000
0001
0000
,
0001
0000
0002
0000
,
0003
0000
0200
0000
,
0000
0000
0300
0000
,
0010
0000
0020
0000
,
0000
0000
0000
0000
,
0000
0000
0030
0000
,
0000
0000
0100
0000
,
0000
0000
0001
0000
,
0000
0000
1000
0000
,
1000
0000
1000
0000
,
0000
0000
0100
0000
,
0000
0000
0010
0000
,
0000
0000
0001
0000
,
0000
0000
1000
0000
,
1000
0000
1000
0000
,
0000
0000
0010
0000
,
0010
0000
0010
0000
,
0000
0000
0100
0000
,
0100
0000
0100
0000
,
0000
0000
0001
0000
,
0001
0000
0002
0000
,
0003
0000
0100
0000
,
0100
0000
0200
0000
,
0000
0000
0300
0000
,
0001
0000
0001
0000
,
0002
0000
0003
0000
,
0000
0000
1000
0000
,
1000
0000
1000
0000
,
0000
0000
0010
0000
,
0000
0000
0100
0000
,
0000
0000
0002
0000
,
0000
0000
0003
0000
,
1000
0000
1000
0000
,
2000
0000
3000
0000
,
0000
0000
0010
0000
,
0010
0000
0010
0000
,
0000
0000
0100
0000
,
0000
0000
0001
0000
,
0000
0000
2000
0000
,
0000
0000
3000
0000
,
0001
0000
0002
0000
,
0000
0000
0003
0000
,
0000
0000
0000
4000
,
0000
0000
3000
0000
,
0000
0000
0000
0040
,
0000
0000
0030
0000
,
0000
0000
2000
0000
,
3000
0000
0002
0000
,
0003
0000
0020
0000
,
0030
0000
0002
0000
,
0003
0000
1000
0000
,
1000
0000
1000
0000
,
0000
0000
0100
0000
,
0100
0000
0200
0000
,
0000
0000
0300
0000
,
0010
0000
0010
0020
,
0030
0000
0001
0001
,
0001
0000
1000
0000
,
0001
0000
2000
3000
,
1001
0000
0001
0000
,
0001
0000
0002
0000
,
0003
0000
0100
0000
,
0100
0000
0100
0000
,
0000
0000
0010
0000
,
0000
0000
1000
0000
,
0000
0000
0002
0000
,
0000
0000
0003
0000
,
1000
0000
1000
0000
,
1000
0000
1000
0000
,
0000
0000
0100
0000
,
0100
0000
0100
0000
,
0000
0000
0010
0000
,
0010
0000
0010
0000
,
0001
0000
0002
0000
,
0000
0000
0000
0000
,
0000
0000
0000
0003
;
