#TITLE:Every Morning;
#SUBTITLE:;
#ARTIST:N.D. Lee;
#TITLETRANSLIT:;
#SUBTITLETRANSLIT:;
#ARTISTTRANSLIT:;
#GENRE:;
#CREDIT:Ace Of Hearts;
#BANNER:Every Morning - bn.png;
#BACKGROUND:Every Morning - bg.png;
#LYRICSPATH:;
#CDTITLE:Ace Of Hearts.png;
#MUSIC:Every Morning.ogg;
#OFFSET:0.960;
#SAMPLESTART:58.800;
#SAMPLELENGTH:12.000;
#SELECTABLE:YES;
#BPMS:0.000=149.970,216.000=74.985,222.000=149.970,286.000=74.985,292.000=149.970;
#STOPS:;
#BGCHANGES:0.250=Every Morning Video.avi=1.000=0=0=1=====,
99999=-nosongbg-=1.000=0=0=0 // don't automatically add -songbackground-
;
#FGCHANGES:;
#KEYSOUNDS:;

//---------------dance-single - Hardcore Morning Person----------------
#NOTES:
     dance-single:
     Ace Of Hearts (2011):
     Challenge:
     9:
     0.687,0.000,0.181,0.620,0.147: // measure 1
0000
0000
0000
0000
,  // measure 2
0000
0000
0000
0000
,  // measure 3
0000
0000
0000
0000
,  // measure 4
0000
0000
0000
0201
,  // measure 5
0310
0000
0010
0000
1000
0000
1000
0000
0001
0000
0001
0000
0010
0001
0010
0001
,  // measure 6
2000
3010
0100
0002
0000
1003
0100
0010
,  // measure 7
0000
0100
1000
0001
1000
0001
0010
0100
,  // measure 8
2000
0000
3001
0101
0000
0100
0010
2000
,  // measure 9
0000
3001
0010
0001
1000
0100
0010
0001
,  // measure 10
2001
0000
3010
0110
0000
0100
0001
2000
,  // measure 11
0000
3100
1000
0001
0010
0001
1000
0100
,  // measure 12
2000
0000
3001
0011
0000
0010
0100
2000
,  // measure 13
0000
0000
3001
0000
0010
0000
0001
0000
1000
0000
0010
0000
0100
0001
0100
0001
,  // measure 14
2000
0000
3000
0000
0001
0010
0001
1000
,  // measure 15
0020
0000
2030
0000
3001
0010
0100
2000
,  // measure 16
0000
3001
0010
0001
1000
0010
0100
0001
,  // measure 17
1000
0100
0010
0100
1000
0001
0100
0010
,  // measure 18
2010
0000
3000
0001
0100
0010
0100
0001
,  // measure 19
1000
0100
0010
0002
0000
1003
0010
0100
,  // measure 20
0000
0000
0001
1000
0100
0010
0100
2100
,  // measure 21
0000
0000
3001
0000
0100
0000
0100
0000
0010
0000
0010
0000
0100
0001
0100
0001
,  // measure 22
2000
0000
0000
0000
3001
0100
0010
1000
,  // measure 23
0002
0000
0013
0100
0010
0001
1000
0020
,  // measure 24
0000
1030
0001
0100
0010
1000
0001
0010
,  // measure 25
0001
1000
0010
0100
0001
1000
0100
0010
,  // measure 26
0012
0000
1003
0000
0010
0200
0000
0310
,  // measure 27
0000
1000
0000
0002
0000
0013
0100
1000
,  // measure 28
0000
0000
0001
0100
0010
0100
0001
2000
,  // measure 29
0000
0000
3001
0000
0100
0000
0100
0000
0010
0000
0010
0000
1000
0001
1000
0001
,  // measure 30
1000
0010
0100
0101
0000
0001
0100
0110
,  // measure 31
0000
0010
1000
1010
0000
1000
0001
0010
,  // measure 32
0100
0010
0001
1000
0010
0100
0001
1000
,  // measure 33
0100
1000
0010
0100
,  // measure 34
0000
0001
1000
1100
0000
0100
0010
0110
,  // measure 35
0000
0010
0001
0011
0000
0001
1000
0020
,  // measure 36
0000
1030
0001
0010
0100
1000
0001
0200
,  // measure 37
0000
0000
0310
0000
1000
0000
0001
0000
0100
0000
0010
0000
0100
0001
0100
0001
,  // measure 38
1000
0000
0000
0001
0010
0001
1000
0010
,  // measure 39
0210
0000
0302
0000
1003
0010
0100
0002
,  // measure 40
0000
1003
0100
1000
0001
0100
0010
1000
,  // measure 41
0200
0000
0320
0000
0031
0010
0100
2000
,  // measure 42
0000
3000
0001
0100
0010
1000
0001
0020
,  // measure 43
0000
0130
0010
0001
1000
0010
0100
0002
,  // measure 44
0000
2003
0000
3100
0010
0100
1000
0002
,  // measure 45
0000
1003
0010
0200
0000
0301
1000
0200
,  // measure 46
0000
0000
0310
0000
0100
0000
1000
0000
0001
0000
1000
0000
0010
1000
0010
1000
,  // measure 47
0002
0000
0013
0100
0010
0001
1000
0020
,  // measure 48
0000
0130
0001
1000
0100
1000
0001
0100
,  // measure 49
0010
1000
0002
0000
0013
0100
1000
0200
,  // measure 50
0000
0310
0100
1000
0001
0100
0010
2000
,  // measure 51
0000
3001
0010
0001
1000
0010
0000
0200
,  // measure 52
0000
0310
1000
0001
0010
0100
0010
0002
,  // measure 53
0000
1003
0100
0020
0000
0130
1000
0002
,  // measure 54
0000
0000
0103
0000
0010
0000
0010
0000
1000
0000
1000
0000
0001
0010
0001
0010
,  // measure 55
0200
0000
0000
0000
1300
0000
0001
0000
0021
0000
0000
0130
1000
0000
0000
0000
1002
0000
0000
0000
0003
0000
0000
0000
0201
0000
0000
0000
0300
0000
0010
0100
,  // measure 56
0010
0000
1000
0001
1000
0000
0010
0000
1000
0001
1000
0000
0100
0000
0010
0000
0002
0000
0000
0000
0000
0000
0000
0000
2003
0000
0000
0000
0000
0000
0000
0000
,  // measure 57
3010
0100
0001
0200
0000
0310
1000
0001
,  // measure 58
0010
0100
1000
0100
0020
0000
0032
0000
,  // measure 59
1003
0010
0100
0020
0000
1030
0001
0010
,  // measure 60
0100
0010
0001
2000
0000
3010
0100
0010
,  // measure 61
1000
0001
0100
0020
0000
0130
0001
1000
,  // measure 62
0100
0010
0100
2000
0000
3001
0100
0010
,  // measure 63
1000
0010
0100
0002
0000
1003
0010
0010
,  // measure 64
1000
0000
1000
0000
0001
0010
0001
0010
0200
0000
0000
0000
2300
0000
0000
0000
,  // measure 65
3001
0100
0010
0200
0000
0301
1000
0100
,  // measure 66
0010
0001
0010
0100
2000
0000
3002
0000
,  // measure 67
0103
0010
1000
0002
0000
1003
0100
0010
,  // measure 68
0100
1000
0001
0200
0000
0310
1000
0001
,  // measure 69
0010
0001
1000
0020
0000
0130
0001
1000
,  // measure 70
0100
0010
0100
2000
0000
3001
0100
0020
,  // measure 71
0000
1030
0001
0020
0000
0130
0010
0010
,  // measure 72
0001
0000
0000
0000
0001
0000
0000
0000
1000
0000
0010
0000
1000
0000
0010
0000
0200
0000
0000
0000
0000
0000
0301
0000
2001
0000
0000
3001
0010
0000
0000
0000
,  // measure 73
0210
0000
0000
0000
0300
0000
0000
0000
2100
0000
0000
0000
3000
0000
0001
0010
0002
0000
0000
1003
0100
0000
0000
0000
0120
0000
0000
0000
0030
0000
0000
0000
,  // measure 74
0002
0000
0000
0000
0003
1000
0100
0010
,  // measure 75
0000
0100
1000
0001
1000
0010
0100
0001
,  // measure 76
2000
0000
3010
0110
0000
0100
0001
1000
,  // measure 77
0000
0000
0100
0000
0010
0000
0001
0000
0010
0000
0100
0000
1000
0001
1000
0001
,  // measure 78
0200
0000
0000
0000
0301
0000
1000
0000
0200
0000
0000
1300
0001
0000
0000
0000
,  // measure 79
0100
0000
0010
0000
1000
0001
1000
0000
0010
0000
0100
0001
0100
0000
0020
0000
,  // measure 80
0000
0000
0000
0000
0000
0000
0000
0000
0000
0000
1030
0001
1000
0000
1001
0000
;

//---------------dance-single - Early Riser----------------
#NOTES:
     dance-single:
     Ace Of Hearts (2011):
     Hard:
     7:
     0.523,0.000,0.008,0.620,0.023: // measure 1
0000
0000
0000
0000
,  // measure 2
0000
0000
0000
0000
,  // measure 3
0000
0000
0000
0000
,  // measure 4
0000
0000
0000
0000
,  // measure 5
0000
0001
0010
0000
0001
1000
0001
0000
,  // measure 6
2000
0000
0000
0000
3000
0001
0010
0001
,  // measure 7
0000
1000
0100
0010
0001
0010
0100
1000
,  // measure 8
0000
0000
0000
0000
0000
0001
0100
0001
,  // measure 9
0000
1000
0010
0100
0001
0100
0010
1000
,  // measure 10
0000
0000
0000
0000
0000
0001
1000
0001
,  // measure 11
0000
1000
0100
0010
0001
0010
0100
1000
,  // measure 12
0000
0000
0000
0000
0000
0001
0010
0001
,  // measure 13
0000
1000
0010
0100
0001
0100
0010
1000
,  // measure 14
0000
0000
0000
0000
0001
0010
0100
0010
,  // measure 15
0002
0000
2003
0000
3001
0010
0100
2000
,  // measure 16
0000
3000
0000
0001
0010
0100
1000
0100
,  // measure 17
0010
0001
1000
0001
0010
0100
1000
0002
,  // measure 18
0000
0003
0000
1000
0010
0100
0001
0100
,  // measure 19
0010
1000
0001
2000
0000
3001
0010
0001
,  // measure 20
0000
0000
1000
0100
0010
0001
0010
0200
,  // measure 21
0000
2000
0000
0000
0000
0000
0000
0000
,  // measure 22
3300
0000
0000
0000
1000
0001
0100
0010
,  // measure 23
2000
0000
3001
0100
0010
0100
0001
2000
,  // measure 24
0000
3000
0000
0010
1000
0010
1000
0001
,  // measure 25
0010
0100
1000
0001
0010
0001
1000
0100
,  // measure 26
0000
0000
0010
0000
0100
2000
0000
3002
,  // measure 27
0000
1003
0000
0020
0000
1030
0001
0010
,  // measure 28
0000
0000
0001
0010
0001
1000
0001
0200
,  // measure 29
0000
0301
1000
0001
0010
0100
2000
0000
,  // measure 30
3000
0001
0010
0100
0000
0010
0100
0010
,  // measure 31
0000
0100
0010
0001
0000
1000
0010
0100
,  // measure 32
0001
0100
0010
1000
0001
0010
0100
1000
,  // measure 33
0002
0000
0013
0200
0000
0000
0000
0000
,  // measure 34
0300
1000
0010
0100
0000
0010
0100
0010
,  // measure 35
0000
0100
0001
1000
0000
0001
0010
0002
,  // measure 36
0000
1003
0010
0100
0001
0100
0010
2000
,  // measure 37
0000
0000
0000
3000
,  // measure 38
1001
0000
0000
0001
0100
0010
0100
0001
,  // measure 39
2000
0000
3200
0000
0300
0010
0100
2000
,  // measure 40
0000
0000
3000
0001
0100
0010
1000
0001
,  // measure 41
2000
0000
3200
0000
1300
0100
0010
0002
,  // measure 42
0000
0003
0000
1000
0010
1000
0010
0200
,  // measure 43
0000
0301
1000
0001
0020
0000
0031
2000
,  // measure 44
0000
3001
0000
0010
0001
1000
0010
0200
,  // measure 45
0000
0302
0000
2003
0000
3100
0010
0200
,  // measure 46
0000
2300
0000
3001
0100
0010
1000
0001
,  // measure 47
2000
0000
3002
0000
0003
0010
0100
2000
,  // measure 48
0000
3000
0000
0001
0100
0010
1000
0001
,  // measure 49
0020
0000
0230
0000
0300
0010
0001
2000
,  // measure 50
0000
3000
0000
0010
1000
0001
0100
0020
,  // measure 51
0000
1030
0010
0100
0001
1000
0000
0002
,  // measure 52
0000
0013
0001
1000
0010
0100
0010
2000
,  // measure 53
0000
3001
0000
0020
0000
0031
1000
0020
,  // measure 54
0000
0130
0000
0000
0001
0100
0001
1000
,  // measure 55
0002
0200
0000
0000
0000
0000
0000
0000
,  // measure 56
0303
0000
0000
0100
0001
1000
0001
1000
0020
0000
0000
0000
0230
0000
0000
0000
,  // measure 57
0300
0001
1000
0020
0000
0030
0000
1000
,  // measure 58
0001
0010
0100
0010
0002
0000
2003
0000
,  // measure 59
3000
0010
0100
0002
0000
0003
0000
1000
,  // measure 60
0010
0100
0001
2000
0000
3001
0010
0100
,  // measure 61
1000
0100
0010
0002
0000
2003
0000
3010
,  // measure 62
0100
0010
1000
0002
0000
0023
0000
0230
,  // measure 63
0000
1300
0001
2000
0000
3020
0000
0130
,  // measure 64
0010
1000
0001
0010
0200
0000
2300
0000
,  // measure 65
3000
0001
0100
0020
0000
0030
0000
1000
,  // measure 66
0001
0010
0001
1000
0020
0000
0230
0000
,  // measure 67
0300
0001
1000
0020
0000
0030
0000
1000
,  // measure 68
0001
0010
0001
2000
0000
3010
1000
0001
,  // measure 69
0010
0100
0000
0020
0000
0031
1000
0010
,  // measure 70
0100
0010
1000
0002
0000
0203
0000
0320
,  // measure 71
0000
1030
0001
0020
0000
0032
0000
0003
,  // measure 72
1000
0010
0100
0001
2000
0200
0000
0000
,  // measure 73
0000
0000
0000
0000
0000
0000
0000
0000
3300
0000
0000
1000
0001
0100
0001
1000
,  // measure 74
0002
0000
0023
0000
0030
0001
0100
0010
,  // measure 75
0000
1000
0010
0100
0010
1000
0001
0100
,  // measure 76
0000
0000
0000
0000
0000
0001
1000
0010
,  // measure 77
0000
1000
0001
1000
0001
0010
0100
1000
,  // measure 78
0002
0203
0320
2030
,  // measure 79
3000
0001
0000
0010
0000
0001
0000
2000
,  // measure 80
0000
0000
0000
0000
0000
3000
0001
0100
;

//---------------dance-single - Coffee Kick-Starter----------------
#NOTES:
     dance-single:
     Ace Of Hearts (2011):
     Medium:
     5:
     0.355,0.000,0.000,0.453,0.000: // measure 1
0000
0000
0000
0000
,  // measure 2
0000
0000
0000
0000
,  // measure 3
0000
0000
0000
0000
,  // measure 4
0000
0000
0000
0000
,  // measure 5
0000
0000
0000
0000
,  // measure 6
0000
0000
0000
0000
0000
0000
0001
1000
,  // measure 7
0000
0001
0100
0000
0001
0000
1000
0000
,  // measure 8
0000
0000
0000
0000
0000
0000
0100
1000
,  // measure 9
0000
0001
1000
0000
0001
0000
0100
0000
,  // measure 10
0000
0000
0000
0000
0000
0000
0010
1000
,  // measure 11
0000
0001
0100
0000
0001
0000
1000
0000
,  // measure 12
0000
0000
0000
0000
0000
0000
0001
0010
,  // measure 13
0000
0001
1000
0000
0001
0000
0100
0000
,  // measure 14
0000
0000
0001
0001
,  // measure 15
0010
0000
0010
0000
0001
0000
1000
0002
,  // measure 16
0000
0003
0000
1000
0010
0000
1000
0000
,  // measure 17
0001
0000
0001
0000
0010
0000
0100
2000
,  // measure 18
0000
3000
0000
0001
0100
0000
0001
0000
,  // measure 19
1000
0000
1000
0000
0010
0000
1000
0001
,  // measure 20
0000
0000
1000
0000
0100
0000
0010
0002
,  // measure 21
0000
2000
0000
0000
0000
0000
0000
0000
,  // measure 22
3003
0000
1000
0010
,  // measure 23
1000
0000
1000
0000
0001
0000
1000
0020
,  // measure 24
0000
0030
0000
1000
0010
0000
1000
0000
,  // measure 25
0001
0000
0010
0000
0001
0000
1000
0020
,  // measure 26
0000
0000
2030
0000
3001
0010
0000
0001
,  // measure 27
0000
1000
0000
0002
0000
0000
1003
0010
,  // measure 28
0000
0000
1000
0002
0000
0000
1003
0200
,  // measure 29
0000
1300
0001
0000
0010
0000
0001
0000
,  // measure 30
0000
1000
0010
1000
0000
0010
0100
0010
,  // measure 31
0000
0100
0001
0100
0000
0000
0001
0000
,  // measure 32
1000
0000
0001
0000
0010
0001
0000
1000
,  // measure 33
0020
0000
0000
2030
0000
0000
3000
0000
,  // measure 34
0000
0001
0010
0001
0000
0010
0100
0010
,  // measure 35
0000
0100
1000
0100
0000
0000
1000
0000
,  // measure 36
0002
0000
1003
0000
0010
0000
0200
0002
,  // measure 37
0000
0000
0000
0000
,  // measure 38
0303
0000
0000
1000
0010
0000
1000
0000
,  // measure 39
0002
0000
0203
0000
0000
0000
0301
2000
,  // measure 40
0000
3000
0000
0001
0010
0000
0001
0000
,  // measure 41
1000
0000
0200
0000
0000
0000
1300
0002
,  // measure 42
0000
0003
0000
1000
0010
0000
1000
0000
,  // measure 43
0001
0000
0100
0000
0001
0000
1000
0020
,  // measure 44
0000
1030
0000
0001
0010
0000
0001
2000
,  // measure 45
0000
3010
0000
2000
0000
3001
0000
0020
,  // measure 46
0000
0130
0000
0000
0010
0000
0001
0000
,  // measure 47
2000
0000
3020
0000
0000
0000
1030
0002
,  // measure 48
0000
0003
0000
1000
0010
0000
1000
0000
,  // measure 49
0002
0000
0023
0000
0000
0000
0031
2000
,  // measure 50
0000
3000
0000
0001
0100
0000
0001
0000
,  // measure 51
1000
0000
0001
0000
0010
0001
0000
2000
,  // measure 52
0000
3001
0100
0000
0010
0000
1000
0002
,  // measure 53
0000
0103
0000
0001
0000
1000
0000
0020
,  // measure 54
0000
1030
0000
0000
0001
0000
0010
0000
,  // measure 55
0200
0000
0000
0000
,  // measure 56
0300
0000
1000
0001
2000
0000
3020
0000
,  // measure 57
0000
0000
1030
0002
0000
0003
0000
0010
,  // measure 58
0001
1000
0002
0203
,  // measure 59
0300
0000
0001
2000
0000
3000
0000
0001
,  // measure 60
0020
0000
0031
1000
0000
0001
0010
0000
,  // measure 61
0001
0000
1000
0020
0000
1030
0000
0001
,  // measure 62
0020
0000
0031
2000
0000
3010
0000
2000
,  // measure 63
0000
3001
0000
0020
0000
0031
0000
0000
,  // measure 64
1000
0010
1000
0002
,  // measure 65
0000
0000
1003
0020
0000
0030
0000
1000
,  // measure 66
0001
0010
0002
2003
,  // measure 67
3000
0000
0001
0200
0000
0300
0000
0000
,  // measure 68
0001
1000
0100
1000
,  // measure 69
0001
1000
0000
0020
0000
1030
0001
0000
,  // measure 70
1000
0000
0001
0200
0000
0301
0000
2000
,  // measure 71
0000
3001
0000
0020
0000
0130
0000
0000
,  // measure 72
0010
0001
2000
0000
,  // measure 73
0000
0000
0000
0000
3000
0000
0010
1000
,  // measure 74
0020
0000
0230
0000
0000
0000
0301
1000
,  // measure 75
0000
0001
0010
0000
0001
0000
1000
0000
,  // measure 76
0000
0000
0000
0000
0000
0000
0001
0010
,  // measure 77
0000
0001
1000
0000
0010
0000
1000
0000
,  // measure 78
0002
0000
0000
0003
,  // measure 79
0000
1000
0000
1000
0000
1000
0000
0020
,  // measure 80
0000
0000
0000
0000
0000
0000
1030
0001
;

//---------------dance-single - Snooze Button User----------------
#NOTES:
     dance-single:
     Ace Of Hearts (2011):
     Easy:
     3:
     0.192,0.000,0.000,0.121,0.000: // measure 1
0000
0000
0000
0000
,  // measure 2
0000
0000
0000
0000
,  // measure 3
0000
0000
0000
0000
,  // measure 4
0000
0000
0000
0000
,  // measure 5
0000
0000
0000
0000
,  // measure 6
0000
0000
0000
0001
,  // measure 7
0001
0001
0001
0000
,  // measure 8
0000
0000
0000
1000
,  // measure 9
1000
1000
1000
0000
,  // measure 10
0000
0000
0000
0010
,  // measure 11
0010
0010
0010
0000
,  // measure 12
0000
0000
0000
1000
,  // measure 13
1000
1000
1000
0000
,  // measure 14
0000
0000
0001
0001
,  // measure 15
0001
0000
0100
0000
,  // measure 16
0100
0000
0010
0010
,  // measure 17
0010
0000
1000
0000
,  // measure 18
1000
0000
0001
0001
,  // measure 19
0001
0000
0010
0000
,  // measure 20
0010
0000
0001
0001
,  // measure 21
0002
0000
0000
0000
,  // measure 22
0003
0000
1000
1000
,  // measure 23
1000
0000
0010
0000
,  // measure 24
0010
0000
0100
0100
,  // measure 25
0100
0000
0001
0000
,  // measure 26
0001
0000
1000
0000
,  // measure 27
1000
0000
0010
0000
,  // measure 28
0010
0000
0010
0000
,  // measure 29
0100
0100
0100
0000
,  // measure 30
0000
0001
0001
1000
,  // measure 31
1000
0010
0010
0000
,  // measure 32
1000
1000
1000
0000
,  // measure 33
0002
0000
0003
0000
,  // measure 34
0000
0010
0010
0001
,  // measure 35
0001
1000
1000
0000
,  // measure 36
0010
0000
0010
0000
,  // measure 37
0020
0000
0000
0000
,  // measure 38
0030
0000
1000
1000
,  // measure 39
2000
0000
3000
0000
,  // measure 40
0001
0000
0010
0010
,  // measure 41
0020
0000
0030
0000
,  // measure 42
0100
0000
1000
0000
,  // measure 43
1000
0000
0001
0000
,  // measure 44
0001
0000
0010
0000
,  // measure 45
0010
0000
0001
0001
,  // measure 46
0001
0000
1000
1000
,  // measure 47
2000
0000
3000
0000
,  // measure 48
0010
0000
0100
0100
,  // measure 49
0200
0000
0300
0000
,  // measure 50
0001
0000
1000
0000
,  // measure 51
1000
0000
0010
0000
,  // measure 52
0010
0000
0100
0000
,  // measure 53
0100
0000
0001
0001
,  // measure 54
0001
0000
1000
1000
,  // measure 55
2000
0000
0000
0000
,  // measure 56
3000
0001
0002
0000
,  // measure 57
0003
0000
1000
0000
,  // measure 58
0100
0100
0200
0000
,  // measure 59
0300
0000
0010
0000
,  // measure 60
0001
0001
0001
0000
,  // measure 61
1000
0000
1000
0000
,  // measure 62
0010
0000
0010
0000
,  // measure 63
0100
0100
0100
0000
,  // measure 64
0001
0001
0002
0000
,  // measure 65
0003
0000
1000
0000
,  // measure 66
0001
0001
0002
0000
,  // measure 67
0003
0000
0010
0000
,  // measure 68
0100
0000
0100
0000
,  // measure 69
1000
0000
0001
0001
,  // measure 70
0001
0000
1000
0000
,  // measure 71
0010
0000
0010
0000
,  // measure 72
0100
0100
0200
0000
,  // measure 73
0000
0000
0300
0001
,  // measure 74
0002
0000
0003
1000
,  // measure 75
1000
1000
1000
0000
,  // measure 76
0000
0000
0000
0010
,  // measure 77
0010
0010
0010
0000
,  // measure 78
2000
0000
0000
3000
,  // measure 79
0000
0001
0000
0001
0000
0001
0000
0002
,  // measure 80
0000
0000
0000
0000
0003
0000
1000
1000
;

//---------------dance-single - Lazy Bum----------------
#NOTES:
     dance-single:
     Ace Of Hearts (2011):
     Beginner:
     1:
     0.132,0.000,0.000,0.189,0.000: // measure 1
0000
0000
0000
0000
,  // measure 2
0000
0000
0000
0000
,  // measure 3
0000
0000
0000
0000
,  // measure 4
0000
0000
0000
0000
,  // measure 5
0000
0000
0000
0000
,  // measure 6
0000
0000
0000
0000
,  // measure 7
0002
0000
0003
0000
,  // measure 8
0000
0000
0000
0000
,  // measure 9
2000
0000
3000
0000
,  // measure 10
0000
0000
0000
0000
,  // measure 11
0020
0000
0030
0000
,  // measure 12
0000
0000
0000
0000
,  // measure 13
0200
0000
0300
0000
,  // measure 14
0000
0000
0001
0000
,  // measure 15
0001
0000
0001
0000
,  // measure 16
0001
0000
1000
0000
,  // measure 17
1000
0000
1000
0000
,  // measure 18
1000
0000
0010
0000
,  // measure 19
0010
0000
0010
0000
,  // measure 20
0010
0000
0100
0000
,  // measure 21
0200
0000
0000
0000
,  // measure 22
0300
0000
0001
0000
,  // measure 23
0001
0000
0001
0000
,  // measure 24
0001
0000
1000
0000
,  // measure 25
1000
0000
1000
0000
,  // measure 26
1000
0000
0200
0000
,  // measure 27
0300
0000
0020
0000
,  // measure 28
0030
0000
0001
0000
,  // measure 29
0001
0000
0001
0000
,  // measure 30
0000
2000
0000
0000
0000
0000
0000
0000
,  // measure 31
0000
0000
0000
3000
0000
0000
0000
0000
,  // measure 32
0001
0000
0001
0000
,  // measure 33
0002
0000
0003
0000
,  // measure 34
0000
0200
0000
0000
0000
0000
0000
0000
,  // measure 35
0000
0000
0000
0300
0000
0000
0000
0000
,  // measure 36
0010
0000
0010
0000
,  // measure 37
0020
0000
0000
0000
,  // measure 38
0030
0000
1000
0000
,  // measure 39
2000
0000
0000
0000
,  // measure 40
3000
0000
0001
0000
,  // measure 41
0002
0000
0000
0000
,  // measure 42
0003
0000
0010
0000
,  // measure 43
0010
0000
0010
0000
,  // measure 44
0010
0000
0001
0000
,  // measure 45
0001
0000
0001
0000
,  // measure 46
0001
0000
1000
0000
,  // measure 47
2000
0000
0000
0000
,  // measure 48
3000
0000
0010
0000
,  // measure 49
0020
0000
0000
0000
,  // measure 50
0030
0000
1000
0000
,  // measure 51
1000
0000
1000
0000
,  // measure 52
0001
0000
0001
0000
,  // measure 53
0001
0000
0010
0000
,  // measure 54
0010
0000
0010
0000
,  // measure 55
0020
0000
0000
0000
,  // measure 56
0030
0001
0002
0000
,  // measure 57
0000
0000
0003
0000
,  // measure 58
1000
0000
2000
0000
,  // measure 59
0000
0000
3000
0000
,  // measure 60
0010
0000
0010
0000
,  // measure 61
0010
0000
0010
0000
,  // measure 62
1000
0000
1000
0000
,  // measure 63
1000
0000
1000
0000
,  // measure 64
0001
0000
0002
0000
,  // measure 65
0000
0000
0003
0000
,  // measure 66
0100
0000
0200
0000
,  // measure 67
0000
0000
0300
0000
,  // measure 68
0001
0000
0001
0000
,  // measure 69
0001
0000
0001
0000
,  // measure 70
1000
0000
1000
0000
,  // measure 71
1000
0000
1000
0000
,  // measure 72
0010
0000
0020
0000
,  // measure 73
0000
0000
0030
1000
,  // measure 74
2000
0000
3000
0000
,  // measure 75
0002
0000
0003
0000
,  // measure 76
0000
0000
0000
0000
,  // measure 77
0020
0000
0030
0000
,  // measure 78
0000
0000
0000
0000
,  // measure 79
0000
0002
0000
0000
0000
0000
0000
0003
,  // measure 80
0000
0000
0000
0010
;
