#TITLE:Cruel Angel's Thesis;
#SUBTITLE:;
#ARTIST:Yoko Ishida;
#TITLETRANSLIT:;
#SUBTITLETRANSLIT:;
#ARTISTTRANSLIT:Yoko Takahashi;
#GENRE:J-Pop;
#CREDIT:Ace Of Hearts;
#BANNER:Cruel Angel's Thesis - bn.png;
#BACKGROUND:Cruel Angel's Thesis - bg.jpg;
#LYRICSPATH:;
#CDTITLE:Ace Of Hearts.png;
#MUSIC:Cruel Angel's Thesis.ogg;
#OFFSET:1.140;
#SAMPLESTART:67.400;
#SAMPLELENGTH:15.000;
#SELECTABLE:YES;
#BPMS:0.000=80.000,22.000=128.850;
#STOPS:;
#BGCHANGES:2.000=Neon Genesis Evangelion OP.avi=1.000=1=0=0=StretchNoLoop==CrossFade==,
99999=-nosongbg-=1.000=0=0=0 // don't automatically add -songbackground-
;
#KEYSOUNDS:;

//---------------dance-single - Expert----------------
#NOTES:
     dance-single:
     Ace Of Hearts (2011):
     Challenge:
     10:
     0.734,0.242,0.664,1.000,0.578:
0000
0000
0000
0000
0000
0000
0000
0002
,
0000
0000
0000
0203
0000
0000
0000
0000
0000
0320
0000
0000
0000
4030
0000
0000
0000
0000
3001
0000
0000
0200
0000
0000
,
0000
0000
0000
0340
0000
0000
1030
0000
0000
0001
0000
0100
0000
0000
0040
0000
0000
0000
0030
0000
0000
2000
0000
0000
,
0000
3200
0000
0320
0000
0000
0130
2000
,
0000
0000
3002
0000
0000
0000
0103
0000
0000
0020
0000
0000
0000
0000
4000
0000
0000
0000
0000
0000
0000
0030
0000
0000
,
0000
0000
0000
0000
0000
3004
0400
0000
0000
0000
0000
0000
0303
0000
0000
0000
0000
0000
1001
0000
0000
0000
0000
0000
,
0002
0000
0000
0203
0000
0000
0310
0000
1010
0000
1000
0000
0001
0000
0010
0000
,
0110
1000
00M0
0001
0000
0000
0000
0000
0101
0000
0000
0000
1M00
0000
0000
0000
,
1002
0000
0000
0203
0000
0000
0310
0000
1010
0000
1000
0000
1001
0000
0001
0010
,
0100
1000
0100
0010
0001
0010
0100
1000
0002
0000
0000
0000
2003
0000
3100
0040
,
0000
0000
0030
0000
0000
0000
0100
0000
2100
0000
0000
3001
0000
0000
1000
0000
,
0400
0000
0000
0300
0000
0000
1000
0000
1002
0000
0000
0203
0000
0000
0320
0030
,
2010
0000
0000
3002
0000
0000
0023
0030
0210
0000
0000
2300
0000
0000
3002
0003
,
0401
0000
0000
0300
0000
0000
0010
1000
1002
0000
0000
0023
0000
0000
0130
0000
,
4100
0000
0000
0000
3000
0000
0010
0100
0102
0000
0000
2003
0000
0000
3010
0000
,
0410
0000
0000
0000
0300
0000
0001
0000
2001
0000
0000
3200
0000
0000
0310
0000
,
0012
0000
0000
0000
0203
0000
0000
0300
0120
0000
1030
0001
0100
0000
0001
1000
,
0100
0010
0100
1000
0001
0000
1000
0010
0200
0000
0000
0000
0301
0000
0000
4000
,
0000
0000
3000
0000
0000
0000
0001
0000
0021
0000
0000
0230
0000
0000
1300
0000
,
0004
0000
0000
0000
0003
0000
1000
0000
1002
0000
0000
0010
0000
0000
1003
0000
,
2100
0000
0000
0001
0000
0000
3010
0000
0210
0000
0000
0001
0000
0000
0310
0000
,
4010
0000
0000
0000
3000
0000
0001
0000
0201
0000
0000
0320
0000
0000
1030
0000
,
1004
0000
0000
0000
0003
0000
0010
0100
2100
0000
0000
3002
0000
0000
0013
0000
,
0410
0000
0000
0000
0300
0000
1000
0000
1002
0000
0000
0203
0000
0000
0310
0000
,
2010
0000
0000
3002
0000
0000
1003
0000
1100
0000
0000
0000
0220
0000
0330
0000
,
0022
0000
0030
0000
1003
0010
0100
0001
1000
0000
0010
0100
0000
0100
0001
1000
,
0200
0000
1300
0001
0000
0001
0100
0010
2000
0000
3001
0010
0000
0010
0001
1000
,
0200
0000
1300
0001
0000
0001
0100
0010
2000
0000
3001
0010
0000
0010
0001
1000
,
0002
0000
1003
0100
0000
1000
0001
0000
2000
0000
0000
0000
3200
0000
0000
0000
,
0320
0000
0000
0000
0032
0000
0003
0000
1002
0000
0103
0010
0000
0010
0100
0001
,
2000
0000
3100
0010
0000
0010
0100
1000
0002
0000
0103
0010
0000
0010
1000
0001
,
0020
0000
0031
1000
0000
1000
0010
0100
0002
0000
0103
0010
0000
0010
1000
0001
,
0020
0000
0130
1000
0001
0100
0010
1000
0002
0000
1003
0010
1000
0001
0010
0100
,
1000
0100
0010
0002
0000
1003
0010
0100
0001
0000
0000
0000
2202
0000
3303
0000
,
2000
0000
0000
3400
0000
0000
0310
0000
0012
0000
0000
0000
2003
0000
0010
3000
,
0101
1000
0M00
0004
0000
0000
0003
0000
2000
0000
0000
0000
3200
0000
0300
0000
,
0120
0000
0000
0032
0000
0000
1003
0000
1010
0000
0010
0000
0110
0000
0100
0000
,
0001
1000
0100
0010
0001
0010
0100
2000
0200
0000
0000
0000
0001
0000
3300
0000
,
1001
0000
0000
0002
0000
0000
0103
0000
0110
0000
0010
0000
2000
0000
3100
0000
,
0110
0001
0M00
4000
0000
0000
3000
0000
1020
0000
0000
0030
0210
0000
0000
0300
,
0102
0000
0000
2003
0000
0000
3100
0000
0011
0000
0101
0000
1010
0000
0101
0000
,
0001
1000
0000
0100
0010
0000
0100
1000
1002
0000
0000
0003
0201
0000
0000
0000
,
0320
0000
0000
2030
0000
0000
3100
0000
0120
0000
0031
0000
1001
0000
1000
0000
,
1010
0001
00M0
1000
0000
0000
0000
0000
2100
0000
0000
0000
3001
0100
0010
0000
,
0100
0001
1000
0001
0010
0100
1000
0001
0101
0000
0101
0000
1001
0000
1010
0000
,
2200
0000
3300
1001
0000
0000
0000
0000
0000
0000
0000
0000
0000
0000
0000
0000
;

//---------------dance-single - Hard----------------
#NOTES:
     dance-single:
     Ace Of Hearts (2011):
     Hard:
     8:
     0.479,0.000,0.054,0.996,0.289: // measure 1
0000
0000
0000
0000
,  // measure 2
0000
0000
0000
0000
,  // measure 3
0000
0000
0000
0000
,  // measure 4
0000
0000
0000
0000
,  // measure 5
0000
0000
0000
0000
,  // measure 6
0000
0000
0000
0000
0000
4000
0004
0000
0000
0000
0000
0000
3003
0000
0000
0000
0000
0000
0001
0000
0000
0000
0000
0000
,  // measure 7
0020
0000
0000
0230
0000
0000
1300
0000
0001
0000
0001
0000
0010
0000
0001
0000
,  // measure 8
1000
0100
0000
0010
0000
0000
0000
0000
0200
0000
0000
0000
2300
0000
0000
0000
,  // measure 9
3002
0000
0000
0203
0000
0000
0301
0000
1000
0000
1000
0000
0100
0000
0010
0000
,  // measure 10
0200
0000
0000
1300
0000
0000
0000
0000
1002
0000
0000
0000
0023
0000
0000
0230
,  // measure 11
0000
0000
0300
0000
0000
0000
1000
0000
0002
0000
0000
0203
0000
0000
0301
0000
,  // measure 12
4000
0000
0000
0000
3000
0000
0001
0000
0200
0000
0000
0302
0000
0000
1003
0000
,  // measure 13
0200
0000
0000
0320
0000
0000
0130
0000
2000
0000
0000
3002
0000
0000
1003
0000
,  // measure 14
0400
0000
0000
0000
0300
0000
1000
0100
2000
0000
0000
3002
0000
0000
0013
0000
,  // measure 15
0400
0000
0000
0000
0300
0000
0010
0001
0020
0000
0000
0230
0000
0000
1300
0000
,  // measure 16
0004
0000
0000
0000
0003
0000
1000
0000
0020
0000
0000
0230
0000
0000
0000
0000
,  // measure 17
0302
0000
2003
0000
3200
0000
0000
0310
,  // measure 18
0040
0000
0000
0000
0030
0000
0000
0000
0000
0000
0000
0000
0100
0000
0000
4000
,  // measure 19
0000
0000
3000
0000
0000
0000
0001
0000
0200
0000
0000
0310
0000
0000
0100
0000
,  // measure 20
0004
0000
0000
0000
0003
0000
1000
0000
0002
0000
0000
0023
0000
0000
0130
0000
,  // measure 21
2000
0000
0000
3002
0000
0000
0103
0000
0020
0000
0000
2030
0000
0000
3001
0000
,  // measure 22
0400
0000
0000
0000
0300
0000
0001
0000
2000
0000
0000
3200
0000
0000
0310
0000
,  // measure 23
0004
0000
0000
0000
0003
0000
1000
0010
2000
0000
0000
3002
0000
0000
0013
0000
,  // measure 24
0400
0000
0000
0000
0300
0000
1000
0000
0002
0000
0000
0203
0000
0000
0310
0000
,  // measure 25
2000
0000
0000
3002
0000
0000
0013
0000
0200
0000
0000
0000
0010
0000
0000
0000
,  // measure 26
1000
0000
0000
0000
0320
0000
0000
0000
0032
0000
0000
2003
0000
0000
3010
0000
,  // measure 27
0200
0000
0000
0302
0000
0000
1003
0000
0200
0000
0000
0320
0000
0000
0130
0000
,  // measure 28
2000
0000
0000
3002
0000
0000
0103
0000
0020
0000
0000
2030
0000
0000
3001
0000
,  // measure 29
0020
0000
0000
0230
0000
0000
1300
0000
0001
0000
0000
0000
0100
0000
0000
0000
,  // measure 30
0010
0000
0000
0000
1000
0000
0000
0000
0002
0000
0000
0023
0000
0000
0130
0000
,  // measure 31
2000
0000
0000
3002
0000
0000
0103
0000
0020
0000
0000
0230
0000
0000
0301
0000
,  // measure 32
2000
0000
0000
3002
0000
0000
0013
0000
0200
0000
0000
0320
0000
0000
0031
0000
,  // measure 33
2000
0000
0000
3002
0000
0000
0103
0000
0040
0000
0000
0000
0000
0000
0030
0000
,  // measure 34
2000
0000
0000
3002
0000
0000
0013
0000
0100
0000
0000
0000
2100
0000
0000
0000
,  // measure 35
3002
0000
0000
0203
0000
0000
0310
0000
2000
0000
0000
0000
3001
0000
0010
0000
,  // measure 36
0100
2000
0000
3001
0000
0000
0000
0000
2000
0000
0000
0000
3200
0000
0000
0000
,  // measure 37
0320
0000
0000
0230
0000
0000
1300
0000
0001
0000
0100
0000
0010
0000
0100
0000
,  // measure 38
0001
1000
0000
0100
0000
0000
0000
0000
0010
0000
0000
0000
0012
0000
0000
0000
,  // measure 39
1003
0000
0000
0020
0000
0000
0130
0000
0010
0000
1000
0000
0001
0000
1000
0000
,  // measure 40
0001
0010
0000
0100
0000
0000
0000
0000
0020
0000
0000
0000
0032
0000
0000
0000
,  // measure 41
2003
0000
0000
3020
0000
0000
0130
0000
0001
0000
1000
0000
0010
0000
0100
0000
,  // measure 42
0002
0000
0000
1003
0000
0000
0000
0000
0200
0000
0000
0000
0320
0000
0000
0000
,  // measure 43
0032
0000
0000
2003
0000
0000
3010
0000
0100
0000
0010
0000
1000
0000
0001
0000
,  // measure 44
0010
0100
0000
1000
0000
0000
0000
0000
0002
0000
0000
0000
0203
0000
0000
0000
,  // measure 45
0320
0000
0000
1030
0001
0001
1000
0100
,  // measure 46
0110
0000
0000
1001
0000
0000
0000
0000
0000
0000
0000
0000
0000
0000
0000
0000
;

//---------------dance-single - Medium----------------
#NOTES:
     dance-single:
     Ace Of Hearts (2011):
     Medium:
     6:
     0.243,0.000,0.000,0.118,0.193:
0000
0000
0000
0000
,
0000
0000
0000
0000
,
0000
0000
0000
0000
,
0000
0000
0000
0000
,
0000
0000
0000
0000
,
0000
0000
1000
0010
,
1000
0000
0000
1000
0000
0000
0000
0000
0001
0000
0010
0000
0001
0000
0000
0000
,
1000
0000
0000
1000
0000
0000
0000
0000
0010
0000
0000
0000
1000
0000
0000
0000
,
0010
0000
0000
0010
0000
0000
0000
0000
1000
0000
0001
0000
1000
0000
0000
0000
,
0001
0000
0000
0001
0000
0000
0000
0000
0000
0000
0000
0000
1000
0000
0000
0000
,
1000
0000
0000
0000
0000
0000
0000
0000
0001
0000
0000
0001
0000
0000
1000
0000
,
0100
0000
0000
0000
0000
0000
0000
0000
0010
0000
0000
0010
0000
0000
0000
0000
,
0001
0000
0000
0001
0000
0000
0000
0000
1000
0000
0000
1000
0000
0000
0000
0000
,
0100
0000
0000
0000
0000
0000
0000
0000
1000
0000
0000
1000
0000
0000
0000
0000
,
0001
0000
0000
0000
0000
0000
0000
0000
0010
0000
0000
0010
0000
0000
0000
0000
,
0100
0000
2000
0001
,
0010
0000
0001
0000
3020
0000
0000
1030
,
0001
0000
0000
0000
0000
0000
0000
0000
0000
0000
0000
0000
1000
0000
0000
1000
,
0000
0000
0000
0000
0000
0000
0000
0000
0010
0000
0000
0010
0000
0000
0100
0000
,
0100
0000
0002
1000
,
0010
0000
0000
0000
1000
0000
0000
0000
0013
0000
0000
0010
0000
0000
0000
0000
,
0100
0000
0000
0000
0000
0000
0000
0000
1000
0000
0000
1000
0000
0000
0001
0000
,
0100
0000
0000
0000
0000
0000
0000
0000
0010
0000
0000
0010
0000
0000
1000
0000
,
0001
0000
2000
0010
,
0001
0010
0002
0000
,
3000
0000
0000
0000
0003
0000
0000
0000
1000
0000
0000
1000
0000
0000
0000
0000
,
0010
0000
0000
0010
0000
0000
0000
0000
0100
0000
0000
0100
0000
0000
0000
0000
,
0001
0000
0000
0001
0000
0000
0000
0000
1000
0000
0000
1000
0000
0000
0000
0000
,
0100
0000
0000
0100
0000
0000
0000
0000
1000
0000
0000
0000
0100
0000
0000
0000
,
0010
0000
0000
0000
0001
0000
0000
0000
1000
0000
0000
1000
0000
0000
0000
0000
,
0010
0000
0000
0010
0000
0000
0000
0000
1000
0000
0000
1000
0000
0000
0000
0000
,
0001
0000
0000
0001
0000
0000
0000
0000
0010
0000
0000
0010
0000
0000
0000
0000
,
0100
0000
0000
0100
0000
0000
0000
0000
2000
0000
0000
0000
0000
0000
0000
0000
,
3000
0000
0002
0003
,
1000
0000
0000
1000
0000
0000
0000
0000
0010
0000
0000
0000
0010
0000
0000
0000
,
0100
0000
0000
0100
0000
0000
0000
0000
0001
0000
0000
0000
1000
0000
0000
0000
,
0001
0000
0010
0000
0001
1000
0001
0000
,
1000
0000
0000
1000
0000
0000
0000
0000
0020
0000
0000
0000
0030
0000
0000
0000
,
0100
0000
0000
0100
0000
0000
0000
0000
0001
0000
0000
0000
0001
0000
0000
0000
,
1000
0000
0000
1000
0000
0000
0000
0000
0001
0000
0000
0000
0010
0000
0000
0000
,
0001
0000
1000
0000
0001
0100
0001
0000
,
1000
0000
0000
1000
0000
0000
0000
0000
0010
0000
0000
0000
0010
0000
0000
0000
,
0100
0000
0000
0100
0000
0000
0000
0000
0001
0000
1000
0000
0001
0000
0000
0000
,
0100
0000
0000
0100
0000
0000
0000
0000
0010
0000
0000
0000
1000
0000
0000
0000
,
0002
0000
0003
0000
2000
0000
3100
1000
,
0200
0000
0000
0310
0000
0000
0000
0000
0000
0000
0000
0000
0000
0000
0000
0000
;

//---------------dance-single - Easy----------------
#NOTES:
     dance-single:
     Ace Of Hearts (2011):
     Easy:
     3:
     0.162,0.000,0.000,0.075,0.000:
0000
0000
0000
0000
,
0000
0000
0000
0000
,
0000
0000
0000
0000
,
0000
0000
0000
0000
,
0000
0000
0000
0000
,
0000
0000
0001
0001
,
0001
0000
0100
0100
,
0100
0000
0010
0010
,
0010
0000
1000
1000
,
1000
0000
0000
0001
,
0001
0000
0100
0100
,
0100
0000
0020
0000
,
1000
0000
0100
0000
,
1030
0000
0001
0001
,
0001
0000
1000
1000
,
1000
0000
0010
0000
,
0010
0000
0020
0000
,
0030
0000
0000
1000
,
1000
0000
0001
0001
,
0001
0000
0200
0000
,
0010
0000
0001
0000
,
0310
0000
1000
1000
,
1000
0000
0001
0001
,
0001
0000
0100
0000
,
0100
0000
0200
0000
,
0300
0000
0001
0001
,
0001
0000
1000
1000
,
1000
0000
0100
0000
,
0100
0000
0200
0000
,
0300
0000
0010
0010
,
0010
0000
0001
0001
,
0001
0000
1000
0000
,
1000
0000
2000
0000
,
3000
0000
0010
0000
,
0010
0000
0100
0100
,
0100
0000
0001
0001
,
0001
0000
1000
1000
,
1000
0000
0010
0010
,
0010
0000
0100
0100
,
0100
0000
0001
0001
,
0001
0000
1000
1000
,
1000
0000
0100
0100
,
0100
0000
0010
0010
,
0010
0000
0002
0000
,
0003
0000
1000
1000
,
0010
0000
0000
0000
;

//---------------dance-single - Novice----------------
#NOTES:
     dance-single:
     Ace Of Hearts (2011):
     Beginner:
     2:
     0.115,0.000,0.000,0.064,0.000:
0000
0000
0000
0000
,
0000
0000
0000
0000
,
0000
0000
0000
0000
,
0000
0000
0000
0000
,
0000
0000
0000
0000
,
0000
0000
1000
0000
,
1000
0000
1000
0000
,
0000
0000
0001
0000
,
0001
0000
0002
0000
,
0003
0000
0000
0000
,
0100
0000
0100
0000
,
0000
0000
0001
0000
,
0001
0000
1000
0000
,
1000
0000
0010
0000
,
0010
0000
0100
0000
,
0100
0000
0001
0000
,
0001
0000
0002
0000
,
0003
0000
0000
0000
,
1000
0000
1000
0000
,
1000
0000
0010
0000
,
0010
0000
0100
0000
,
0100
0000
0001
0000
,
0001
0000
1000
0000
,
1000
0000
0010
0000
,
0010
0000
0020
0000
,
0030
0000
1000
0000
,
1000
0000
0001
0000
,
0001
0000
0100
0000
,
0100
0000
0100
0000
,
0000
0000
0010
0000
,
0010
0000
1000
0000
,
1000
0000
0001
0000
,
0001
0000
0002
0000
,
0003
0000
1000
0000
,
1000
0000
0010
0000
,
0010
0000
1000
0000
,
1000
0000
0001
0000
,
0001
0000
0010
0000
,
0010
0000
0100
0000
,
0100
0000
1000
0000
,
1000
0000
2000
0000
,
3000
0000
0001
0000
,
0001
0000
0100
0000
,
0100
0000
0010
0000
,
0010
0000
2000
0000
,
3000
0000
0000
0000
;
