#TITLE:Bumpy-Jumpy!;
#SUBTITLE:;
#ARTIST:Kotoko;
#TITLETRANSLIT:;
#SUBTITLETRANSLIT:;
#ARTISTTRANSLIT:;
#GENRE:Bubblegum J-Pop;
#CREDIT:Ace Of Hearts;
#BANNER:Bumpy-Jumpy - bn.png;
#BACKGROUND:Bumpy-Jumpy - bg.jpg;
#LYRICSPATH:;
#CDTITLE:Ace Of Hearts.png;
#MUSIC:Bumpy-Jumpy!.ogg;
#OFFSET:1.180;
#SAMPLESTART:76.000;
#SAMPLELENGTH:16.000;
#SELECTABLE:YES;
#BPMS:0.000=190.000;
#STOPS:;
#BGCHANGES:3.625=Natsuyume Nagisa OP.avi=1.000=1=0=0=StretchNoLoop==CrossFade==,
99999=-nosongbg-=1.000=0=0=0 // don't automatically add -songbackground-
;
#KEYSOUNDS:;

//---------------dance-single - Bumpy!----------------
#NOTES:
     dance-single:
     Ace Of Hearts (2011):
     Hard:
     9:
     0.670,0.000,0.225,1.000,0.004: // measure 1
0000
0000
0000
0000
,  // measure 2
0000
0000
0000
0000
,  // measure 3
0000
0000
0000
0000
,  // measure 4
0000
0000
0000
0000
,  // measure 5
0000
0000
0000
0000
,  // measure 6
0000
0000
0000
0000
,  // measure 7
0000
0000
0000
0000
,  // measure 8
0000
0000
0000
0000
,  // measure 9
0002
0000
0000
0003
,  // measure 10
2000
0000
0000
3000
,  // measure 11
0100
0100
0010
0100
1000
1000
0001
0000
,  // measure 12
0201
0000
0310
2010
0000
3002
0103
0100
,  // measure 13
0010
0010
1000
0001
0100
0100
0010
1000
,  // measure 14
0001
0010
0100
1000
0100
0010
0001
1000
,  // measure 15
0010
0010
0100
0001
1000
0001
0010
0010
,  // measure 16
0100
1000
0001
0100
0010
0100
0001
1000
,  // measure 17
1200
0000
0000
0000
,  // measure 18
0310
0100
1000
0001
0100
0001
1000
0010
,  // measure 19
2000
0000
3001
0200
0000
0301
1000
0100
,  // measure 20
0010
0100
1000
0002
0000
1003
0010
0100
,  // measure 21
0002
0000
1003
0200
0000
0310
0100
1000
,  // measure 22
0001
0100
0010
2000
0000
3001
0010
0100
,  // measure 23
0020
0000
0000
0032
0000
0000
2003
0000
,  // measure 24
3200
0000
0000
2300
0000
0000
3002
0000
,  // measure 25
0203
0000
0000
0000
0300
0000
0010
0100
,  // measure 26
0001
1000
0100
0010
0000
0100
1000
0001
,  // measure 27
4000
0400
0000
0000
0000
0000
0000
0000
0000
0000
0000
0000
3300
0000
0000
0000
,  // measure 28
1000
0001
0100
0001
0000
0020
0000
0130
,  // measure 29
1000
0000
0001
0400
0000
0000
0300
0000
,  // measure 30
0001
2000
0000
3100
0000
0020
0000
0130
,  // measure 31
2000
0000
3001
0400
0000
0000
0300
0000
,  // measure 32
0001
2000
0000
3100
0010
0100
1000
0001
,  // measure 33
0200
0320
2030
3002
,  // measure 34
0013
0100
0100
1000
0001
0001
0100
0010
,  // measure 35
1000
0001
0001
0010
0100
0100
1000
0001
,  // measure 36
0200
0000
0301
2000
0000
3020
0000
0130
,  // measure 37
0002
0000
1003
0400
0000
0000
0300
0000
,  // measure 38
0010
0100
1000
0002
0000
0023
0000
0031
,  // measure 39
2000
0000
3010
0400
0000
0000
0300
0000
,  // measure 40
0001
0100
0010
2000
0000
3001
0010
0100
,  // measure 41
0020
0230
2300
3002
,  // measure 42
0203
0000
0310
2000
0000
3002
0000
0013
,  // measure 43
0100
1000
1000
0010
0100
0100
0001
1000
,  // measure 44
0001
0000
0200
0000
0310
0100
0001
2001
,  // measure 45
0000
3200
0320
0230
,  // measure 46
2300
0000
3001
0040
0000
0000
0030
0001
,  // measure 47
2000
3000
2200
3300
0220
0330
0222
0333
,  // measure 48
0000
0000
0010
0001
1000
0001
0100
0120
,  // measure 49
0000
1030
0002
1003
,  // measure 50
0200
0000
1300
0004
0000
0003
0000
1000
,  // measure 51
0020
0000
0130
0004
0000
0003
1000
0100
,  // measure 52
0020
0000
0032
0000
,  // measure 53
2003
0000
3200
0020
0000
0000
0000
0000
,  // measure 54
0330
0000
0100
1000
0001
0100
0001
0021
,  // measure 55
0000
0230
2300
3002
,  // measure 56
0203
0000
0310
2000
0000
3002
0000
0203
,  // measure 57
0000
0000
0300
0000
0001
1000
0100
0020
,  // measure 58
0000
0130
2000
0000
3000
0000
0001
0020
,  // measure 59
0000
0031
2000
0000
0000
0000
3000
0000
,  // measure 60
0100
0010
0100
1000
0001
0100
0001
1001
,  // measure 61
0000
1000
0000
2020
0000
0000
0000
0000
,  // measure 62
3030
0000
0020
0000
0130
0001
1000
1020
,  // measure 63
0000
0230
0302
2003
,  // measure 64
3200
0000
0310
0002
0000
2003
0000
3040
,  // measure 65
0000
0030
0200
0302
,  // measure 66
2003
0000
3010
0200
0000
0302
0000
4003
,  // measure 67
0000
3000
0020
2030
,  // measure 68
3002
0000
1003
0100
0010
0010
0100
1000
,  // measure 69
1000
0001
0100
0100
0000
0010
0010
1000
,  // measure 70
1000
0000
0001
0100
0020
0000
0130
0001
,  // measure 71
2001
0000
3100
0120
0000
0032
0000
0000
,  // measure 72
0003
0000
2000
0000
3010
0100
0001
1000
,  // measure 73
1010
0000
0010
0210
0000
0302
0000
0000
,  // measure 74
0003
0000
0100
0010
0100
0001
1000
0100
,  // measure 75
0120
0000
0031
2001
0000
3020
0000
0000
,  // measure 76
0030
0000
0200
0000
0301
1000
0100
0010
,  // measure 77
0002
0000
0000
0000
,  // measure 78
0003
0000
0020
0000
0031
1000
0010
0100
,  // measure 79
0102
0000
1003
1020
0000
0230
0000
0000
,  // measure 80
0300
0000
0002
0000
1003
0100
1000
0001
,  // measure 81
0201
0000
0310
2010
0000
3002
0000
0000
,  // measure 82
0003
0000
0020
0000
0130
0010
0001
1000
,  // measure 83
1200
0000
0310
0012
0000
2003
0000
0000
,  // measure 84
3100
0100
0010
0100
0100
1000
0001
0001
,  // measure 85
0100
0010
0010
1000
0000
0001
0001
1000
,  // measure 86
2200
0000
3000
0000
,  // measure 87
0300
0000
0000
0000
;

//---------------dance-single - Jumpy!!----------------
#NOTES:
     dance-single:
     Ace Of Hearts (2011):
     Challenge:
     11:
     1.000,0.000,0.603,0.621,0.364: // measure 1
0000
0000
0000
0000
,  // measure 2
0000
0000
0000
0000
,  // measure 3
0000
0000
0000
0000
,  // measure 4
0102
0000
1003
1200
0000
0320
0000
0000
,  // measure 5
0030
0000
0000
0000
,  // measure 6
0000
0000
0000
0000
,  // measure 7
0000
0000
0000
0000
0100
0000
1000
0000
0002
0000
0000
0000
0203
0000
0000
0300
,  // measure 8
0120
0000
1030
1002
0000
0203
0000
0000
,  // measure 9
0320
0000
0000
0030
,  // measure 10
0200
0000
0000
0300
,  // measure 11
0102
0000
1003
0000
0100
0000
0010
0000
0100
0000
1000
0000
0001
0000
0200
0300
,  // measure 12
0110
0000
0010
0000
1000
0000
1001
0000
0001
0000
0100
0000
0010
1000
0010
1000
,  // measure 13
0001
0000
0100
0000
0010
0000
1000
0000
0001
0000
0010
0000
0100
0000
2000
3000
,  // measure 14
1001
0000
0002
0000
0013
0100
0010
0000
0001
0000
1000
0000
0001
0010
0001
0010
,  // measure 15
0100
0000
1000
0000
0001
0000
0100
0000
0010
0000
0100
0000
0001
0000
2000
3000
,  // measure 16
1010
0000
0020
0000
0130
0000
0001
0000
1000
0000
0100
0000
1000
0001
1000
0001
,  // measure 17
0100
0010
1000
0001
0020
0130
1000
0001
,  // measure 18
0101
0000
0100
0000
0010
0000
1010
0000
1000
0000
0001
0000
0011
0000
0010
0100
,  // measure 19
2000
0000
3010
0200
0000
0301
1000
0200
,  // measure 20
0310
0000
0100
0000
1000
0000
0001
0000
0100
0000
0010
0000
0100
0001
0100
0001
,  // measure 21
2000
0000
3001
0020
0000
0130
1000
0200
,  // measure 22
0310
0000
0001
0000
1000
0000
0010
0000
0100
0000
0001
0000
1000
0100
1000
0100
,  // measure 23
0010
0001
1000
0010
0100
0001
1000
0020
,  // measure 24
0130
0000
0001
0000
1000
0000
0100
0000
0010
0000
0100
0000
0010
0001
0010
0001
,  // measure 25
1000
0010
0100
0001
1000
0100
1000
0002
,  // measure 26
0103
0000
0010
0000
1000
0000
0100
0000
0010
0000
0100
0000
1000
0001
1000
0001
,  // measure 27
0200
0000
0310
1000
0010
0000
0100
0001
0100
0000
0010
0000
1000
0001
1000
0001
,  // measure 28
0010
0100
1000
0002
0000
0103
0010
1000
,  // measure 29
0001
0000
0010
0000
0100
0000
2000
0000
0000
0000
3010
0000
0100
0001
0100
0001
,  // measure 30
1000
0100
0010
0100
1000
0001
0100
0010
,  // measure 31
0100
0000
0001
0000
1000
0000
0200
0000
0000
0000
0310
0000
0001
1000
0001
1000
,  // measure 32
0010
0100
0001
1000
0100
0010
0100
1000
,  // measure 33
0001
0000
0100
0000
0010
0000
1000
0000
0001
0000
0100
0000
0010
1000
0010
1000
,  // measure 34
0001
0000
0010
0000
0110
0000
0100
1000
0100
1000
0001
0000
0101
0000
0200
0000
,  // measure 35
0310
0000
1010
0000
1000
0001
0010
0000
0100
0010
0001
0000
1000
0010
0100
0010
,  // measure 36
1000
0001
0010
0110
0100
1000
0001
0100
,  // measure 37
0110
0000
0010
0000
1000
0000
1100
0000
0100
0000
0010
0000
0001
1000
0001
0100
,  // measure 38
0010
1000
0001
0011
0010
0100
1000
0001
,  // measure 39
0101
0000
0100
0000
0010
0000
1010
0000
1000
0000
0100
0000
0010
0001
1000
0010
,  // measure 40
2000
3001
0010
0110
0100
1000
0001
0100
,  // measure 41
0110
0000
0010
0000
1000
0000
1100
0000
0100
0000
0010
0000
0001
1000
0100
1000
,  // measure 42
0001
0000
0100
0000
0010
1000
0001
0010
0100
0010
0001
1000
0010
0100
0010
1000
,  // measure 43
0001
0000
0010
0000
0100
0000
1000
0000
1001
0000
0001
0000
0100
0010
1000
0001
,  // measure 44
0020
0000
0000
0000
0230
0000
1300
0000
0001
0100
0010
0000
1000
0000
1200
0000
,  // measure 45
0000
0000
0310
0000
0001
0000
1000
0000
0010
0100
0001
0000
1000
0000
0100
0000
,  // measure 46
0120
0000
0031
1000
0010
0100
0001
1000
,  // measure 47
2000
3000
0000
0000
2200
0000
3300
0000
2220
0000
0000
3330
2222
0000
0000
3333
,  // measure 48
0000
0000
0000
0000
0001
0000
0100
0000
0010
1000
0001
0000
0010
0000
0210
0000
,  // measure 49
0000
0000
1300
0000
0001
0000
0100
0000
0010
0000
0100
0000
0001
0000
1000
0100
,  // measure 50
0010
0000
0100
0000
1000
0000
0001
0100
0010
0000
0100
0000
0001
0000
1000
0010
,  // measure 51
0100
0000
0001
0000
1000
0000
0100
0000
0010
0000
0100
0000
1000
0000
0100
0010
,  // measure 52
0001
0000
1000
0000
0010
0000
0100
0001
1000
0000
0100
0000
0010
0000
0100
1000
,  // measure 53
0001
0000
0100
0000
0010
0000
1000
0001
0100
0000
0001
1000
0100
0010
0100
1000
,  // measure 54
0002
0000
0103
0010
1000
0100
0010
0012
,  // measure 55
0000
0000
1003
0000
0200
0000
0000
0000
0320
0000
0000
0000
0032
0000
1003
0010
,  // measure 56
0100
0001
1000
0200
0000
0310
0100
2100
,  // measure 57
0000
0000
3001
0000
0100
0000
0010
0000
1000
0000
0001
0000
0010
0000
0001
1000
,  // measure 58
0010
0000
0100
0000
0002
0000
0000
0000
1003
0100
0010
0000
0100
0000
1000
0000
,  // measure 59
0001
0000
0100
0000
0010
0000
1000
0000
0001
0000
0010
0100
1000
0000
0001
0000
,  // measure 60
0100
0010
1000
0001
0010
0001
1000
0001
,  // measure 61
0100
0000
0010
0000
1000
0000
0100
0000
0010
0001
1000
0000
0010
0100
0010
1000
,  // measure 62
0002
0000
0203
0000
0310
1000
0001
0021
,  // measure 63
0000
0000
0130
0000
2000
0000
0000
0000
3001
0000
0100
0000
0010
0000
0100
0001
,  // measure 64
1000
0100
0010
0001
1000
0001
0100
0020
,  // measure 65
0000
1030
1001
0001
0010
0100
1000
0001
,  // measure 66
0200
0000
0310
1000
0000
0001
0000
0200
,  // measure 67
0000
0000
0301
0000
1000
0000
0100
0000
0010
0000
0001
0000
1000
0010
0100
0010
,  // measure 68
1000
0001
0010
0110
0100
1000
1001
0001
,  // measure 69
0100
0110
0010
1010
0000
0101
1001
1100
,  // measure 70
0022
0033
2100
0000
3001
0100
0010
1000
,  // measure 71
1100
0000
0100
0000
0010
0000
0012
0000
0000
0000
1003
0000
0010
0000
0100
0001
,  // measure 72
1000
0100
0010
0100
1000
0001
0100
0010
,  // measure 73
1010
0000
1000
0000
0001
0000
0021
0000
0000
0000
0130
0000
1000
0000
0001
1000
,  // measure 74
0100
0010
0001
1000
0010
0100
0001
1000
,  // measure 75
1010
0000
0010
0000
0100
0000
0101
0000
0001
0000
1000
0000
0100
0010
0100
1000
,  // measure 76
0001
0100
0010
1000
0001
0010
0100
0010
,  // measure 77
0011
0000
0001
0000
1000
0000
1010
0000
0010
0100
0001
0000
1000
0010
0100
0001
,  // measure 78
2000
0000
3100
0010
0001
1000
0010
0100
,  // measure 79
0101
0000
0001
0000
1000
0000
1100
0000
0100
0000
0010
0000
0001
1000
0010
0100
,  // measure 80
0001
1000
0010
0100
0010
1000
0001
0010
,  // measure 81
0110
0000
0100
0000
1000
0000
1001
0000
0001
0000
0100
0000
0010
0000
1000
0001
,  // measure 82
0010
0001
1000
0010
0100
0001
1000
0100
,  // measure 83
0110
0000
0010
0000
0001
0000
1001
0000
1000
0000
0010
0000
0100
0001
0100
0010
,  // measure 84
1000
0100
0011
0001
1001
1000
0010
0110
,  // measure 85
0100
0101
0001
1001
0000
1100
1001
0101
,  // measure 86
0220
0000
0030
0000
,  // measure 87
0300
0000
0000
0000
;

//---------------dance-single - Medium----------------
#NOTES:
     dance-single:
     Ace Of Hearts (2011):
     Medium:
     7:
     0.506,0.000,0.162,1.000,0.009: // measure 1
0000
0000
0000
0000
,  // measure 2
0000
0000
0000
0000
,  // measure 3
0000
0000
0000
0000
,  // measure 4
0000
0000
0000
0000
,  // measure 5
0000
0000
0000
0000
,  // measure 6
0000
0000
0000
0000
,  // measure 7
0000
0000
0000
0000
,  // measure 8
0000
0000
0000
0000
,  // measure 9
0000
0000
0000
0000
,  // measure 10
0000
0000
0000
0000
,  // measure 11
0001
0000
0020
0000
0031
1000
0000
0000
,  // measure 12
2020
0000
3030
2002
0000
0000
3003
0000
,  // measure 13
0001
0000
0100
0000
0001
2000
0000
3001
,  // measure 14
0010
0000
0001
1000
0000
0010
0000
0000
,  // measure 15
0100
0000
0001
0000
1000
0020
0000
0130
,  // measure 16
0001
0000
1000
0100
0000
0010
0001
0000
,  // measure 17
2002
0000
0000
0000
,  // measure 18
0000
0000
3003
0000
,  // measure 19
0002
0000
0013
0200
0000
0000
0000
0000
,  // measure 20
0300
0000
0000
1000
,  // measure 21
0020
0000
1030
0002
0000
0000
0000
0000
,  // measure 22
0003
0000
0000
1000
,  // measure 23
0200
0000
0000
0320
0000
0000
0032
0000
,  // measure 24
2003
0000
0000
3020
0000
0000
0230
0000
,  // measure 25
0302
0000
0003
0000
,  // measure 26
2002
0000
3003
0000
,  // measure 27
0004
4000
0000
0000
0000
0000
0000
0000
0000
0000
0000
0000
3003
0000
0000
0000
,  // measure 28
2000
0000
3100
0020
0000
0230
0000
1300
,  // measure 29
0002
0000
1003
0200
0000
0300
0000
0000
,  // measure 30
0010
0002
0000
2003
0000
3020
0000
1030
,  // measure 31
0002
0000
1003
0200
0000
0300
0000
0000
,  // measure 32
1000
0002
0000
1003
0010
0000
1000
0000
,  // measure 33
0002
0023
0230
2300
,  // measure 34
3002
0000
1003
0020
0000
0000
0030
0000
,  // measure 35
4000
0004
0000
0000
0000
0000
0000
0000
0000
0000
0000
0000
3003
0000
0000
0000
,  // measure 36
0002
0000
0103
0020
0000
2030
0000
3001
,  // measure 37
0020
0000
0130
2000
0000
3000
0000
0000
,  // measure 38
0001
0000
1000
0020
0000
2030
0000
3001
,  // measure 39
0020
0000
0130
2000
0000
3000
0000
0000
,  // measure 40
0001
0100
0000
0020
0000
1030
0001
0000
,  // measure 41
0020
0032
2003
3020
,  // measure 42
2030
0000
3001
0200
0000
0320
0000
2030
,  // measure 43
0000
0000
3000
0000
,  // measure 44
0000
0000
1000
0000
1001
0000
0001
0020
,  // measure 45
0000
0130
2000
3001
,  // measure 46
0200
0000
0301
2000
0000
3000
0000
0000
,  // measure 47
2000
0000
3200
0000
0320
0030
0011
0000
,  // measure 48
0000
0000
0002
0000
1003
0000
0010
2000
,  // measure 49
0000
3002
0203
0320
,  // measure 50
2030
0000
3001
0020
0000
0000
0000
0031
,  // measure 51
2000
0000
3001
0200
0000
0000
0301
0000
,  // measure 52
2000
3000
1002
0000
,  // measure 53
0103
0000
0000
0220
0000
0000
0000
0000
,  // measure 54
0330
0000
0100
0001
0100
0000
0001
2000
,  // measure 55
0000
3002
2003
3020
,  // measure 56
0230
0000
0310
1000
0000
0001
0000
0200
,  // measure 57
0000
0000
0300
0000
0001
0000
1000
0020
,  // measure 58
0000
1030
0002
0000
0003
0000
1000
0020
,  // measure 59
0000
1030
0002
0000
0003
0000
0000
0000
,  // measure 60
1000
0100
1000
0000
0002
0000
1003
0100
,  // measure 61
0000
0010
0000
0012
0000
0000
0000
0000
,  // measure 62
0003
0000
2000
0000
3010
0000
1000
0002
,  // measure 63
0000
0023
0230
2300
,  // measure 64
3002
0000
1003
0010
0000
0100
0000
0002
,  // measure 65
0000
0003
2000
3020
,  // measure 66
0230
0000
0301
1000
0000
0001
0000
0200
,  // measure 67
0000
0300
0000
0000
0002
0000
2003
0000
,  // measure 68
3020
0000
0130
0002
0000
0000
0000
0000
,  // measure 69
0000
0000
0000
0000
0003
1000
0010
0000
,  // measure 70
2000
3001
0010
0001
,  // measure 71
2002
0000
3003
2020
0000
0000
0000
0000
,  // measure 72
3030
0010
2000
3001
,  // measure 73
0020
0000
0031
2000
0000
3020
0000
0000
,  // measure 74
0030
1000
0002
0013
,  // measure 75
0220
0000
0330
2200
0000
0000
0000
0000
,  // measure 76
3300
2000
3002
1003
,  // measure 77
0020
0000
0000
0000
,  // measure 78
0030
0100
0002
1003
,  // measure 79
2020
0000
3030
0202
0000
0000
0000
0000
,  // measure 80
0303
0001
2000
3100
,  // measure 81
0020
0000
0130
2000
0000
3002
0000
0000
,  // measure 82
0003
2000
3200
0310
,  // measure 83
0012
0000
1003
0020
0000
0130
0000
0000
,  // measure 84
0202
0000
0000
0000
,  // measure 85
0000
0000
0303
0000
0000
0001
1000
0000
,  // measure 86
2200
0000
0000
0000
,  // measure 87
3300
0000
0000
0000
;

//---------------dance-single - Easy----------------
#NOTES:
     dance-single:
     Ace Of Hearts (2011):
     Easy:
     5:
     0.216,0.000,0.108,0.198,0.000: // measure 1
0000
0000
0000
0000
,  // measure 2
0000
0000
0000
0000
,  // measure 3
0000
0000
0000
0000
,  // measure 4
0000
0000
0000
0000
,  // measure 5
0000
0000
0000
0000
,  // measure 6
0000
0000
0000
0000
,  // measure 7
0000
0000
0000
0000
,  // measure 8
0000
0000
0000
0000
,  // measure 9
0000
0000
0000
0000
,  // measure 10
0000
0000
0000
0000
,  // measure 11
1000
1000
1000
0000
,  // measure 12
0001
0000
0000
0001
0000
0000
0000
0000
,  // measure 13
0010
0010
0010
0000
,  // measure 14
0100
0100
0100
0000
,  // measure 15
1000
1000
1000
0000
,  // measure 16
0001
0001
0001
0000
,  // measure 17
2002
0000
0000
0000
,  // measure 18
0000
0000
3003
0000
,  // measure 19
1000
0000
0000
1000
0000
0000
0000
0000
,  // measure 20
0000
0000
0000
0000
,  // measure 21
0010
0000
0000
0010
0000
0000
0000
0000
,  // measure 22
0000
0000
0000
0000
,  // measure 23
1000
0000
0000
1000
0000
0000
0000
0000
,  // measure 24
0001
0000
0000
0001
0000
0000
0000
0000
,  // measure 25
0200
0000
0300
0000
,  // measure 26
0002
0000
0003
0000
,  // measure 27
4000
0000
3000
0000
,  // measure 28
0001
0100
0001
0000
,  // measure 29
1000
0000
0000
1000
0000
0000
0000
0000
,  // measure 30
0010
1000
0010
0000
,  // measure 31
0100
0000
0000
0100
0000
0000
0000
0000
,  // measure 32
0001
1000
0001
0000
,  // measure 33
0010
0000
0001
0000
,  // measure 34
2002
0000
0000
0000
,  // measure 35
0000
0000
3003
0000
,  // measure 36
1000
0000
1000
0000
,  // measure 37
0001
0000
0000
0001
0000
0000
0000
0000
,  // measure 38
0100
0001
0100
0000
,  // measure 39
0010
0000
0000
0010
0000
0000
0000
0000
,  // measure 40
1000
0001
1000
0000
,  // measure 41
0001
0000
0100
0000
,  // measure 42
0220
0000
0000
0000
,  // measure 43
0000
0000
0330
0000
,  // measure 44
0000
0000
0010
0000
,  // measure 45
1000
0000
1000
0000
,  // measure 46
0001
0000
0000
0000
,  // measure 47
2000
3200
0310
0011
,  // measure 48
0000
0000
0001
0000
,  // measure 49
1000
0000
0010
0000
,  // measure 50
1000
0000
0000
1000
0000
0000
0000
0000
,  // measure 51
0010
0000
0000
0010
0000
0000
0000
0000
,  // measure 52
2000
0000
3002
0000
,  // measure 53
0023
0000
0000
0000
,  // measure 54
0030
0001
0001
0000
,  // measure 55
1000
0010
1000
0000
,  // measure 56
0001
0000
1000
0100
,  // measure 57
1000
0000
0000
0000
0000
0000
0000
0001
,  // measure 58
0000
0000
0001
0000
0000
0000
0000
0100
,  // measure 59
0000
0100
0000
0000
,  // measure 60
0001
0000
1000
0000
0001
0000
0000
0100
,  // measure 61
0000
0000
0000
0220
0000
0000
0000
0000
,  // measure 62
0330
0000
0010
0000
,  // measure 63
1000
0000
0001
0000
,  // measure 64
1000
0000
0010
1000
,  // measure 65
0010
0000
1000
0000
,  // measure 66
0001
0000
0100
0001
,  // measure 67
0100
0000
0001
0000
,  // measure 68
2002
0000
0000
0000
,  // measure 69
0000
0000
3003
0000
,  // measure 70
1000
0000
0010
0000
,  // measure 71
1000
0000
0000
1001
0000
0000
0000
0000
,  // measure 72
0000
0000
0001
0000
,  // measure 73
0100
0000
0000
0100
0000
0000
0000
0000
,  // measure 74
0000
0000
0010
0000
,  // measure 75
1000
0000
0000
1001
0000
0000
0000
0000
,  // measure 76
0001
0000
0100
0000
,  // measure 77
0020
0000
0030
0000
,  // measure 78
0000
0000
1000
0000
,  // measure 79
0001
0000
0000
0011
0000
0000
0000
0000
,  // measure 80
0000
0000
0010
0000
,  // measure 81
0100
0000
0000
0100
0000
0000
0000
0000
,  // measure 82
0000
0000
1000
0000
,  // measure 83
0010
0000
0000
0110
0000
0000
0000
0000
,  // measure 84
2002
0000
0000
0000
,  // measure 85
0000
0000
3003
0000
,  // measure 86
0220
0000
0000
0000
,  // measure 87
0330
0000
0000
0000
;

//---------------dance-single - Novice----------------
#NOTES:
     dance-single:
     Ace Of Hearts (2011):
     Beginner:
     2:
     0.168,0.000,0.063,0.207,0.000: // measure 1
0000
0000
0000
0000
,  // measure 2
0000
0000
0000
0000
,  // measure 3
0000
0000
0000
0000
,  // measure 4
0000
0000
0000
0000
,  // measure 5
0000
0000
0000
0000
,  // measure 6
0000
0000
0000
0000
,  // measure 7
0000
0000
0000
0000
,  // measure 8
0000
0000
0000
0000
,  // measure 9
0000
0000
0000
0000
,  // measure 10
0000
0000
0000
0000
,  // measure 11
0001
0000
0000
0000
,  // measure 12
0002
0000
0003
0000
,  // measure 13
1000
0000
0000
0000
,  // measure 14
1000
0000
0000
0000
,  // measure 15
0100
0000
0000
0000
,  // measure 16
0100
0000
0000
0000
,  // measure 17
0020
0000
0000
0000
,  // measure 18
0030
0000
0000
0000
,  // measure 19
0001
0000
0001
0000
,  // measure 20
0000
0000
0000
0000
,  // measure 21
1000
0000
1000
0000
,  // measure 22
0000
0000
0000
0000
,  // measure 23
0010
0000
0010
0000
,  // measure 24
0010
0000
0000
0000
,  // measure 25
0200
0000
0300
0000
,  // measure 26
0002
0000
0003
0000
,  // measure 27
2000
0000
3000
0000
,  // measure 28
0010
0000
0010
0000
,  // measure 29
0010
0000
0000
0000
,  // measure 30
1000
0000
1000
0000
,  // measure 31
1000
0000
0000
0000
,  // measure 32
0001
0000
0001
0000
,  // measure 33
0001
0000
0000
0000
,  // measure 34
2002
0000
0000
0000
,  // measure 35
3003
0000
0000
0000
,  // measure 36
1000
0000
1000
0000
,  // measure 37
1000
0000
0000
0000
,  // measure 38
0010
0000
0010
0000
,  // measure 39
0010
0000
0000
0000
,  // measure 40
0100
0000
0100
0000
,  // measure 41
0100
0000
0000
0000
,  // measure 42
0001
0000
0001
0000
,  // measure 43
0001
0000
0000
0000
,  // measure 44
0000
0000
1000
0000
,  // measure 45
1000
0000
1000
0000
,  // measure 46
0001
0000
0001
0000
,  // measure 47
1000
1000
1000
1000
,  // measure 48
0000
0000
0010
0000
,  // measure 49
0010
0000
0010
0000
,  // measure 50
0100
0000
0100
0000
,  // measure 51
0001
0000
0001
0000
,  // measure 52
1000
0000
1000
0000
,  // measure 53
2002
0000
0000
0000
,  // measure 54
3003
0000
0001
0000
,  // measure 55
0001
0000
0001
0000
,  // measure 56
0100
0000
0100
0000
,  // measure 57
0100
0000
0010
0000
,  // measure 58
0010
0000
0000
0000
,  // measure 59
1000
0000
0000
0000
,  // measure 60
0001
0001
0001
0000
,  // measure 61
0020
0000
0000
0000
,  // measure 62
0030
0000
0001
0000
,  // measure 63
0001
0000
0001
0000
,  // measure 64
1000
0000
1000
0000
,  // measure 65
1000
0000
0001
0000
,  // measure 66
0001
0000
0001
0000
,  // measure 67
0001
0000
0100
0000
,  // measure 68
0200
0000
0000
0000
,  // measure 69
0000
0000
0300
0000
,  // measure 70
0000
0000
0001
0000
,  // measure 71
2002
0000
3003
0000
,  // measure 72
0000
0000
1000
0000
,  // measure 73
1000
0000
1000
0000
,  // measure 74
0000
0000
0010
0000
,  // measure 75
0220
0000
0330
0000
,  // measure 76
0000
0000
0100
0000
,  // measure 77
0200
0000
0300
0000
,  // measure 78
0000
0000
0001
0000
,  // measure 79
2002
0000
3003
0000
,  // measure 80
0000
0000
1000
0000
,  // measure 81
1000
0000
1000
0000
,  // measure 82
0000
0000
0100
0000
,  // measure 83
0220
0000
0330
0000
,  // measure 84
0020
0000
0000
0000
,  // measure 85
0000
0000
0030
0000
,  // measure 86
2002
0000
0000
0000
,  // measure 87
3003
0000
0000
0000
;
