#TITLE:Blaze;
#SUBTITLE:;
#ARTIST:Kotoko;
#TITLETRANSLIT:;
#SUBTITLETRANSLIT:;
#ARTISTTRANSLIT:;
#GENRE:J-Pop;
#CREDIT:Ace Of Hearts;
#BANNER:Blaze - bn.png;
#BACKGROUND:Blaze - bg.png;
#LYRICSPATH:;
#CDTITLE:Ace Of Hearts.png;
#MUSIC:Blaze.ogg;
#OFFSET:1.600;
#SAMPLESTART:60.200;
#SAMPLELENGTH:13.000;
#SELECTABLE:YES;
#BPMS:0.000=127.980;
#STOPS:;
#BGCHANGES:0.000=Black Screen.JPG=1.000=0=0=1=====,
3.250=Shakugan no Shana II Opening Video.avi=1.000=0=0=0=StretchNoLoop====,
193.667=Blaze - Finish.png=1.000=0=0=0=StretchNoLoop====,
99999=-nosongbg-=1.000=0=0=0 // don't automatically add -songbackground-
;
#FGCHANGES:;
#KEYSOUNDS:;

//---------------dance-single - Expert----------------
#NOTES:
     dance-single:
     Ace Of Hearts (2011):
     Challenge:
     11:
     0.943,0.000,0.177,0.509,1.000: // measure 1
0000
0000
0000
0000
,  // measure 2
0000
0000
0000
0000
,  // measure 3
0000
0000
0000
0000
,  // measure 4
0000
0001
0010
0001
0M00
1000
0010
100M
0000
M001
0000
100M
0100
0010
0100
1000
,  // measure 5
0001
0000
0100
0000
0010
0000
1000
0000
0001
0000
1000
0000
0001
0010
0001
0000
1000
0000
0001
0000
0100
0000
0004
0000
M000
0000
00M0
0000
M000
0000
00M0
0000
,  // measure 6
1003
0010
0100
0010
1000
0000
0001
0010
0100
1000
0100
0010
0001
0000
1000
0010
,  // measure 7
0100
0001
0100
0010
1000
0000
0001
0100
0010
1000
0010
0100
0001
1000
0001
0010
,  // measure 8
0100
1000
0100
0010
0001
0000
1000
0001
0100
0010
0100
0001
1000
0000
0001
1000
,  // measure 9
0010
0100
0010
1000
0001
1000
0010
0100
0010
1000
0001
1000
0020
0000
0130
0001
,  // measure 10
1000
0001
0100
0010
0100
0001
1000
0001
0010
0100
0010
0001
1000
0000
0010
0100
,  // measure 11
0001
0100
0010
1000
0001
0000
0010
0100
1000
0100
0010
0001
1000
0001
0100
0010
,  // measure 12
1000
0001
0010
0100
1000
0000
0001
0100
0010
1000
0010
0100
0001
0000
1000
0010
,  // measure 13
0100
0000
0001
0000
0100
0000
0010
0000
1000
0000
0001
0000
1000
0000
0001
0010
0001
0000
1000
0000
0010
0000
0100
0000
0001
0000
1000
0000
0001
0010
0001
0010
,  // measure 14
0002
0000
0103
0001
1000
0001
0100
0001
1000
0100
0010
0100
1000
0001
0100
0010
,  // measure 15
0100
0001
1000
0100
0010
0100
1000
0001
0100
0010
0100
0001
1000
0001
0010
0100
,  // measure 16
1000
0100
0010
0001
1000
0010
0100
0010
1000
0001
0010
0100
1000
0100
0010
0001
,  // measure 17
1000
0010
0100
0010
1000
0001
0010
0100
0010
0001
1000
0001
0100
0010
1000
0001
,  // measure 18
1000
0100
0010
0001
2000
0000
3001
0010
0001
1000
0010
0100
0010
1000
0001
0010
,  // measure 19
0100
1000
0100
0010
0001
1000
0010
0100
0010
1000
0001
0010
0100
1000
0100
0010
,  // measure 20
0001
1000
0010
0100
0010
1000
0001
0010
0100
1000
0001
1000
0010
1000
0001
0010
,  // measure 21
0100
0000
1000
0000
0001
0000
0100
0000
0010
0000
1000
0000
0001
0000
0010
0001
0010
0000
0100
0000
1000
0000
0001
0000
0100
0000
0010
0000
0100
0000
0001
0000
,  // measure 22
4000
0000
000M
0000
3000
0000
0M00
0000
0002
0000
M000
0103
0000
0000
012M
0000
,  // measure 23
2000
0000
0M00
0000
3000
0000
M000
0000
0230
0000
0000
0301
0000
0000
01M0
0000
,  // measure 24
0220
0000
000M
1000
0000
0030
0301
0000
2002
0000
0M00
0010
0000
3000
1003
0000
,  // measure 25
2200
0000
00M0
0001
0000
0300
3001
0000
0102
0000
0M00
0000
2003
0000
0000
300M
,  // measure 26
2040
0000
0000
0000
0M00
0000
0000
0000
303M
0000
2000
0000
0000
30M1
0000
0000
,  // measure 27
0200
0000
0000
0300
0M00
0000
0020
0000
0000
0030
10M0
0000
0001
0000
0400
0000
,  // measure 28
0000
0000
M000
0000
0300
0000
0102
0000
0M00
0000
2003
0000
0000
301M
0000
0000
,  // measure 29
0010
0000
0100
0000
0001
0000
1000
0000
0100
0000
0010
0000
0001
0000
0010
0100
0010
0000
0001
0000
1000
0000
0010
0000
0100
0000
0002
0000
0000
0000
0003
0000
,  // measure 30
0101
2000
0M00
3020
0000
0130
0004
0000
M000
0000
1003
0000
0010
0000
1000
0000
,  // measure 31
1100
0002
0M00
1003
0000
0010
4000
0000
000M
0000
3001
0000
0200
0000
0310
0000
,  // measure 32
2010
0000
0000
01M0
0000
0000
3004
0000
0M00
0000
0003
0000
0000
0000
00M1
0000
,  // measure 33
0201
0000
0000
001M
0000
03M1
1000
0001
0020
0000
0000
0000
0230
0000
0300
0000
,  // measure 34
0110
2000
00M0
3002
0000
0013
0400
0000
0300
0000
10M0
0000
0002
0000
0103
0000
,  // measure 35
0110
1000
0M00
0002
0000
0103
0040
0000
0M00
0000
1030
0000
0002
0000
0013
0000
,  // measure 36
0210
0000
1300
00M1
0000
0001
0100
0000
M00M
0000
0020
0000
0000
2030
0000
3000
,  // measure 37
1100
0000
0000
0000
M00M
0000
0020
0000
0000
0000
0130
0000
1000
0000
0001
0010
0001
0000
1000
0000
0010
0000
0100
0000
0001
0000
1000
0000
0001
0000
0010
0000
,  // measure 38
0200
0000
1300
0001
0100
0010
1000
0010
0100
0001
1000
0100
0010
0001
0010
0100
,  // measure 39
1000
0000
0001
0100
0010
1000
0001
1000
0100
0010
0001
0010
0100
1000
0001
0100
,  // measure 40
0002
0000
1003
0010
1000
0001
0100
0010
0100
0001
1000
0100
0010
0001
0010
0100
,  // measure 41
2000
0000
3001
0100
0010
1000
0001
1000
0100
0010
0001
1000
0001
0100
0010
0100
,  // measure 42
0001
1000
0010
100M
0M00
M001
00M0
100M
0M00
M001
00M0
100M
0010
0100
0010
1000
,  // measure 43
0001
0000
0010
0001
1000
0001
0100
0010
1000
0010
0100
0001
1000
0100
0010
0000
,  // measure 44
0100
0010
0001
0000
1000
0100
0010
0001
1000
0001
1000
0010
0100
0001
1000
0001
,  // measure 45
0010
0000
0001
1000
0010
0100
0010
1000
0001
0010
0100
1000
0001
1000
0100
0010
,  // measure 46
0100
0010
0002
0000
1003
0001
0100
0010
1000
0001
0010
0100
1000
0001
1000
0100
,  // measure 47
0020
0000
0000
0000
0130
0000
0000
0000
1000
0000
0001
0000
0000
0000
0100
0000
0000
0000
0010
0100
0010
0000
1000
0000
0001
0000
1000
0000
0100
0000
0010
0001
,  // measure 48
0010
0100
1000
0100
0010
0001
2002
0000
0000
0000
0000
0000
0000
0000
0000
0000
,  // measure 49
0000
0000
0000
3003
;

//---------------dance-single - Hard----------------
#NOTES:
     dance-single:
     Ace Of Hearts (2011):
     Hard:
     8:
     0.501,0.000,0.100,1.000,0.321:
0000
0000
0000
0000
,
0000
0000
0000
0000
,
0000
0000
0000
0000
,
0001
0010
0000
0001
0000
1000
0000
0010
0000
1000
0000
0001
0100
0000
0000
0000
,
0001
0000
1000
0000
0001
0000
0040
0000
0000
0000
0000
0030
0000
0000
0000
0000
,
2002
0000
3003
0000
0001
0200
0000
0320
,
0000
0000
1030
0002
0000
0003
1000
0400
,
0000
0000
0300
1000
0001
0200
0000
0320
,
0000
0000
0000
0000
1030
0000
0002
0000
0000
0000
1003
0000
0100
0000
1000
0002
,
0000
0000
0003
0000
1000
0200
0000
0320
,
0000
0000
0130
2000
0000
0000
3001
0200
,
0000
0000
0300
0001
1000
0200
0000
0320
,
0000
0000
0000
0000
0000
0000
0031
0000
0000
4000
0004
0000
0000
0000
0000
0000
0000
0000
0000
0000
0000
0000
0000
0000
,
3003
0000
0000
0000
1000
0200
0000
0320
,
0000
0000
0130
2000
0000
0000
3010
0400
,
0000
0300
0000
0001
1000
0200
0000
0320
,
0000
0000
0000
0000
0031
0000
2000
0000
0000
0000
3001
0000
0010
0000
0100
2000
,
0000
0000
3000
0001
0100
0020
0000
2030
,
0000
0000
3010
0200
0000
0302
0000
1003
,
0000
0020
0000
0000
0030
0000
1000
0001
,
2000
0000
0000
0000
3020
0000
0000
0000
0230
0000
0000
0302
0000
0000
1003
0000
,
2040
0000
0000
0000
3030
0000
0000
0000
0020
0000
0000
0130
0000
0000
0202
0000
,
0000
0000
0000
0000
0303
0000
0000
0000
0002
0000
0000
0203
0000
0000
0310
0000
,
2010
0000
0000
010M
0000
0000
3001
0000
0102
0000
0000
M010
0000
0000
1003
0000
,
2001
0000
0000
320M
0000
0000
0310
0000
M200
0000
0000
0000
2300
0000
0000
0000
,
3002
0000
0000
0000
0000
0000
0000
0000
0003
0000
2000
0000
0000
3100
0000
0000
,
0020
0000
0030
0200
0000
1300
0001
0400
,
0000
0000
0000
0000
0300
0000
0002
0000
0000
0000
2003
0000
0000
3010
0000
0000
,
0220
0000
0000
0000
0330
0000
0000
0000
0000
0000
0100
0000
0001
2000
0000
0000
,
3001
0020
0000
013M
0000
1000
0004
0000
0000
0000
1003
0000
0010
0000
0100
0000
,
0010
2000
0000
30M1
0000
0010
0004
0000
0000
0000
1003
0000
0010
0000
0100
0000
,
0001
0000
1000
010M
0000
0000
0040
0000
0000
0000
0030
0000
0000
0000
0001
0000
,
2000
0000
0000
3020
0000
0130
0001
0100
0002
0000
0000
0000
2003
0000
0000
0000
,
3010
0200
0000
03M1
0000
1000
0040
0000
0030
0000
1000
0000
0001
0000
1000
0000
,
0100
0020
0000
0M31
0000
1000
0040
0000
0000
0000
1030
0000
0001
0000
0010
0000
,
0100
0000
1000
0M01
0000
0001
0010
0000
0000
0000
0002
0000
0000
20M3
0000
0000
,
3010
0000
0000
0200
0000
0301
1000
0000
0400
0000
0000
000M
0300
0000
0000
0000
,
2000
0000
0000
0000
0000
0000
3020
0000
0000
0M00
0000
0000
0230
0000
0000
0000
,
0302
0000
0000
2003
0000
0000
3020
0000
000M
0000
0230
0000
0000
0301
0000
0000
,
2000
0000
0000
0000
3020
0000
0130
0004
0000
0000
0000
00M0
0000
0000
0003
0000
,
0000
0000
1000
0000
0010
M200
0000
0302
0000
0000
0000
0000
2003
0000
0000
0000
,
3200
0000
0000
0320
0000
0000
0032
0000
,
0203
0000
0000
0301
0000
1000
0010
0000
0000
0000
2000
0000
0000
3002
0000
0003
,
0021
0000
0000
0000
0230
0000
1300
0004
0000
0000
0000
0000
0003
0000
1000
0010
,
2000
0000
0000
3002
0000
0000
0013
0000
0200
0000
0310
0001
0000
0000
1000
0000
,
0200
0000
0000
0000
0000
0000
1300
0002
0000
0000
0000
0000
0000
0000
1003
0100
,
0020
0000
0000
0000
0000
0000
0000
0000
0000
0032
0000
0000
0000
0000
0000
0000
0000
0000
1003
0000
0000
0000
0000
0000
0040
0000
0400
0000
0000
0000
0000
0000
0000
0000
0000
0000
0000
0000
0000
0000
0000
0000
0000
0000
0000
0000
0000
0000
,
0000
0000
0330
2002
0000
0000
0000
0000
,
0000
0000
0000
3003
;

//---------------dance-single - Medium----------------
#NOTES:
     dance-single:
     Ace Of Hearts (2011):
     Medium:
     6:
     0.387,0.000,0.011,0.731,0.155:
0000
0000
0000
0000
,
0000
0000
0000
0000
,
0000
0000
0000
0000
,
0001
1000
0001
0000
0010
0000
0001
0000
,
1000
0001
1000
0004
0000
0000
0000
0000
,
0003
0000
0000
0000
1000
0001
0000
0020
,
0000
0000
0031
2000
0000
0000
3001
0200
,
0000
0000
0300
0001
1000
0002
0000
0023
,
0000
0000
0000
0000
0031
0000
2000
0000
0000
0000
3001
0000
0010
0000
0000
0002
,
0000
0000
0003
0000
1000
0200
0000
0320
,
0000
0000
0130
2000
0000
0000
3001
0200
,
0000
0300
0000
0001
1000
0002
0000
2003
,
0000
0000
3001
0020
0000
0130
1000
0000
,
0001
0000
0000
0000
1000
0020
0000
2030
,
0000
0000
3001
0200
0000
0000
0301
2000
,
0000
0000
3000
0001
0010
0001
0000
2000
,
0000
0000
0000
0000
3001
0000
0200
0000
0000
0000
0301
0000
1000
0000
0000
0002
,
0000
0000
0003
1000
0100
1000
0000
0002
,
0000
0000
1003
0020
0000
2030
0000
3002
,
0000
0023
0000
0000
0030
0000
0001
1000
,
0002
0000
0000
0000
0203
0000
0000
0000
0304
4000
0000
0000
0000
0000
0000
0000
,
3003
0000
0000
0000
0000
0000
0000
0000
0001
0000
0000
0001
0000
0000
0020
0000
,
0000
0000
0000
0000
0030
0000
0000
0000
0001
0000
0000
1000
0000
0000
0001
0000
,
0010
0000
0000
0001
0000
0000
1000
0000
0001
0000
0000
0100
0000
0000
0001
0000
,
1000
0000
0000
0010
0000
0000
1000
0000
0002
0000
0000
0000
2003
0000
0000
0000
,
3020
0000
0000
0000
0000
0000
0000
0000
0030
0000
2000
0000
0000
3001
0000
0000
,
0200
0000
0000
0302
0000
0000
1003
0200
,
0000
0000
0000
0000
0000
0000
0320
0000
0000
0000
0032
0000
0000
1003
0000
0000
,
0200
0000
0300
0000
0000
1000
1000
0000
,
0001
0000
0000
0001
0000
0000
0002
0000
0000
0000
1003
0000
1000
0000
0000
0000
,
0100
0000
0000
0100
0000
0000
0200
0000
0000
0000
0310
0000
0010
0000
0000
0000
,
0100
0000
0000
0100
0000
0000
0100
0000
0000
0000
0000
0000
0000
0000
1000
0000
,
0002
0000
0003
0000
,
0010
0000
0000
0010
0000
0000
0020
0000
0000
0000
0130
0000
0100
0000
0000
0000
,
1000
0000
0000
1000
0000
0000
2000
0000
0000
0000
3001
0000
0001
0000
0000
0000
,
0100
0000
0000
0100
0000
0000
0100
0000
0000
0000
0001
0000
0000
1000
0000
0000
,
0002
0000
0000
0013
0000
0000
0100
0000
0200
0000
0000
0000
0300
0000
0000
0000
,
2000
0000
0000
3002
0000
0000
0103
0000
,
0010
0000
0000
0010
0000
0000
2000
0000
0000
0000
3001
0000
0000
0001
0000
0000
,
2000
0000
0000
0000
3010
0000
0000
0020
0000
0000
0000
0000
0030
0000
0000
0000
,
0000
1000
1000
0000
0002
0000
2003
0000
,
3200
0000
0000
0320
0000
0000
0032
0000
,
1003
0000
0000
1000
0000
0000
0010
0000
0000
0000
1000
0000
0000
1000
0000
0000
,
0002
0000
0000
0000
0013
0000
0000
0020
0000
0000
0000
0000
0030
0000
0001
0000
,
1000
0000
0000
1000
0000
0000
1000
0000
0010
0000
0000
0010
0000
0000
0010
0000
,
0200
0000
0000
0302
0000
0000
0000
0000
,
2003
0000
0000
3020
0000
0000
1030
0000
0002
0000
0000
0023
0000
0000
0130
0000
,
0000
0000
0000
2002
0000
0000
0000
0000
,
0000
0000
0000
3003
;

//---------------dance-single - Easy----------------
#NOTES:
     dance-single:
     Ace Of Hearts (2011):
     Easy:
     3:
     0.207,0.000,0.044,0.255,0.000:
0000
0000
0000
0000
,
0000
0000
0000
0000
,
0000
0000
0000
0000
,
0000
0000
0000
0000
,
0000
0000
0000
0000
,
0000
0000
0001
0001
,
0002
0000
1000
0000
,
1003
0000
1000
1000
,
2000
0000
0100
0100
,
3100
0000
0100
0100
,
0200
0000
0010
0000
,
0310
0000
0010
0010
,
0020
0000
0001
0001
,
0031
0000
0001
0001
,
0002
0000
1000
0000
,
1003
0000
1000
1000
,
2000
0000
0010
0010
,
3010
0000
0010
0010
,
0020
0000
0100
0100
,
0130
0000
0000
0000
,
0100
0100
0001
0001
,
0001
0000
1000
1000
,
1000
0000
0100
0100
,
0010
0010
0001
0001
,
1000
1000
1000
1000
,
0020
0000
0030
1000
,
1000
0000
0001
0001
,
0001
0000
0100
0100
,
0100
0000
0000
0000
,
0010
0010
0010
0000
,
1000
1000
1000
0000
,
0001
0001
0001
0000
,
1000
0000
1000
0000
,
0010
0010
0010
0000
,
0100
0100
0100
0000
,
0001
0001
0001
0000
,
2002
0000
3003
0000
,
0002
0000
0003
0000
,
0020
0000
0030
0000
,
2002
0000
3003
0000
,
0000
1000
1000
1000
,
0020
0000
0030
0000
,
0200
0000
0300
0000
,
0220
0000
0330
0000
,
0010
0010
1000
1000
,
0002
0000
0003
0000
,
2000
0000
0002
0000
,
3003
0000
0000
2002
0000
0000
0000
0000
,
0000
0000
0000
3003
;

//---------------dance-single - Novice----------------
#NOTES:
     dance-single:
     Ace Of Hearts (2011):
     Beginner:
     1:
     0.131,0.000,0.011,0.266,0.000:
0000
0000
0000
0000
,
0000
0000
0000
0000
,
0000
0000
0000
0000
,
0000
0000
0000
0000
,
0000
0000
0000
0000
,
0000
0000
0001
0000
,
0001
0000
0002
0000
,
0003
0000
1000
0000
,
1000
0000
2000
0000
,
3000
0000
0010
0000
,
0010
0000
0020
0000
,
0030
0000
0100
0000
,
0100
0000
0200
0000
,
0300
0000
0010
0000
,
0010
0000
0020
0000
,
0030
0000
1000
0000
,
1000
0000
2000
0000
,
3000
0000
0001
0000
,
0001
0000
0002
0000
,
0003
0000
0000
0000
,
0100
0000
0100
0000
,
0100
0000
0010
0000
,
0010
0000
1000
0000
,
1000
0000
0001
0000
,
2000
0000
0000
0000
,
3000
0000
0000
0000
,
0100
0000
0100
0000
,
0100
0000
0010
0000
,
0010
0000
0000
0000
,
0002
0000
0000
0003
0000
0000
0000
0000
,
0002
0000
0000
0003
0000
0000
0000
0000
,
2000
0000
0000
3000
0000
0000
0000
0000
,
0010
0000
0010
0000
,
0020
0000
0000
0030
0000
0000
0000
0000
,
0020
0000
0000
0030
0000
0000
0000
0000
,
0200
0000
0000
0300
0000
0000
0000
0000
,
0002
0000
0003
0000
,
2000
0000
3000
0000
,
0200
0000
0300
0000
,
0020
0000
0030
0000
,
0001
0000
0001
0000
,
0002
0000
0003
0000
,
2000
0000
3000
0000
,
0020
0000
0030
0000
,
1000
0000
1000
0000
,
2000
0000
3000
0000
,
0010
0000
0010
0000
,
0000
0000
0000
2002
0000
0000
0000
0000
,
0000
0000
0000
3003
;
