#TITLE:Bird Against the Storm;
#SUBTITLE:;
#ARTIST:HyunTaek Yun;
#TITLETRANSLIT:;
#SUBTITLETRANSLIT:;
#ARTISTTRANSLIT:;
#GENRE:Game Music;
#CREDIT:Ace Of Hearts;
#BANNER:Bird Against the Storm - bn.png;
#BACKGROUND:Bird Against the Storm - bg.jpg;
#LYRICSPATH:;
#CDTITLE:Ace Of Hearts.png;
#MUSIC:Bird Against the Storm.ogg;
#OFFSET:2.940;
#SAMPLESTART:65.900;
#SAMPLELENGTH:15.000;
#SELECTABLE:YES;
#BPMS:0.000=61.000,18.000=122.000,58.000=61.000,82.000=122.000,114.000=61.000,154.000=122.000;
#STOPS:;
#BGCHANGES:;
#KEYSOUNDS:;

//---------------dance-single - Invoke----------------
#NOTES:
     dance-single:
     Ace Of Hearts (2011):
     Challenge:
     11:
     0.671,0.000,0.340,0.860,1.000: // measure 1
0000
0000
0000
0000
,  // measure 2
00M0
0000
0M00
0000
,  // measure 3
M002
0000
0000
0M13
0000
0000
020M
0000
0000
0000
0000
0000
23M0
0000
0000
0000
3M02
0000
0000
M103
0000
0000
002M
0000
0000
0000
1M30
0000
0001
0000
0100
0000
,  // measure 4
M220
0000
0000
0000
0000
0000
000M
0000
0000
0000
0000
0000
M330
0000
0000
0000
0000
0000
0M00
0000
0000
0000
0000
0000
1021
0000
0000
0000
0000
0000
M000
0000
0000
0000
0000
0000
003M
0000
0000
0000
0000
0000
0000
0000
0000
4000
0004
0000
,  // measure 5
0000
0000
0000
0000
0000
0000
0000
3003
1000
0000
0000
0100
0000
0000
2000
0000
,  // measure 6
0000
0000
0000
3001
0100
0010
0200
0300
0101
0000
0000
0001
0000
0000
4000
0000
,  // measure 7
0000
0000
0000
0000
0000
0000
3000
0000
1100
0000
0000
0100
0000
0000
0020
0000
,  // measure 8
0000
0000
0000
0130
1000
0001
0100
0000
0220
0000
0330
0000
2020
0000
3030
0000
,  // measure 9
0102
0000
1003
0100
0020
0030
0011
0000
0001
0000
0000
1000
0000
0000
0020
0000
,  // measure 10
0000
0000
0000
1030
0001
0010
0100
0000
2100
0000
0000
3010
0000
0000
0400
0000
,  // measure 11
0000
0301
1000
0100
0020
0000
0230
0300
210M
0000
30M2
0003
M201
0000
0310
101M
,  // measure 12
0000
1000
0001
0010
0100
1000
0001
0100
012M
0000
2M30
3000
10M2
0000
0013
M210
,  // measure 13
0000
0000
1300
0000
0001
0000
1000
0100
10M0
0000
0001
0000
0100
0000
0010
0000
2M10
0000
0000
0000
30M2
0000
0003
0000
M021
0000
0000
0000
0130
0000
110M
0000
,  // measure 14
4000
0000
0000
0000
3001
0100
0010
1000
10M2
0000
M023
0030
011M
0100
1000
1M02
,  // measure 15
0000
0000
0103
0000
0010
0000
1000
0000
0M01
0000
0010
0000
0100
0000
1000
0000
0001
0000
0000
0010
0000
0000
020M
0000
000M
0000
000M
0000
030M
0000
0000
0000
,  // measure 16
1000
0000
0000
0001
M100
0001
M400
0000
M000
0000
M320
0000
0000
0000
1030
0000
0002
0000
0000
0000
1003
0000
0200
0000
0000
0000
0310
0000
0001
1000
0002
0000
,  // measure 17
0000
0000
0000
0000
10M3
0100
40M0
0000
00M0
0000
00M0
0000
30M0
0000
0000
0000
0M02
0000
0M00
0000
0M00
0000
0M00
0000
0M00
0000
0000
0000
0003
0000
1000
0010
,  // measure 18
2000
0000
0000
0000
3000
0000
0001
0000
0010
0000
0100
0000
1000
0000
0000
0000
0002
0000
0000
0000
0000
0000
2003
0000
0000
0000
0000
0000
3100
0000
0000
0000
0020
0000
0000
0000
M000
0000
0000
0000
M000
0000
0000
0000
M000
0000
0000
0030
M040
0000
0000
0000
M000
0000
0000
0000
0031
0000
0000
0000
1000
0000
0100
0000
,  // measure 19
1000
0100
0010
0001
0010
0000
0200
0000
13M0
0100
20M0
0000
00M0
0000
30M0
0000
0001
0000
0000
0100
000M
0000
004M
0000
000M
0000
003M
0000
100M
0000
0100
0000
,  // measure 20
0020
0000
0000
0000
0000
0000
0031
0000
0010
0000
0100
0000
4000
0000
0000
0000
0000
0000
0000
0000
3200
0000
0000
0000
0000
0000
0000
0000
0310
0000
0001
0000
0020
0000
0000
0000
M000
0000
0000
0000
M000
0000
0000
0000
M000
0000
0000
0030
M040
0000
0000
0000
M000
0000
0000
0000
0030
0000
0000
0000
0001
0000
1000
0000
,  // measure 21
0001
0010
0001
0000
0000
0000
1000
0000
0000
0000
0010
0000
0100
0000
0000
0000
0102
0000
0000
0000
0000
0000
1003
0000
0010
0000
1000
0000
0001
0000
0100
0000
0001
0000
0000
0000
0000
0000
0000
0000
0000
0000
0000
0000
1000
0000
0000
0000
0000
0000
0000
0000
0000
0000
0000
0000
0020
0000
0000
0000
0000
0000
0000
0000
,  // measure 22
0000
0000
0000
1030
0001
0010
0100
0000
0010
0000
0000
0001
0000
0000
0400
0000
,  // measure 23
0000
0000
0000
0000
0300
0000
0000
0000
0010
0000
0000
1000
0000
0000
0002
0000
,  // measure 24
0000
0000
0000
0013
0100
0010
0001
0000
0202
0000
0303
0000
2020
0000
3030
0000
,  // measure 25
1000
0001
0100
0010
2000
0000
3001
0010
0100
0000
0000
1000
0000
0000
0002
0000
,  // measure 26
0000
0000
0000
0103
0010
1000
0020
0000
0130
0000
0000
0001
0000
0000
0400
0000
,  // measure 27
0000
0000
0310
1000
0002
0000
0013
0000
021M
0000
23M0
3000
1M02
0000
0103
M110
,  // measure 28
0000
0010
1000
0001
0010
0001
1000
0010
M210
0000
03M2
0003
2M01
0000
3100
012M
,  // measure 29
0000
0000
0031
0000
1000
0000
0001
0010
0M01
0000
1000
0000
0010
0000
0100
0000
0102
0000
0000
0000
0M00
0000
0M00
0000
0M00
0000
0M00
0000
0M03
0000
0M00
0000
,  // measure 30
0M00
0000
0M00
0000
0M00
0000
0M00
0000
0M00
0000
0M00
0000
0M00
0000
0000
0000
0040
0000
0000
0430
0000
0000
4300
0000
0000
3004
0000
0000
0023
0000
0230
0000
,  // measure 31
0340
0000
0000
0032
0000
0000
4003
0000
0000
0000
3200
0000
0000
0000
0310
0001
0010
0000
0000
0100
00M0
0000
20M0
0000
00M0
0000
00M0
0000
3001
0000
0100
0010
,  // measure 32
0400
0000
M000
0000
M300
0000
M002
0000
M000
0000
M403
0000
0000
0000
0301
0000
1000
0100
1000
0100
0010
0001
0010
0001
0010
0100
1000
0100
1000
0100
0010
0001
,  // measure 33
0020
0000
0M30
0000
0M20
0000
0M30
0000
0M20
0000
0000
0000
003M
0000
000M
0000
010M
0000
000M
1000
0000
0000
0004
0000
00M0
0000
00M0
0000
00M3
0000
00M0
0000
,  // measure 34
1000
0000
0000
0001
0010
0100
4000
0000
0000
0000
3002
0000
0000
0000
0103
0000
M020
0000
M000
0000
M130
0000
M002
0000
0000
0000
1003
0000
0100
0000
0020
0000
,  // measure 35
000M
0000
000M
0000
013M
1000
040M
0000
000M
0000
000M
0000
2300
0000
0000
0000
3002
0000
0M00
0000
0M00
0000
0M00
0000
0M00
0000
0M00
0000
0M03
0000
0000
0000
,  // measure 36
2000
0000
0000
0000
0000
0000
3001
0000
0010
0000
0100
0000
2000
0000
0000
0000
3002
0000
0000
0000
0000
0000
2003
0000
0000
0000
0000
0000
3100
0000
0000
0000
0020
0000
0000
0000
M000
0000
0000
0000
M000
0000
0000
0000
M000
0000
0000
0030
M040
0000
0000
0000
0000
0000
0000
0000
0032
0000
0000
0000
1003
0000
0100
0000
,  // measure 37
0010
0001
0010
0100
2000
0000
3001
0000
0010
0100
4000
0000
00M0
0000
30M0
0000
00M1
0000
0000
0100
M000
0000
M040
0000
M000
0000
0030
0000
1M00
0000
0M01
0000
,  // measure 38
0M10
0000
0000
0000
0000
0000
0001
0000
0010
0000
0100
0000
2000
0000
0000
0000
00M0
0000
0000
0000
30M4
0000
0000
0000
00M0
0000
0000
0000
0103
0000
0000
0000
0020
0000
0000
0000
000M
0000
0000
0000
000M
0000
0000
0000
000M
0000
0000
0030
004M
0000
0000
0000
000M
0000
0000
0000
003M
0000
0000
0000
1000
0000
0100
0000
,  // measure 39
0010
0001
0000
0010
0000
0001
1000
0000
1020
0000
0000
0130
0001
0100
0001
1000
0001
0000
0000
0000
0000
0000
0100
0000
0000
0000
0000
0000
0010
0000
0100
0000
,  // measure 40
0102
0000
0000
1003
0100
0010
0200
0000
1300
0000
0000
0001
0000
0000
1000
0010
,  // measure 41
1000
0001
0010
0100
2100
0000
0000
0000
3010
0000
0000
0100
0000
0000
0001
0000
,  // measure 42
0011
0000
0010
0100
1000
0001
0010
0000
0210
0000
0000
0300
1100
0000
1000
0001
,  // measure 43
0100
0020
0000
1030
0001
0100
0010
0100
0001
0000
0000
1000
0010
0000
0100
0001
,  // measure 44
1000
0001
0010
0000
0100
1000
0001
0000
1000
0000
0000
0001
0010
0000
0001
1000
,  // measure 45
0000
0010
0100
0010
2000
0000
3001
0000
M201
0000
032M
0030
2M10
0000
3001
001M
,  // measure 46
0100
1000
0100
1000
0001
0010
0001
0010
0100
1000
0100
0000
0020
0000
0030
0000
M210
0000
0000
0000
23M0
0000
3000
0000
1M02
0000
0000
0000
0103
0000
M120
0000
,  // measure 47
0000
1030
0001
0100
001M
1000
0002
0003
M021
0000
023M
0300
10M0
0001
0100
M010
,  // measure 48
0400
0000
0000
0000
0301
1000
0020
0030
021M
0000
M302
0000
10M3
0100
0010
M001
,  // measure 49
0010
0001
0010
0000
0100
0000
1000
0000
0M01
0010
0001
0000
1000
0000
0000
0000
102M
0000
0000
0000
M230
0000
0300
0000
01M2
0000
0000
0000
1003
0000
120M
0000
,  // measure 50
0000
0310
0001
1000
002M
0100
0000
1030
1M02
0000
M013
0100
001M
0001
1000
00M0
,  // measure 51
0100
0010
0100
1000
0002
0100
0000
1003
01M0
0010
M200
0000
13M0
0001
0100
001M
,  // measure 52
1000
0000
0001
0000
0010
0001
0010
0001
M020
0000
0000
0000
0030
0000
0000
0000
2200
0000
0000
0000
0000
0000
0000
0000
0000
0000
0000
0000
0000
0000
0000
0000
,  // measure 53
0000
0000
0000
0000
,  // measure 54
3300
0000
0000
0000
;

//---------------dance-single - Nue----------------
#NOTES:
     dance-single:
     Ace Of Hearts (2011):
     Hard:
     9:
     0.449,0.000,0.035,0.978,0.441: // measure 1
0000
0000
0000
0000
,  // measure 2
0000
0000
0000
0000
,  // measure 3
0000
0000
0000
0000
,  // measure 4
0000
0000
0000
0000
0000
0000
0000
0000
2002
0000
0000
0000
3003
0000
0000
4000
,  // measure 5
0000
0000
0000
0000
0000
0000
0000
3000
0001
0000
0000
0010
0000
0000
0002
0000
,  // measure 6
0000
0000
0003
0000
1000
0010
2000
0000
3001
0000
0000
0010
0000
0000
0400
0000
,  // measure 7
0000
0000
0000
0000
0300
0000
0000
0000
1000
0000
0000
0001
0000
0000
2000
0000
,  // measure 8
0000
0000
3000
0000
0001
0100
0001
0000
2000
0000
0000
0000
3200
0000
0000
0000
,  // measure 9
0320
0000
0000
0000
0032
0000
0000
0000
1003
0000
0000
0010
0000
0000
2000
0000
,  // measure 10
0000
0000
0000
0000
3001
0010
0002
0000
1003
0000
0000
0010
0000
0000
0400
0000
,  // measure 11
0000
0000
0000
0000
0302
0000
0000
0000
20M3
0000
3200
0000
032M
0000
0130
1000
,  // measure 12
0M00
0000
0000
0000
1001
0000
0000
0000
M002
0000
0203
0000
032M
0000
0130
0002
,  // measure 13
0M00
1003
0100
0000
M020
0000
0000
0000
023M
0000
2300
0000
30M2
0000
1003
0100
,  // measure 14
M000
0000
0040
0000
0000
0000
0030
0000
0M02
0000
0203
0000
032M
0000
0130
0002
,  // measure 15
M000
0000
1003
0000
0200
0000
0000
0000
032M
0000
0000
0000
0000
0000
0000
0000
0031
0000
0000
1000
0000
0000
020M
0000
0000
0000
000M
0000
0300
0000
000M
0000
,  // measure 16
0010
0000
000M
0100
0000
0000
2000
0000
0000
0000
3002
0000
0000
0000
1003
0000
0020
0000
0000
0000
0130
0000
0002
0000
0000
0000
1003
0000
0010
0000
2000
0000
,  // measure 17
0000
0000
3001
0400
0000
M000
0300
M000
0020
M000
0000
M000
0000
M000
0030
0000
,  // measure 18
2000
0000
0000
3200
0000
0000
0310
0000
0002
0000
0000
0023
0000
0000
0130
0000
2000
0000
0000
0000
0M00
0000
0000
0000
0M00
0000
0000
0000
3M01
0000
0010
0000
,  // measure 19
0001
0000
0010
0000
0100
0000
1000
0000
010M
0000
0000
0000
000M
0000
0000
0000
001M
0000
0000
0100
000M
0000
0040
0000
0000
0000
0000
0000
0031
0000
1000
0000
,  // measure 20
0002
0000
0000
0023
0000
0000
0230
0000
0000
0000
2300
0000
0000
0000
3001
0000
0M02
0000
0000
0000
0M00
0000
0000
0000
0M00
0000
0000
0000
1003
0000
0100
0000
,  // measure 21
0010
0001
0000
0010
0000
0001
1000
0000
0010
0000
0000
0000
0020
0000
0000
0000
0130
0000
0000
0000
0000
0000
0001
0000
0000
0000
0000
0000
0200
0000
0000
0000
,  // measure 22
0000
0000
0000
0000
0310
1000
0020
0000
1030
0000
0000
0001
0000
0000
0040
0000
,  // measure 23
0000
0000
0000
0000
0030
0000
0000
0000
0001
0000
0000
1000
0000
0000
0002
0000
,  // measure 24
0000
0000
0000
0000
1003
0010
1000
0000
0002
0000
0000
0000
0023
0000
0000
0000
,  // measure 25
0230
0000
0000
0000
2300
0000
0000
0000
3001
0000
0000
0100
0000
0000
0002
0000
,  // measure 26
0000
0000
0000
0000
1003
0100
2000
0000
3001
0000
0000
0100
0000
0000
0040
0000
,  // measure 27
0000
0000
0000
0000
2030
0000
0000
0000
3M02
0000
0203
0000
032M
0000
1030
0001
,  // measure 28
M000
0000
0000
0000
1001
0000
0000
0000
200M
0000
3020
0000
M230
0000
0301
2000
,  // measure 29
000M
3100
0020
0000
0M32
0000
0000
0000
2003
0000
0000
0000
00M0
0000
30M0
0000
,  // measure 30
00M0
0000
0000
0000
00M0
0000
0000
0000
00M0
0000
0000
0000
0000
0000
0000
0000
0002
0000
0000
0023
0000
0000
0230
0000
0000
2300
0000
0000
3001
0000
0100
0000
,  // measure 31
0004
0000
0000
2003
0000
0000
3040
0000
0000
0000
0230
0000
0000
0000
0300
0000
0002
0000
0000
1003
0M00
0000
0020
0000
0M00
0000
0000
0000
1M30
0000
1000
0000
,  // measure 32
0M04
0000
0000
0000
0M00
0000
0023
0000
0000
0000
0430
0000
0000
0000
1300
0000
0004
0400
0000
0000
M000
0000
0000
0000
M000
0000
0000
0000
M000
0000
0000
0000
,  // measure 33
M303
0000
0000
0000
M001
0000
0000
0000
0002
0000
0000
0000
00M3
0000
0000
0000
10M0
0000
0000
0001
00M0
0000
0400
0000
00M0
0000
0000
0000
03M0
0000
0000
0000
,  // measure 34
00M1
0000
0000
1000
00M0
0000
0200
0000
00M0
0000
2300
0000
0000
0000
3001
0000
0020
0000
0000
0000
0031
0000
2000
0000
0000
0000
3001
0000
0010
0000
0002
0000
,  // measure 35
0000
0000
1003
0400
0000
0000
030M
0000
200M
0000
000M
0000
000M
0000
3000
0000
,  // measure 36
0002
0000
0000
0203
0000
0000
0301
0000
2000
0000
0000
3200
0000
0000
0310
0000
0002
0000
0000
0000
0000
0000
0000
0000
0000
0000
0000
0000
1003
0000
0100
0000
,  // measure 37
0020
0000
000M
0000
0130
0000
100M
0000
0200
0000
000M
0000
0300
0000
0000
0000
M010
0000
0000
0001
M000
0000
0040
0000
M000
0000
0000
0000
0031
0000
1000
0000
,  // measure 38
0001
0000
00M0
1000
0000
0000
02M0
0000
0000
0000
23M0
0000
0000
0000
3001
0000
0M20
0000
0000
0000
0M00
0000
0000
0000
0M00
0000
0000
0000
0031
0000
1000
0000
,  // measure 39
0100
1000
0000
0001
0000
0010
0001
0000
2000
0000
0000
0000
3020
0000
0000
0000
0130
0000
0000
0000
0000
0000
0001
0000
0000
0000
0000
0000
2000
0000
0000
0000
,  // measure 40
0000
0000
0000
0000
3001
0100
0002
0000
1003
0000
0000
0010
0000
0000
0400
0000
,  // measure 41
0000
0000
0000
0000
0300
0000
0000
0000
0001
0000
0000
1000
0000
0000
0002
0000
,  // measure 42
0000
0000
0000
0000
1003
0010
1000
0000
0002
0000
0000
0000
0203
0000
0000
0000
,  // measure 43
0320
0000
0000
0000
2030
0000
0000
0000
3001
0000
0000
0010
0000
0000
0002
0000
,  // measure 44
0000
0000
0000
0000
1003
0100
2000
0000
3001
0000
0000
0100
0000
0000
0040
0000
,  // measure 45
0000
0000
0000
0000
2030
0000
0000
0000
3M02
0000
0023
0000
023M
0000
1300
0001
,  // measure 46
M000
0000
0000
0000
0101
0000
0000
0000
020M
0000
0320
0000
2M30
0000
3001
0020
,  // measure 47
M000
0031
2000
0000
302M
0000
0000
0000
M230
0000
0302
0000
20M3
0000
3100
0010
,  // measure 48
M000
0000
0400
0000
0000
0000
0300
0000
200M
0000
3002
0000
M203
0000
0310
2000
,  // measure 49
0M00
3001
0200
0000
0320
0000
0000
0000
2M30
0000
3002
0000
M023
0000
0130
2000
,  // measure 50
00M0
3001
0200
0000
M320
0000
0000
0000
2M30
0000
3002
0000
M023
0000
0031
2000
,  // measure 51
00M0
0000
3004
0000
0000
0000
0003
0000
02M0
0000
0302
0000
2M03
0000
3100
0020
,  // measure 52
M000
0130
2000
0000
30M2
0000
0003
0000
0202
0000
0000
0000
0000
0000
0000
0000
,  // measure 53
0000
0000
0000
0000
,  // measure 54
0303
0000
0000
0000
;

//---------------dance-single - Sir Percival----------------
#NOTES:
     dance-single:
     Ace Of Hearts (2011):
     Medium:
     7:
     0.300,0.000,0.028,0.631,0.316: // measure 1
0000
0000
0000
0000
,  // measure 2
0000
0000
0000
0000
,  // measure 3
0000
0000
0000
0000
,  // measure 4
0000
0000
0000
0000
,  // measure 5
0000
0000
0000
0000
0000
0000
0000
0000
1000
0000
0000
0010
0000
0000
2000
0000
,  // measure 6
0000
0000
0000
0000
3001
0000
0000
0000
0100
0000
0000
0001
0000
0000
0200
0000
,  // measure 7
0000
0000
0000
0000
0300
0000
0000
0000
0010
0000
0000
1000
0000
0000
0020
0000
,  // measure 8
0000
1030
2002
0000
,  // measure 9
3003
0000
0000
0000
0000
0000
0000
0000
0001
0000
0000
0100
0000
0000
0002
0000
,  // measure 10
0000
0000
0000
0000
1003
0000
0000
0000
0100
0000
0000
1000
0000
0000
0200
0000
,  // measure 11
0000
0000
0000
0000
0320
0000
0000
0000
0M31
0000
1000
0000
0001
0000
0000
0100
,  // measure 12
000M
0000
0000
0000
0000
0000
0000
0000
0M10
0000
1000
0000
0020
0000
0000
2030
,  // measure 13
000M
0000
3001
0000
0020
0000
0000
0000
M031
0000
1000
0000
0002
0000
0000
2003
,  // measure 14
0M00
0000
0000
0000
3000
0000
0000
0000
M010
0000
1000
0000
0010
0000
0000
2000
,  // measure 15
00M0
0000
0000
0000
3001
0000
0000
0000
0020
0000
0000
0000
0M00
0000
0000
0000
0031
0000
0000
1000
0M00
0000
0002
0000
0000
0000
0000
0000
0M03
0000
0000
0000
,  // measure 16
1000
0000
0000
0010
0M00
0000
2000
0000
0000
0000
0000
0000
3M00
0000
0000
0000
0002
0000
00M0
0000
0000
0000
0203
0000
0000
0000
00M0
0000
0301
0000
2000
0000
,  // measure 17
0000
00M0
0000
3200
0000
00M0
0300
M000
0020
0000
0000
M000
0000
0000
0030
M000
,  // measure 18
0002
0000
1000
0M00
2003
0000
0010
0M00
3020
0000
0000
0M00
0000
0000
0130
0000
,  // measure 19
0200
0000
0000
0000
0000
0000
0000
0000
0300
0000
0000
0000
0000
0000
M000
0000
0001
0000
0000
0010
0000
0000
M002
0000
0000
0000
0000
0000
0013
0000
M000
0000
,  // measure 20
0100
0000
0000
1000
0000
0000
020M
0000
0000
0000
0300
0000
0000
0000
000M
0000
0020
0000
0000
0000
0000
0000
000M
0000
0030
0000
0000
0000
0000
0000
0000
0000
,  // measure 21
0001
0000
0000
0100
0000
0000
0001
0000
2000
0000
0000
0000
3020
0000
0000
0000
1030
0000
0000
0000
0000
0000
0001
0000
0000
0000
0000
0000
0020
0000
0000
0000
,  // measure 22
0000
0000
0000
0000
0031
0000
0000
0000
2000
0000
0000
3001
0000
0000
0200
0000
,  // measure 23
0000
0000
0000
0000
0300
0000
0000
0000
0010
0000
0000
1000
0000
0000
0002
0000
,  // measure 24
0000
1003
2200
0000
,  // measure 25
3300
0000
0000
0000
0000
0000
0000
0000
0100
0000
0000
0010
0000
0000
0002
0000
,  // measure 26
0000
0000
0000
0000
1003
0000
0000
0000
0020
0000
0000
1030
0000
0000
0002
0000
,  // measure 27
0000
0000
0000
0000
0203
0000
0000
0000
031M
0000
1000
0000
0020
0000
0000
0130
,  // measure 28
M000
0000
0000
0000
0000
0000
0000
0000
00M1
0000
0100
0000
0002
0000
0000
2003
,  // measure 29
0M00
3001
0020
0000
0230
0000
000M
0300
,  // measure 30
000M
0000
0000
0000
000M
0000
0000
0000
2000
0000
0000
3002
0000
0000
0013
0000
,  // measure 31
0200
0000
00M0
4300
0000
0000
30M0
0000
0001
0000
00M0
0002
0000
0000
0103
0000
,  // measure 32
0400
0000
0000
0000
0000
0000
0300
0000
0000
0000
0000
0000
0000
0000
0000
0000
0004
4000
0000
0000
0000
0000
0000
0000
0000
0000
0000
0000
0000
0000
0000
0000
,  // measure 33
3003
0000
0000
0000
0001
0000
0M00
0000
0002
0000
0000
0000
0003
0000
0M00
0000
1000
0000
0000
0010
0000
0000
2M00
0000
0000
0000
0000
0000
3000
0000
0000
0000
,  // measure 34
0001
0000
00M0
0100
0000
0000
0002
0000
0000
0000
00M3
0000
0000
0000
0000
0000
2000
0000
00M0
0000
0000
0000
3200
0000
0000
0000
0000
0000
0310
0000
0002
0000
,  // measure 35
0000
0000
1003
0400
0000
00M0
0300
0000
2000
00M0
0000
0000
0000
00M0
3000
0000
,  // measure 36
0002
0M00
1000
0000
2003
0M00
0010
0000
3020
0M00
0000
0000
0000
0M00
1030
0000
,  // measure 37
0001
0000
0M00
0000
0010
0000
0000
0000
0001
0000
0M00
0000
0000
0000
0000
0000
1000
0000
0M00
0010
0000
0000
2000
0000
0000
0000
0M00
0000
3001
0000
0000
0000
,  // measure 38
0010
0000
0000
0100
0000
0000
2000
0000
0000
0000
30M0
0000
0000
0000
0000
0000
0002
0000
00M0
0000
0000
0000
0000
0000
0000
0000
00M0
0000
0003
0000
0000
0000
,  // measure 39
1000
0000
0000
0010
0000
0000
1000
0000
0002
0000
0000
0000
0023
0000
0000
0000
0031
0000
0000
0000
0000
0000
1000
0000
0000
0000
0000
0000
0020
0000
0000
0000
,  // measure 40
0000
0000
0000
0000
0130
0000
0000
0000
0001
0000
0000
1000
0000
0000
0200
0000
,  // measure 41
0000
0000
0000
0000
0300
0000
0000
0000
0010
0000
0000
0100
0000
0000
2000
0000
,  // measure 42
0000
3001
0202
0000
,  // measure 43
0303
0000
0000
0000
0000
0000
0000
0000
0100
0000
0000
0010
0000
0000
2000
0000
,  // measure 44
0000
0000
0000
0000
3001
0000
0000
0000
0010
0000
0000
0001
0000
0000
2000
0000
,  // measure 45
0000
0000
0000
0000
3020
0000
0000
0000
M130
0000
0001
0000
0200
0000
0000
0310
,  // measure 46
000M
0000
0000
0000
0000
0000
0000
0000
10M0
0000
0001
0000
2000
0000
0000
3020
,  // measure 47
0M00
0000
1030
0000
0002
0000
0000
0000
10M3
0000
0100
0000
2000
0000
0000
3002
,  // measure 48
0M00
0000
0000
0000
0003
0000
0000
0000
100M
0000
0010
0000
2000
0000
0000
3002
,  // measure 49
00M0
0000
0103
0000
0020
0000
0000
0000
1M30
0000
0001
0000
2000
0000
0000
3020
,  // measure 50
000M
0000
0130
0000
0002
0000
0000
0000
1M03
0000
0100
0000
2000
0000
0000
3002
,  // measure 51
00M0
0000
0000
0000
0003
0000
0000
0000
100M
0000
0010
0000
2000
0000
0000
3002
,  // measure 52
0M00
1003
0010
0000
2002
0000
0000
0000
,  // measure 53
0000
0000
0000
0000
,  // measure 54
3003
0000
0000
0000
;

//---------------dance-single - Marbel----------------
#NOTES:
     dance-single:
     Ace Of Hearts (2011):
     Easy:
     5:
     0.171,0.000,0.007,0.284,0.000: // measure 1
0000
0000
0000
0000
,  // measure 2
0000
0000
0000
0000
,  // measure 3
0000
0000
0000
0000
,  // measure 4
0000
0000
0000
0000
,  // measure 5
0000
0000
0000
0000
1000
0000
0000
2000
,  // measure 6
0000
0000
3000
0000
0001
0000
0000
0002
,  // measure 7
0000
0000
0003
0000
0100
0000
0000
0200
,  // measure 8
0000
0300
0020
0000
,  // measure 9
0030
0000
0000
0000
1000
0000
0000
2000
,  // measure 10
0000
0000
3000
0000
0001
0000
0000
0002
,  // measure 11
0000
0003
1000
001M
,  // measure 12
1000
0000
0001
M100
,  // measure 13
0002
0003
1000
010M
,  // measure 14
2000
3000
0001
M010
,  // measure 15
0001
0000
1000
1000
,  // measure 16
0001
0001
M001
0000
M010
0000
M010
0000
,  // measure 17
0002
0M03
2M00
3M00
,  // measure 18
0010
001M
002M
003M
,  // measure 19
020M
0000
0300
00M0
0001
00M1
0001
00M0
,  // measure 20
1000
10M0
1000
0000
0020
000M
0030
000M
,  // measure 21
1000
100M
1000
0000
0001
0000
0000
0002
,  // measure 22
0000
0000
0003
0000
0100
0000
0000
0200
,  // measure 23
0000
0000
0300
0000
0001
0000
0000
0002
,  // measure 24
0000
0003
2000
0000
,  // measure 25
3000
0000
0000
0000
0010
0000
0000
0020
,  // measure 26
0000
0000
0030
0000
0100
0000
0000
0200
,  // measure 27
0000
0300
0001
1M00
,  // measure 28
0001
0000
0010
M001
,  // measure 29
0020
0030
0200
000M
,  // measure 30
030M
0000
000M
0000
1000
1000
1000
0000
,  // measure 31
0002
M003
M010
M010
,  // measure 32
0200
0000
0300
0000
4000
000M
0000
000M
,  // measure 33
3000
000M
0000
0000
0010
M000
0010
M000
,  // measure 34
0100
M100
0100
M000
0001
0001
0001
0000
,  // measure 35
1000
1000
1000
0000
0200
000M
0300
000M
,  // measure 36
0010
000M
0010
0000
0020
0M00
0030
0M00
,  // measure 37
0002
0M00
0003
0000
1000
1000
1000
000M
,  // measure 38
0100
010M
0100
000M
0020
0000
0030
0000
,  // measure 39
0001
0001
0001
0000
1000
0000
0000
2000
,  // measure 40
0000
0000
3000
0000
0010
0000
0000
0020
,  // measure 41
0000
0000
0030
0000
1000
0000
0000
2000
,  // measure 42
0000
3000
0002
0000
,  // measure 43
0003
0000
0000
0000
0010
0000
0000
0020
,  // measure 44
0000
0000
0030
0000
0100
0000
0000
0200
,  // measure 45
0000
0300
1000
0M01
,  // measure 46
1000
0000
0010
100M
,  // measure 47
0020
0030
1000
00M1
,  // measure 48
2000
3000
0001
M100
,  // measure 49
0002
0003
1000
010M
,  // measure 50
2000
3000
0001
100M
,  // measure 51
0002
0003
0010
M001
,  // measure 52
0020
0030
0220
0000
,  // measure 53
0000
0000
0000
0000
,  // measure 54
0330
0000
0000
0000
;

//---------------dance-single - Fierie----------------
#NOTES:
     dance-single:
     Ace Of Hearts (2011):
     Beginner:
     2:
     0.126,0.000,0.007,0.180,0.000:
0000
0000
0000
0000
,
0000
0000
0000
0000
,
0000
0000
0000
0000
,
0000
0000
0000
0000
,
0000
0000
1000
0000
,
1000
0000
2000
0000
,
3000
0000
0010
0000
,
0010
0000
0020
0000
,
0030
0000
0100
0000
,
0100
0000
0200
0000
,
0300
0000
0001
0001
,
0001
0000
1000
1000
,
1000
0000
0010
0010
,
0010
0000
1000
1000
,
1000
0000
0001
0000
,
0001
0000
0100
0000
,
0200
0300
0020
0030
,
1000
1000
2000
3000
,
0002
0003
0010
0000
,
0010
0000
0200
0000
,
0300
0000
1000
0000
,
1000
0000
2000
0000
,
3000
0000
0001
0000
,
0001
0000
0002
0000
,
0003
0000
0100
0000
,
0100
0000
0200
0000
,
0300
0000
0010
0010
,
0010
0000
0100
0100
,
0100
0000
0002
0000
,
0003
0000
0100
0100
,
0200
0300
0001
0001
,
0002
0003
4000
0000
,
3000
0000
0100
0000
,
0100
0000
1000
1000
,
2000
3000
0002
0003
,
0010
0010
0020
0030
,
0200
0300
2000
3000
,
0002
0003
0020
0000
,
0030
0000
0001
0000
,
0001
0000
0002
0000
,
0003
0000
1000
0000
,
1000
0000
2000
0000
,
3000
0000
0010
0000
,
0010
0000
0020
0000
,
0030
0000
0100
0100
,
0100
0000
0001
0001
,
0001
0000
1000
1000
,
1000
0000
0100
0100
,
0100
0000
0010
0010
,
0010
0000
0001
0001
,
0001
0000
1000
1000
,
1000
0000
2002
0000
,
0000
0000
0000
0000
,
3003
0000
0000
0000
;
