#TITLE:Wonderful Days;
#SUBTITLE:;
#ARTIST:One Draft;
#TITLETRANSLIT:;
#SUBTITLETRANSLIT:;
#ARTISTTRANSLIT:;
#GENRE:J-Capella;
#CREDIT:Ace Of Hearts;
#BANNER:Wonderful Banner.png;
#BACKGROUND:Wonderful Background.png;
#LYRICSPATH:;
#CDTITLE:Ace Of Hearts.png;
#MUSIC:Wonderful Days.ogg;
#OFFSET:4.420;
#SAMPLESTART:62.500;
#SAMPLELENGTH:12.000;
#SELECTABLE:YES;
#BPMS:0.000=54.000,21.000=108.000,69.000=54.000,85.000=108.000;
#STOPS:;
#BGCHANGES:3.875=Wonderful Video.avi=1.000=0=0=1=====,
99999=-nosongbg-=1.000=0=0=0 // don't automatically add -songbackground-
;
#KEYSOUNDS:;

//---------------dance-single - Expert----------------
#NOTES:
     dance-single:
     Ace Of Hearts (2011):
     Challenge:
     10:
     0.747,0.436,0.177,1.000,1.000:
0000
0000
0000
0000
,
0000
0000
0001
0000
0200
0000
0310
0000
2000
0000
3001
0000
0020
0000
0031
2000
0000
0000
3001
0200
0000
0000
0310
2000
0000
0000
3001
0020
0000
0000
0031
2000
,
0000
0000
0000
0000
3000
0000
0100
0000
0020
0000
0031
0000
2000
0000
3001
0020
0000
0000
0130
2000
0000
0000
3001
0100
0002
0000
1003
0200
0000
0000
0310
0002
,
0000
0000
0000
0000
0003
0000
0000
1000
0020
0000
0130
0000
0002
0000
1003
0020
0000
0000
0130
0002
0000
0000
1003
0200
0000
0000
0310
0002
0000
0000
1003
0010
,
0000
0400
0000
0000
0300
0000
0001
1000
0002
0000
0013
0200
0000
0000
1300
0002
0000
0000
1003
0020
0000
0000
1030
0002
0000
0000
0000
0000
0000
0000
0000
0000
,
0003
2000
3010
0100
0102
0000
0013
0000
0110
0000
0100
1000
0001
0100
0010
0000
,
1010
0000
1000
0100
0010
0000
0001
0000
0101
0000
0100
0010
1000
0001
0010
0000
,
0110
0000
0100
1000
0001
0000
0100
0000
0110
0000
0010
1000
0001
0010
0100
0000
,
1100
0000
0000
0000
1000
0000
0000
0000
0001
0000
0000
0000
0000
0000
1000
0000
0000
0000
0000
0000
1010
0000
0000
0000
0000
0000
0000
0000
0010
0000
1000
0010
,
1000
0010
0100
0001
1000
0100
0010
0100
1000
0001
0100
0010
0100
0001
1000
0010
,
1000
0001
0010
0100
1000
0001
0100
0010
0200
0000
0301
0000
2000
0000
3000
0000
,
0001
0010
0100
0010
0001
1000
0010
0100
0010
1000
0001
0010
0100
0020
0000
0130
,
1000
0001
0100
0010
0100
0001
1000
0100
0010
0100
1000
0001
0200
0000
0300
0000
,
0010
0100
0001
1000
0010
1000
0001
0010
0200
0000
0310
0001
2000
0000
0002
3000
,
0000
0103
0010
1000
0001
2000
0000
3001
0020
0000
0130
0000
2000
0000
3000
0001
,
0010
0001
0100
0001
1000
0000
0010
1000
0001
0100
0010
0000
0200
0000
0300
0001
,
1000
0000
0100
0000
0010
0000
0001
0000
0010
0000
0100
0000
1000
0000
0001
0000
0100
0000
0010
0000
0100
0000
0000
0000
0002
0000
0000
0000
1003
0000
0001
0010
,
0001
0000
1000
0000
0001
0000
0000
0000
2000
0000
0000
0000
3010
0000
0100
0000
0002
0000
0000
0000
0013
0000
0100
0000
2000
0000
3001
0020
0000
0031
2000
0000
,
0000
3000
0001
0200
0000
0000
0300
0001
2000
0000
3010
0200
0000
0301
2000
0000
0000
0000
3001
0400
0000
0000
0000
0301
2000
0000
3001
0020
0000
0031
2000
0000
,
3000
0000
0100
0040
0000
0000
0000
0130
2000
0000
3001
0200
0000
0000
0310
2000
0000
0000
3001
0000
0010
0000
0100
2000
0000
0000
0000
0000
0000
0000
3000
0000
,
0000
0000
0001
0000
0200
0000
0310
0000
2010
0000
3001
0000
0010
0000
0100
0000
0120
0000
0031
2000
0000
3010
0100
0000
0210
0000
0301
0000
2001
0000
3100
0000
,
0120
0000
0000
0000
0031
0000
0000
0000
1000
0000
0001
0100
0001
0000
0000
0000
0210
0000
0000
0000
0000
0000
0000
0000
0301
0000
0000
0000
0000
0000
0000
0000
0010
0000
0000
0000
0000
0000
0000
0000
0100
0000
0000
0000
2000
0000
0000
0000
0000
0000
0000
0000
0000
0000
0000
0000
3001
0000
0000
0000
0200
0000
0000
0000
,
0000
0000
0310
2000
0000
0000
3001
0020
0000
0000
0130
2000
0000
0000
0000
0000
,
3000
0000
0001
0000
0201
0000
0310
0000
1000
0000
0001
0020
0000
0000
0130
2000
,
0000
0000
3001
0100
0020
0000
1030
0002
0000
0000
0013
0200
0000
0000
0000
0000
,
0300
0000
0000
1000
0002
0000
0103
0000
0010
0000
1000
0002
0000
0000
1003
0020
,
0000
0000
0130
0002
0000
0000
1003
0200
0000
0000
0310
0002
0000
0403
0000
0000
,
0300
0000
0001
1000
0200
0000
0310
0002
0000
0000
1003
0020
0000
0000
0130
0002
,
0000
0000
0000
0000
1003
0000
0020
0000
0000
0000
0000
0000
0100
0000
0000
0000
0100
0000
0000
0000
0100
0000
0030
0000
0100
0000
0000
0000
0001
0000
1000
0100
,
1000
0001
0010
0000
0210
0000
2000
0000
0000
0000
0000
0000
0000
0000
0000
0000
,
0000
0000
0000
0000
0300
0000
0000
0000
3002
0000
0000
0000
0000
0000
0103
0000
0000
0000
0000
0000
0010
0000
0100
0000
0001
0000
1000
0000
0100
0000
0010
0001
,
0010
0100
1000
0000
0001
0100
0001
1000
0100
0010
0000
0100
1000
0001
0100
0010
,
1000
0000
0000
0000
0001
0100
0010
1000
0002
0000
1003
0020
0000
0130
0001
0000
;

//---------------dance-single - Hard----------------
#NOTES:
     dance-single:
     Ace Of Hearts (2011):
     Hard:
     7:
     0.399,0.127,0.055,0.531,0.171:
0000
0000
0000
0000
,
0000
0001
1000
1000
0010
0010
0100
0100
,
0002
0003
1000
1000
0010
0010
0100
0100
,
0002
0003
0100
0100
0010
0010
1000
1000
,
0002
0003
1000
1000
0001
1000
0002
0000
,
0003
1000
0100
0010
0002
0000
0000
0000
0000
0000
0000
0000
0000
0000
0000
0000
,
0000
0000
2003
0000
0000
3020
0000
0000
,
0230
0000
0302
0000
0000
2003
0000
0000
,
0000
0000
0000
0000
3010
0000
0000
1000
0000
0000
0001
0000
0000
0000
1000
0000
,
0010
1000
0001
0010
0100
1000
0100
0010
,
0001
1000
0010
1000
0001
0010
0200
0000
,
0310
0001
1000
0010
0100
0010
1000
0000
,
0001
0010
0001
1000
0010
0100
0002
0000
,
1003
0100
0010
0100
1000
0001
0200
0020
,
0300
1030
0001
0010
0100
1000
0002
0000
,
1003
0010
1000
0001
0010
0100
2000
0000
,
3010
1000
0001
0010
0100
1000
0002
0000
,
0003
0000
1000
0000
0020
0000
1030
0001
2000
0000
3010
1000
0020
0000
1030
0000
,
0002
0000
1003
0000
0100
0000
0100
0000
1000
0001
1000
0000
0001
0000
0001
0000
,
1000
0010
1000
0000
0001
1000
0001
0000
1000
0100
1000
0000
0002
0000
0000
0000
,
0003
1000
2020
3030
2002
3003
0011
0110
,
1100
0000
1000
0001
1000
0000
0001
0000
0100
0000
0001
0200
0000
0000
0301
2000
,
0000
0000
3001
0200
0000
0000
0301
2000
0000
0000
3001
0200
0000
0000
0000
0000
,
0300
0000
0001
0000
1000
0000
0100
0000
0010
0000
0001
0020
0000
0000
0031
2000
,
0000
0000
3001
0020
0000
0000
0031
2000
0000
0000
3001
0200
0000
0000
0000
0000
,
0300
0000
0000
0000
0001
0000
1000
0000
0100
0000
0010
0002
0000
0000
1003
0200
,
0000
0000
1300
0002
0000
0000
1003
0020
0000
0000
1030
0001
0000
0100
0000
0000
,
0000
0000
0001
0000
1000
0000
0100
2000
0000
0000
3001
0200
0000
0000
0301
2000
,
0000
0000
3001
0020
0000
0000
0000
0000
0000
0000
0000
0000
0030
0000
0001
0000
,
0010
0100
2000
0002
0000
0000
0000
0000
,
3003
0000
2000
0000
0000
3000
0000
0010
,
1000
0001
1000
0200
0000
0000
0000
0000
,
0300
0000
0000
0000
0010
0000
0001
0000
1000
0000
0000
0001
0000
0000
0010
0000
;

//---------------dance-single - Medium----------------
#NOTES:
     dance-single:
     Ace Of Hearts (2011):
     Medium:
     5:
     0.248,0.091,0.055,0.144,0.000:
0000
0000
0000
0000
,
0000
0000
1000
0010
1000
0000
0001
0100
,
0001
0000
1000
0001
1000
0000
0010
1000
,
0010
0000
0100
0100
0001
0000
1000
1000
,
0100
0000
0010
0010
0001
1000
0002
0000
,
0003
0100
0200
0000
0000
0000
0000
0000
,
0300
0000
0002
0000
0000
2003
0000
0000
,
3002
0000
0203
0000
0000
0320
0000
0000
,
0030
2000
0000
0000
,
3000
0000
0001
0010
0001
0000
1000
0001
,
1000
0000
0010
1000
0010
0000
0100
0000
,
0001
0000
1000
0010
1000
0000
0001
0000
,
0010
0000
0100
1000
0100
0000
0010
0000
,
0001
0000
1000
0010
1000
0000
0001
0000
,
1000
0000
0010
0000
1000
0001
1000
0000
,
0010
0000
0100
0001
0100
0000
0010
0000
,
1000
0000
0001
0100
0001
0000
1000
0000
,
0000
0000
0001
0010
0001
0000
1000
0010
,
1000
0000
0100
0100
0100
0000
0010
0010
,
0010
0000
0001
0001
1000
1000
0020
0000
,
0030
0000
1010
0000
0101
0000
1001
0110
,
1001
0000
1000
0010
1000
0000
0001
0000
,
0010
0000
0001
1000
0001
0000
0100
0000
,
0000
0000
0010
1000
0010
0000
1000
0000
,
0001
0000
0010
0001
0010
0000
0100
0000
,
0000
0000
0010
0001
0010
0000
0100
0000
,
1000
0000
0001
1000
0001
0000
0100
0000
,
0000
0000
0010
1000
0010
0000
1000
0001
,
1000
0000
0020
0000
0000
0000
0030
1000
,
0010
1000
0002
0000
0000
0000
0000
0000
,
0000
0000
0003
0000
0000
0000
0000
1000
,
0100
0010
0002
0000
0000
0000
0000
0000
,
0003
0000
0000
0000
1000
0000
0001
0000
2000
0000
0000
3000
0000
0000
0010
0000
;

//---------------dance-single - Easy----------------
#NOTES:
     dance-single:
     Ace Of Hearts (2011):
     Easy:
     3:
     0.212,0.073,0.044,0.343,0.000: // measure 1
0000
0000
0000
0000
,  // measure 2
0000
0002
0000
2003
,  // measure 3
3020
0230
0000
0302
,  // measure 4
2003
3200
0320
0032
,  // measure 5
2003
3020
0000
0230
,  // measure 6
0300
0002
0000
0000
,  // measure 7
0003
2000
0000
3002
,  // measure 8
0000
0203
0000
0302
,  // measure 9
0000
1003
1000
1000
,  // measure 10
0000
0010
0010
1000
,  // measure 11
1000
0001
0001
0001
,  // measure 12
0000
0100
0100
0010
,  // measure 13
0010
1000
1000
1000
,  // measure 14
0001
0001
1000
1000
,  // measure 15
0010
0010
0100
0100
,  // measure 16
0001
0001
1000
1000
,  // measure 17
0100
0100
0010
0010
,  // measure 18
0000
0000
0001
0001
0001
0000
0100
0100
,  // measure 19
0100
0000
0001
0001
0001
0000
1000
1000
,  // measure 20
1000
0200
0320
0032
,  // measure 21
0003
0000
2002
3003
0220
0330
2002
0000
,  // measure 22
3003
0001
0001
0010
,  // measure 23
0010
0001
0001
0001
,  // measure 24
0000
1000
1000
0010
,  // measure 25
0010
0100
0100
0100
,  // measure 26
0000
0001
0001
1000
,  // measure 27
1000
0100
0100
0100
,  // measure 28
0000
0010
0010
0001
,  // measure 29
0001
0002
0000
0003
,  // measure 30
1000
2002
0000
0000
,  // measure 31
0000
3003
0000
0000
,  // measure 32
0001
0002
0000
0000
,  // measure 33
0003
0000
0000
0000
0020
0000
0000
0030
;

//---------------dance-single - Novice----------------
#NOTES:
     dance-single:
     Ace Of Hearts (2011):
     Beginner:
     1:
     0.136,0.071,0.044,0.287,0.000: // measure 1
0000
0000
0000
0000
,  // measure 2
0000
2000
3000
0002
,  // measure 3
0003
0020
0030
0002
,  // measure 4
0003
2000
3000
0020
,  // measure 5
0030
2000
3000
0002
,  // measure 6
0003
0020
0000
0030
,  // measure 7
0000
0002
0000
0003
,  // measure 8
0000
2000
0000
3000
,  // measure 9
0000
0020
0000
0030
,  // measure 10
0000
1000
0000
1000
,  // measure 11
0000
2000
0000
3000
,  // measure 12
0000
0100
0000
0100
,  // measure 13
0000
0200
0000
0300
,  // measure 14
0000
0010
0000
0010
,  // measure 15
0000
0001
0000
0001
,  // measure 16
0000
1000
0000
1000
,  // measure 17
0000
0010
0000
0010
,  // measure 18
0000
2000
3000
0002
,  // measure 19
0003
0020
0030
0002
,  // measure 20
0003
2000
3000
0020
,  // measure 21
0030
1001
1001
2002
,  // measure 22
3003
0001
0000
0001
,  // measure 23
0000
0100
0100
0100
,  // measure 24
0000
0010
0000
0010
,  // measure 25
0000
1000
1000
1000
,  // measure 26
0000
0001
0000
0001
,  // measure 27
0000
0010
0010
0010
,  // measure 28
0000
0001
0000
0001
,  // measure 29
0000
0002
0000
0003
,  // measure 30
1000
2002
0000
0000
,  // measure 31
0000
3003
0000
0000
,  // measure 32
0000
0002
0000
0000
,  // measure 33
0003
0000
0000
0000
;
