#TITLE:Winter Wrap-Up;
#SUBTITLE:;
#ARTIST:Rebecca Shoichet, Kazumi Evans & Shannon Chan-Kent;
#TITLETRANSLIT:;
#SUBTITLETRANSLIT:;
#ARTISTTRANSLIT:;
#GENRE:Pony Pop;
#CREDIT:Ace Of Hearts;
#BANNER:Winter Wrap-Up - bn.png;
#BACKGROUND:Winter Wrap-Up - bg.png;
#LYRICSPATH:;
#CDTITLE:Ace Of Hearts.png;
#MUSIC:Winter Wrap-Up.ogg;
#OFFSET:1.540;
#SAMPLESTART:134.700;
#SAMPLELENGTH:15.000;
#SELECTABLE:YES;
#BPMS:0.000=96.000,34.000=48.000,35.500=112.000,72.000=116.000,218.000=112.000,250.000=116.000,278.000=99.360,315.000=116.000;
#STOPS:126.000=0.517
,189.000=0.517
;
#BGCHANGES:0.000=Black Screen.JPG=1.000=0=0=0=StretchNoLoop====,
2.500=Winter Wrap-Up Video.avi=1.000=0=0=1=====,
364.500=Black Screen.JPG=1.000=1=0=1===CrossFade==,
99999=-nosongbg-=1.000=0=0=0 // don't automatically add -songbackground-
;
#KEYSOUNDS:;

//---------------dance-single - Applejack----------------
#NOTES:
     dance-single:
     Ace Of Hearts (2011):
     Hard:
     9:
     0.568,0.208,0.202,0.754,0.306: // measure 1
0000
0000
0000
0000
0000
0000
0000
0002
,  // measure 2
0013
0100
0010
0001
1000
0400
0300
1000
,  // measure 3
0001
0000
0100
0010
0000
2000
0000
0000
3004
0000
0000
0000
0003
0000
0020
0000
,  // measure 4
0031
0000
1000
0000
0010
0000
0100
0000
0001
1000
0000
0100
0000
0000
0010
0000
,  // measure 5
0100
1000
0000
0001
0000
0020
0000
0000
0430
0000
0000
0000
0300
0000
0010
0001
,  // measure 6
0010
0000
0100
0000
0010
0000
0001
0000
1000
0020
0000
0130
0000
0000
0010
1000
,  // measure 7
0010
0000
0100
0001
0000
1000
0000
0000
0400
0000
0000
0000
0300
0000
0010
0000
,  // measure 8
0200
0000
1300
0004
0000
0000
2003
0000
3010
0000
0100
0000
0001
0000
1000
0000
,  // measure 9
0100
0020
0000
0000
0130
0000
1000
0000
0004
0000
0000
0000
0003
0000
1000
0000
,  // measure 10
0010
1000
0001
0010
0100
0020
0000
0032
,  // measure 11
0000
0000
1003
0020
0000
0230
0000
0000
0301
0000
1000
0000
0100
0010
0001
0010
,  // measure 12
0100
1000
0001
0100
0020
0000
1030
0002
,  // measure 13
0003
1000
0010
1000
0001
0010
0200
0000
,  // measure 14
0300
0000
0010
0001
0000
2000
0000
0000
3010
0000
0100
0001
0000
2000
0000
0000
,  // measure 15
3400
0000
0000
0300
0010
0001
0010
0001
2000
0000
3010
0200
0000
0000
0000
0000
,  // measure 16
0300
0000
0001
1000
0000
0020
0000
0000
2030
0000
3001
0010
0000
0002
0000
0000
,  // measure 17
1003
0000
0010
0000
0000
0000
1000
0000
0020
0000
1030
0001
0000
2000
0000
0000
,  // measure 18
3040
0000
0030
0000
,  // measure 19
1010
1000
0001
0010
0110
0100
1000
0001
,  // measure 20
0000
0000
0000
0000
1000
0000
0000
0000
0010
0000
0100
0000
0010
0000
0000
0000
2000
0000
0000
0000
3001
0000
0020
0000
0000
0000
0000
0000
0230
0000
0000
0300
,  // measure 21
1100
1000
0001
0100
0110
0010
1000
0001
,  // measure 22
0000
0000
1000
0010
2000
0000
3001
0000
0200
0000
0320
0000
0000
0000
2030
0000
,  // measure 23
0000
0000
3001
0010
0002
0000
1003
0000
0010
0000
0100
0000
0104
0000
0000
0003
,  // measure 24
1000
0100
0010
0100
1000
0020
0000
0230
,  // measure 25
0000
0000
0301
0000
1000
0100
1000
0000
0001
0000
0100
0000
0010
0000
1000
0000
,  // measure 26
0002
0013
0100
1000
0002
0000
0103
0010
,  // measure 27
0000
0000
1000
0010
0000
0200
0000
0000
0301
0000
1000
0000
0400
0000
0000
0000
,  // measure 28
0300
0000
1000
0001
0000
0200
0000
0000
0302
0000
0000
0000
1003
0000
0100
0000
,  // measure 29
0020
0000
0032
0000
2003
0000
3400
0000
0000
0000
0000
0000
,  // measure 30
0300
0000
0010
0001
0010
0000
0200
0000
1300
0000
0001
0000
0100
0000
0010
0000
,  // measure 31
0200
0000
0000
0000
0302
0000
0000
0000
0000
2003
0000
0000
0000
0000
0000
0040
0000
0000
0000
0000
0000
0000
0000
0000
,  // measure 32
0000
0000
3030
0000
0101
0000
0011
0010
,  // measure 33
0100
1000
1001
0001
0100
0020
0000
2030
,  // measure 34
3001
0000
0010
0000
0100
0000
0000
0000
0020
0000
0000
0000
0031
0000
2000
0000
0000
0000
0000
0000
3002
0000
0000
0003
0101
0000
0000
0000
0100
0000
0000
0000
,  // measure 35
0010
0000
1000
0000
1001
0000
0001
0000
0100
0000
0020
0000
0000
0000
1030
0001
,  // measure 36
0200
0000
0301
0000
2000
0000
3020
0000
0000
0030
0110
0000
0101
0000
0001
0000
,  // measure 37
1000
0000
0010
0000
0110
0000
0100
0000
0001
0000
2000
0000
0000
0000
3100
0010
,  // measure 38
0002
0000
1003
0000
0010
0000
0200
0000
0000
0300
0102
0000
0000
0000
1003
0010
,  // measure 39
2000
0000
3001
0000
0010
0000
0100
0000
4100
0000
0000
3000
0002
0000
0103
0000
,  // measure 40
0020
1030
0001
0020
0000
0130
0000
1000
,  // measure 41
0001
1000
0010
1000
0100
0010
0100
1000
,  // measure 42
0001
0000
0100
0000
0020
0000
0000
0000
1030
0000
0004
0000
0000
0000
1003
0020
,  // measure 43
0000
0000
0130
0000
0002
0000
1003
0000
0100
0000
0000
0000
0000
0000
0010
0001
,  // measure 44
0000
2000
0000
0000
3020
0000
1030
0001
0000
0020
0000
0000
0430
0000
0000
0300
,  // measure 45
0010
0000
0001
0000
1000
0000
0001
0040
0000
0000
0000
0000
0030
0000
0001
1000
,  // measure 46
0000
0200
0000
0000
0310
0000
0100
1000
0000
0002
0000
0000
4003
0000
0000
0000
,  // measure 47
3000
0000
0001
0100
0020
0000
1030
0002
0000
0000
2003
0000
0000
0000
0200
0000
,  // measure 48
0000
0000
3300
0000
0011
0001
1000
0001
,  // measure 49
0101
0000
0100
0000
0010
0000
2000
0000
0000
0000
3001
0000
1000
0010
1000
0000
,  // measure 50
0002
0000
0000
0000
0103
0000
0020
0000
0000
0000
0000
0000
0230
0000
0000
0300
0101
0000
0000
0000
0001
0000
0000
0000
1000
0000
0000
0000
0010
0000
0000
0000
,  // measure 51
0110
0000
0100
0000
0001
0000
2000
0000
0000
0000
3100
0010
0002
0000
1003
0000
,  // measure 52
0100
0000
0020
0000
0000
0030
0011
0000
1001
0000
1000
0000
0010
0000
0100
0000
,  // measure 53
0101
0000
0001
0000
1000
0000
0200
0000
0000
0000
0310
0100
2000
0000
3001
0000
,  // measure 54
1000
0000
0002
0000
0000
0003
0201
0000
0000
0000
0310
1000
0002
0000
0013
0000
,  // measure 55
0100
0000
1000
0000
1004
0000
0000
0003
0000
0000
1000
0000
0200
0000
0310
0000
,  // measure 56
0001
0000
1000
0010
0000
2000
0000
3400
0000
0300
0000
0000
0010
0000
0001
2000
,  // measure 57
0000
3010
0000
0200
0000
0000
0000
0000
0300
0000
0001
0000
0100
0000
0001
0000
,  // measure 58
0020
0000
0000
0130
0000
1000
0000
0002
0000
0000
0003
0000
1000
0000
0010
0200
,  // measure 59
0000
0301
0000
2000
0000
0000
3000
0000
0001
0000
0010
0000
0100
0000
1000
0000
,  // measure 60
0001
0100
0001
1000
0000
0000
0000
0000
0001
0010
0100
0000
0010
0000
0001
0000
,  // measure 61
2000
0000
3000
0000
0010
0100
0001
1000
,  // measure 62
0001
0100
0000
0020
0000
0000
1030
0000
0001
0000
0010
0000
0100
0000
1000
0004
,  // measure 63
0000
0000
0000
0003
1001
1000
0010
0100
,  // measure 64
0101
0000
0001
0000
1000
0000
0200
0000
0000
0000
0310
0000
0001
0010
0100
0000
,  // measure 65
2000
0000
0000
0000
3001
0000
0200
0000
0000
0000
0000
0000
0320
0000
0000
0030
1010
0000
0000
0000
1000
0000
0000
0000
0001
0000
0000
0000
0010
0000
0000
0000
,  // measure 66
0110
0000
0100
0000
1000
0000
0002
0000
0000
0000
1003
0100
0020
0000
0130
0000
,  // measure 67
1000
0000
0002
0000
0000
0003
0101
0000
0110
0000
0010
0000
1000
0000
0001
0000
,  // measure 68
0101
0000
0100
0000
0010
0000
2000
0000
0000
3001
0010
0001
1000
0000
0020
0000
,  // measure 69
0230
0000
0302
0000
0000
0003
2001
0000
0000
0000
3010
0100
0001
0000
1000
0000
,  // measure 70
0100
0000
0010
0000
0400
0000
0000
0300
0000
0000
1000
0000
0001
0020
0000
0000
,  // measure 71
0130
0000
0000
0000
0000
0000
1000
0000
0000
0001
0000
0000
0000
0000
0000
0020
0000
0000
0000
0000
0000
0000
0000
0000
0430
0000
0000
0000
0000
0000
0300
0000
0000
0000
0000
0000
1000
0000
0000
0000
0001
0000
0000
0000
1000
0000
0000
0000
,  // measure 72
0001
0000
0010
0000
0000
0040
0000
0000
0000
0000
0030
0000
0001
1000
0000
0020
,  // measure 73
0000
0000
2030
0000
0000
3002
0000
0023
0000
0000
0130
0000
0010
0000
0001
0000
,  // measure 74
1000
0010
1000
0000
0004
0000
0000
0000
0003
0000
0000
0000
0000
1000
0100
0000
,  // measure 75
0020
0000
0000
0130
0000
1000
0001
0000
0020
0000
0030
0002
0000
1003
0000
0010
,  // measure 76
0000
0100
0002
0000
0000
1003
0000
0200
0000
0000
0310
0000
0000
0000
0002
0000
,  // measure 77
0013
0100
0010
0004
0000
0000
2003
0000
3020
0000
0000
0030
0110
0000
0000
0000
,  // measure 78
0100
0000
0001
0000
2000
0000
3020
0000
0000
0400
0000
0000
0030
0000
0300
0000
,  // measure 79
0002
0000
1003
0000
0100
0000
0020
0000
0000
0000
0000
0030
0110
0000
0100
0000
,  // measure 80
1000
0001
0101
0100
0010
2000
0000
3001
,  // measure 81
1000
0000
0100
0000
0010
0000
0000
0000
0002
0000
0000
0000
1003
0000
0020
0000
0000
0000
0000
0000
0230
0000
0000
0300
0101
0000
0000
0000
0001
0000
0000
0000
,  // measure 82
1000
0000
0010
0000
0110
0000
0100
0000
0001
0000
2000
0000
0000
0000
3010
0100
,  // measure 83
0002
0000
1003
0000
0100
0000
0020
0000
0000
0030
0011
0000
1001
0000
1000
0000
,  // measure 84
0010
0000
0100
0000
0101
0000
0001
0000
1000
0000
0020
0000
0000
0000
1030
0001
,  // measure 85
0020
0000
0031
0000
1000
0000
0020
0000
0000
0000
0430
0000
0000
0300
0001
1000
,  // measure 86
0002
0000
0023
0000
0230
0000
2300
0000
0000
3004
0000
0000
0003
0000
1000
0010
,  // measure 87
0200
0302
2003
3200
0000
0320
0000
0000
,  // measure 88
0000
0000
0000
0000
0000
0000
0000
0000
0000
0000
0000
0000
0000
0000
0000
0030
0040
0000
0000
0000
0000
0000
0000
0000
0000
0000
0000
0000
0000
0000
0000
0000
0000
0000
0000
0000
0000
0000
0000
0000
0000
0000
0000
0000
0000
0000
0000
0000
0000
0000
0000
0000
0000
0000
0000
0000
0000
0000
0000
0000
0000
0000
0000
0000
,  // measure 89
0000
0000
0000
0030
0000
0000
0002
0000
,  // measure 90
0000
2003
0000
3020
,  // measure 91
0000
0000
0000
0000
,  // measure 92
0000
0030
0000
0000
0000
0000
0000
0000
;

//---------------dance-single - Rainbow Dash----------------
#NOTES:
     dance-single:
     Ace Of Hearts (2011):
     Challenge:
     11:
     0.764,0.277,0.354,0.683,0.660: // measure 1
0000
0000
0000
0000
0000
0000
0000
0000
0000
0000
0000
0000
0000
0000
0002
0003
,  // measure 2
0101
0100
0010
1000
1001
0004
0103
0010
,  // measure 3
1010
0000
1000
0001
0000
0010
0100
0000
4000
0000
3010
0000
0100
0001
1000
0000
,  // measure 4
1100
0000
0100
0000
0010
0001
1000
0000
0010
0100
0000
0010
1000
0000
0100
0010
,  // measure 5
0001
0000
1000
0100
0000
1000
0001
0000
0400
0000
0310
0000
1000
0000
0001
0010
,  // measure 6
0100
0000
1000
0000
0001
0000
0100
0000
0001
0010
0100
1000
0000
0001
0010
0001
,  // measure 7
1000
0000
0010
0100
0000
0001
1000
0000
0004
0000
0013
0000
0100
0000
1000
0000
,  // measure 8
0002
0000
0103
0020
0000
1030
0001
0000
0011
0000
0010
0000
0100
0000
1000
0000
,  // measure 9
0001
0000
0000
0000
0100
0000
0000
0000
0010
0000
0000
0000
0000
0000
0000
0000
0100
0000
0000
0000
0000
0000
0000
0000
0001
0000
0000
0000
0000
0000
0000
0000
2000
0000
0000
0000
0000
0000
0000
0000
0000
0000
0000
0000
3004
0400
0000
0000
0000
0000
0000
0000
0000
0000
0303
0000
0001
0000
0000
0000
0000
0000
0000
0000
,  // measure 10
1001
0000
1000
0000
0100
0000
0010
0000
0100
0000
1000
0001
0010
0000
0200
0000
,  // measure 11
0310
0000
0001
0100
0000
0001
2000
3000
1010
0000
1000
0001
0010
0001
1000
0010
,  // measure 12
0100
0000
0001
1000
0100
0000
0010
0000
0100
0000
1000
0001
0100
0000
0020
0000
,  // measure 13
0130
0000
0001
0000
0100
0000
0010
0000
0100
0000
0001
1000
0100
0010
0001
0010
,  // measure 14
0100
0000
0010
0001
0000
1000
0010
0000
0110
0000
0100
0001
1000
0010
0100
0001
,  // measure 15
1000
0000
0100
0000
0010
0001
1000
0010
0100
0010
1000
0001
0010
0001
1000
0000
,  // measure 16
0200
0000
0310
0100
0000
1000
0002
0003
0201
0000
0310
1000
0001
0010
0001
1000
,  // measure 17
0020
0000
0130
0001
0000
1000
0100
0000
0020
0000
0130
1000
0000
0001
0010
0000
,  // measure 18
0200
0000
1300
0001
0100
0010
0100
0001
4001
0000
0000
0000
3000
0000
0000
0000
,  // measure 19
2100
0000
3001
0000
1000
0010
0100
0000
0102
0000
1003
0000
0100
0010
0100
1000
,  // measure 20
0002
0000
0103
0000
0010
1000
0001
0000
0021
0000
0130
1000
0001
0100
0010
1000
,  // measure 21
1002
0000
0013
0000
0100
1000
0001
0000
0201
0000
0310
0000
1000
0001
0010
0100
,  // measure 22
0020
0000
0031
1000
0100
0010
0100
1000
0001
0000
1000
0100
2000
0000
0002
0000
,  // measure 23
0010
3003
1000
0010
0200
0000
0301
0000
0021
0000
0230
0300
4100
0000
0000
0000
,  // measure 24
3002
0000
0103
0010
1000
0001
0010
0001
1000
0000
0010
1000
0001
0100
0020
0000
,  // measure 25
1030
0000
0001
0000
0010
0100
1000
0000
1001
0000
0001
0100
0010
1000
0010
0100
,  // measure 26
0002
0000
1003
0000
0100
0010
0001
1000
0020
0000
0130
0001
1000
0000
0010
1000
,  // measure 27
0001
0000
0010
0100
0000
0010
0001
1000
0010
0000
1000
0001
0010
0100
0010
0001
,  // measure 28
1000
0000
0010
0100
0000
0010
2000
3000
1002
0000
0103
0000
0010
1000
0001
0000
,  // measure 29
2001
0000
0000
0000
0000
0000
0000
0000
3020
0000
0000
0000
0000
0000
0000
0000
0230
0000
0000
0000
0000
0000
0000
0000
0302
0000
0000
0000
0000
0000
1003
0000
0000
0010
0000
0000
1000
0000
0000
0001
0000
0000
0010
0000
0000
0100
0000
0000
,  // measure 30
1000
0000
0001
0100
0010
0000
2000
3000
1010
0000
0010
1000
0100
0010
0001
1000
,  // measure 31
0020
0000
0130
0001
1000
0100
0010
0100
1000
0000
0100
1000
0001
0010
0001
1000
,  // measure 32
0010
0000
0000
0000
0100
0000
0010
0000
1000
0000
0001
0000
0010
0000
0001
0000
4004
3003
0000
0000
0000
0000
0000
0000
0201
0000
0000
0000
0310
0000
0000
0000
,  // measure 33
1000
0001
0010
0000
0210
0000
1300
0000
0001
0100
0020
0000
1030
0000
0001
0000
,  // measure 34
0010
0100
1000
0000
1002
0000
0103
0010
1000
0001
1000
0010
0210
0000
0301
0000
,  // measure 35
1000
0010
0100
0000
0102
0000
1003
0000
0010
0100
0001
0000
0020
0000
0130
1000
,  // measure 36
0001
0100
0010
0000
1000
0000
0001
1000
0010
1000
0001
0000
0021
0000
0130
0000
,  // measure 37
1000
0001
0100
0000
0120
0000
1030
0000
0001
0010
0200
0000
2300
0000
3001
0100
,  // measure 38
0010
1000
0001
0000
0100
0000
0010
1000
0001
0100
0001
0100
0110
0000
0010
1000
,  // measure 39
0002
0013
0100
1000
0004
0000
2003
3010
,  // measure 40
0100
0000
0001
0000
1000
0000
0010
1000
0001
0100
0010
0000
1000
0000
0001
0010
,  // measure 41
0000
0001
1000
0000
0020
0000
0130
0001
1000
0100
0010
0100
1000
0000
0001
0100
,  // measure 42
0010
1000
0001
0000
0020
0000
0130
1000
0001
0100
0040
0000
0000
0000
0130
0001
,  // measure 43
0000
1000
0100
0000
0020
0000
0130
1000
0001
0100
0010
1000
0001
0000
0010
0100
,  // measure 44
0000
0010
0001
0000
1000
0010
0100
0001
0000
1000
0100
0000
0140
0000
0031
0000
,  // measure 45
1000
0000
0010
1000
0001
0000
0100
0010
1000
0001
0010
0100
1000
0000
0001
0100
,  // measure 46
0000
0010
2000
3000
1100
0000
0100
0010
0000
0100
1000
0000
0004
0000
0000
0000
,  // measure 47
0003
0000
1000
0010
2000
0000
3001
0200
0000
0000
0002
0000
0000
0000
2000
0000
,  // measure 48
0000
3303
1011
0000
0002
1003
0100
0010
,  // measure 49
0200
0000
1300
0000
0001
0000
0200
0000
0000
0000
0310
0000
1000
0001
0010
0000
,  // measure 50
0200
0000
1300
0001
0000
0000
0200
0000
0320
0000
1030
0000
0001
0000
0010
0000
,  // measure 51
0200
0000
1300
0000
0001
0000
0200
0000
0000
0000
0301
1000
0020
0000
1030
0000
,  // measure 52
0001
0000
0020
0000
0000
0000
0230
0300
2100
0000
3001
0000
0100
0000
0110
0000
,  // measure 53
0102
0000
1003
0000
0010
0000
0200
0300
0101
0000
0001
1000
0200
0300
0110
0000
,  // measure 54
0011
0000
0001
0000
1001
0000
1000
0000
1010
0000
0010
1000
0002
0000
0013
0000
,  // measure 55
0100
1000
0001
0100
0010
1000
0001
1000
1010
0000
0110
0000
0200
0000
0301
0000
,  // measure 56
1001
0000
1000
0100
0000
0020
0000
0130
1000
0000
1001
0000
0001
0100
0000
0010
,  // measure 57
1000
0010
0000
0200
0000
0301
1000
0100
0110
0000
0011
0000
0001
0000
1000
0000
,  // measure 58
1010
0000
0000
0000
0010
0000
0100
0000
0000
0000
0001
0000
0000
0000
1000
0000
0100
0000
0000
0000
0110
0000
0000
0000
0020
0000
0000
0000
0031
0000
1000
0010
,  // measure 59
1000
0000
0000
0000
0000
0000
0010
0000
0000
0000
0000
0000
1000
0000
0000
0000
0000
0000
0010
0000
0000
0000
0000
0000
1000
0000
0000
0000
0000
0000
0000
0000
0000
0000
0000
0000
0001
0000
0000
0000
0000
0000
0000
0000
0000
0000
0000
0000
0010
0000
0000
0000
0000
0000
0000
0000
0000
0000
0000
0000
0100
0000
0000
0000
0000
0000
0000
0000
0000
0000
0000
0000
2000
0000
0000
0000
0000
0000
0000
0000
0000
0000
0000
0000
0000
0000
0000
0000
3000
0000
0000
0000
0000
0000
0000
0000
1001
0000
0000
0000
0000
0000
0000
0000
0000
0000
0000
0000
0000
0000
0000
0000
0000
0000
0000
0000
0000
0000
0000
0000
0101
0000
0000
0000
0000
0000
0000
0000
0000
0000
0000
0000
0000
0000
0000
0000
0000
0000
0000
0000
0000
0000
0000
0000
0200
0000
0000
0000
0000
0000
0000
0000
0000
0000
0000
0000
0000
0000
0000
0000
0000
0000
0000
0000
0000
0000
0000
0000
0310
0000
0000
0000
0000
0000
0000
0000
0000
0000
0000
0000
0000
0000
0000
0000
0000
0000
0000
0000
0000
0000
0000
0000
,  // measure 60
1000
0001
0100
0010
0000
0000
0000
0000
1000
0001
0010
0000
0001
0000
1000
0010
,  // measure 61
0100
0000
0000
0202
0000
0000
0303
0000
1001
0000
1100
0000
0100
0000
0010
0000
,  // measure 62
0001
1000
0010
0100
0000
0000
0001
0000
1000
0001
0010
0001
1000
0010
0100
0010
,  // measure 63
1000
0001
0010
0100
1000
0001
0100
0010
2010
0000
3001
0000
0010
0100
1000
0000
,  // measure 64
1002
0000
0103
0000
0010
1000
0001
0000
0020
0000
0130
0000
1000
0001
0100
0000
,  // measure 65
0120
0000
1030
0001
0010
0100
0010
0000
0012
0000
1003
0000
0100
0010
0001
0000
,  // measure 66
0201
0000
0310
0000
1000
0001
0100
0000
0020
0000
1030
0001
0100
0010
1000
0000
,  // measure 67
0001
0000
0010
0001
1000
0010
1000
0000
1200
0000
0310
0000
0001
1000
0010
0000
,  // measure 68
0210
0000
0301
0000
1000
0100
0010
0000
0001
1000
0010
1000
0001
0010
0100
0000
,  // measure 69
0010
0000
0001
1000
0010
0100
0010
1000
1001
0000
0001
0010
0200
0000
1300
0000
,  // measure 70
0020
0000
0230
0000
0302
0000
0000
0000
0003
0000
1000
0000
0100
0020
0000
0000
,  // measure 71
0230
0000
0000
0000
0000
0000
1300
0000
0000
0001
0000
0000
0000
0000
0000
0020
0000
0000
0000
0000
0000
0000
0000
0000
0430
0000
0000
0000
0000
0000
0000
0000
0000
0300
0000
0000
1000
0000
0000
0000
0100
0000
0000
0000
0010
0000
0000
0000
,  // measure 72
0001
0000
1000
0000
0000
4000
0000
0000
0000
0000
3000
0000
0001
0100
0000
0020
,  // measure 73
0000
0000
0230
0000
0000
0302
0000
0020
0000
0000
1000
0033
0001
0000
0011
0000
,  // measure 74
0010
0100
1000
0000
0040
0000
0000
0000
0030
0000
0000
0000
0000
0100
0001
0000
,  // measure 75
2000
0000
3000
1020
0000
0130
0001
0000
0020
0000
0030
0210
0000
1300
0000
0001
,  // measure 76
0000
0100
0010
0000
0000
1000
0000
0002
0000
0000
0013
0000
0000
0000
0200
0000
,  // measure 77
1300
0001
1000
0040
0000
0000
2030
0000
0002
0000
0000
0000
0010
0000
3003
0000
,  // measure 78
0002
0000
0103
0000
0010
0000
2000
0000
0000
0400
0000
0000
0000
0000
3300
0000
,  // measure 79
0020
0000
0031
0000
1000
0000
0020
0000
0000
0000
0030
2000
0001
0000
0001
0000
,  // measure 80
0010
0001
0100
0100
0001
0020
3000
0130
,  // measure 81
0001
1000
0100
0000
0020
0000
0130
1000
0001
0100
0010
0000
2010
0000
3001
0000
,  // measure 82
0010
0100
1000
0000
1020
0000
0130
0000
0001
0010
0100
0000
0020
0000
0031
1000
,  // measure 83
0020
0000
0130
0000
0101
0000
0002
0000
1003
0010
0100
0000
0102
0000
1003
0000
,  // measure 84
0100
0010
0001
0000
0201
0000
0310
0000
1000
0001
1000
0001
0200
0000
0310
1000
,  // measure 85
0002
0000
0013
0000
0100
0000
2000
0000
0000
0000
3004
0000
0000
0000
1003
0010
,  // measure 86
0200
0000
0301
0000
0010
0000
0200
0000
0000
4300
0000
0000
3000
0000
0001
0100
,  // measure 87
0020
0130
0001
2000
0000
0020
0000
0000
,  // measure 88
0000
0000
0000
0000
0000
0000
0000
0000
0000
0000
0000
0000
0000
0000
0000
0030
0040
0000
0000
0000
0000
0000
0000
0000
0000
0000
0000
0000
0000
0000
0000
0000
0000
0000
0000
0000
0000
0000
0000
0000
0000
0000
0000
0000
0000
0000
0000
0000
0000
0000
0000
0000
0000
0000
0000
0000
0000
0000
0000
0000
0000
0000
0000
0000
,  // measure 89
0000
0000
0000
3030
0000
0000
0200
0000
,  // measure 90
0000
0302
0000
2003
,  // measure 91
0000
0000
0000
0000
,  // measure 92
0000
3000
0000
0000
0000
0000
0000
0000
;

//---------------dance-single - Twilight Sparkle----------------
#NOTES:
     dance-single:
     Ace Of Hearts (2011):
     Medium:
     7:
     0.412,0.161,0.005,0.349,0.094: // measure 1
0000
0000
0000
0000
0000
0000
0000
0001
,  // measure 2
1000
0001
0010
0000
0200
0000
0300
1000
,  // measure 3
0001
0000
0000
1000
0000
0010
0000
0000
0200
0000
0000
0000
0300
0000
0001
0000
,  // measure 4
1000
0000
0001
0000
1000
0000
0000
0000
0020
0000
0000
0130
0000
0000
0001
0000
,  // measure 5
1000
0000
0000
0001
0000
0010
0000
0000
0200
0000
0000
0000
0300
0000
0010
0000
,  // measure 6
0001
0000
1000
0000
0001
0000
0000
0000
2000
0000
0000
3100
0000
0000
0010
0000
,  // measure 7
0001
1000
0001
0000
0200
0000
0300
0010
,  // measure 8
1000
0001
1000
0000
0010
1000
0001
0000
,  // measure 9
0010
0100
1000
0000
0002
0000
0003
1000
,  // measure 10
0010
1000
0001
1000
0001
0020
0000
0130
,  // measure 11
0000
0000
0010
0001
1000
0010
1000
0001
,  // measure 12
0100
0001
1000
0100
2000
0000
3001
0010
,  // measure 13
0000
0001
1000
0010
1000
0001
0200
0000
,  // measure 14
0300
0001
1000
0000
0001
0010
0100
1000
,  // measure 15
0001
0000
0000
0000
1000
0000
0010
0000
2000
0000
0000
3002
0000
0000
0000
0000
,  // measure 16
0003
0010
0001
0000
1000
0010
1000
0000
,  // measure 17
0001
0000
0000
1000
0100
0000
1000
0001
,  // measure 18
0200
0000
0300
0000
,  // measure 19
0001
1000
0001
0010
0001
1000
0010
1000
,  // measure 20
0000
0000
0001
0000
0010
0000
0001
0000
2000
0000
0000
3010
0000
0000
0100
0000
,  // measure 21
0001
0100
0010
0100
0001
1000
0001
1000
,  // measure 22
0000
0001
0010
0100
0010
0002
0000
1003
,  // measure 23
0000
0010
1000
0001
0010
0100
1000
0000
,  // measure 24
0001
0100
0001
0000
1000
0010
0000
0100
,  // measure 25
0000
0001
1000
0001
0010
0001
1000
0001
,  // measure 26
0010
0100
1000
0001
2000
0000
3001
0010
,  // measure 27
0000
0000
0001
1000
0010
1000
0004
0000
,  // measure 28
0003
1000
0100
0010
0002
0000
1003
0010
,  // measure 29
1000
0000
0100
0000
0010
0000
0002
0000
0000
0000
0000
0000
,  // measure 30
0003
1000
0010
1000
0001
0010
0001
1000
,  // measure 31
0001
0000
0000
0000
0010
0000
0000
0000
0000
0100
0000
0000
0000
0000
0000
4000
0000
0000
0000
0000
0000
0000
0000
0000
,  // measure 32
0000
0000
3000
0000
0000
0000
0001
0100
,  // measure 33
0001
1000
0001
0010
0100
2000
0000
3001
,  // measure 34
0100
0000
0001
0000
2000
0000
0000
3010
0000
0000
0100
0000
0001
0000
0100
0000
,  // measure 35
0010
0100
0001
1000
0001
0020
0000
0031
,  // measure 36
1000
0001
0010
0200
0000
1300
0001
1000
,  // measure 37
0010
1000
0001
0100
0001
2000
0000
3100
,  // measure 38
0010
0001
0010
0002
0000
2003
0000
3010
,  // measure 39
1000
0001
0010
0001
1000
0000
0010
1000
,  // measure 40
0010
0100
0010
2000
0000
3001
0000
0010
,  // measure 41
0001
1000
0010
0100
0001
1000
0010
1000
,  // measure 42
0001
0010
0200
0000
1300
0002
0000
1003
,  // measure 43
0010
1000
0001
1000
0100
0000
0000
0000
,  // measure 44
0010
0001
1000
0010
1000
0001
0100
0000
,  // measure 45
0010
0000
0100
0000
0001
0000
0000
4000
0000
0000
0000
0000
3000
0000
0001
0000
,  // measure 46
0010
0001
1000
0000
0001
1000
0040
0000
,  // measure 47
0030
1000
0001
0000
1000
0010
0000
0200
,  // measure 48
0000
0000
0300
0000
0001
1000
0001
0000
,  // measure 49
0010
0100
0020
0000
0000
0031
1000
0010
,  // measure 50
1000
0000
0000
0001
0000
0000
0100
0000
0010
0000
1000
0000
0010
0000
0000
0000
,  // measure 51
1000
0001
2000
0000
0000
3001
0100
0001
,  // measure 52
1000
0200
0000
0310
0001
1000
0001
1000
,  // measure 53
0100
0010
0001
2000
0000
3010
1000
0001
,  // measure 54
0010
0200
0000
0310
0000
0001
1000
0010
,  // measure 55
1000
0001
0010
0000
0100
0100
0000
0000
,  // measure 56
1000
1000
0000
0000
0001
0001
0000
0000
,  // measure 57
0100
0000
0000
0200
0000
0000
0300
0000
0010
0000
0010
0000
0000
0000
0000
0000
,  // measure 58
1000
1000
0000
0000
0001
0001
0000
0000
,  // measure 59
0020
0000
0030
0000
0100
0100
0000
0000
,  // measure 60
1000
1000
0000
0000
0001
0001
0000
0000
,  // measure 61
0010
0000
0000
0020
0000
0000
0030
0000
0001
0000
1000
0000
0010
0000
0000
0000
,  // measure 62
1000
0000
0000
0001
0000
0000
0100
0000
0001
0000
1000
0000
0100
0000
0000
0020
,  // measure 63
0000
0000
0000
0000
0031
0010
0100
1000
,  // measure 64
0100
0010
0001
2000
0000
3010
1000
0001
,  // measure 65
0020
0000
0000
0130
0000
0000
2000
0000
3001
0000
0100
0000
0001
0000
1000
0000
,  // measure 66
0001
0010
0100
2000
0000
3001
0100
0010
,  // measure 67
0100
0002
0000
1003
0100
0010
0100
1000
,  // measure 68
0001
1000
0010
0200
0000
0301
1000
0001
,  // measure 69
0010
0200
0000
1300
0000
0001
1000
0010
,  // measure 70
1000
0001
0100
0000
0000
0001
1000
0000
,  // measure 71
0100
0000
0000
0010
0000
0001
0000
0000
0010
0000
0000
0000
0002
0000
0000
0000
,  // measure 72
1003
0000
0010
0000
0000
0020
0000
0000
0000
0000
0030
0000
0000
0000
1000
0000
,  // measure 73
0001
0000
0020
0000
0000
0031
0000
1000
0000
0000
1001
0000
0001
0000
0001
0000
,  // measure 74
0000
0010
0000
0000
0200
0000
0000
0000
0300
0000
0000
0000
0000
0000
1000
0000
,  // measure 75
0001
0000
0000
0100
0000
0000
0001
0000
1000
0000
0000
0001
0000
0010
0000
0100
,  // measure 76
0000
1000
0000
0100
0000
0010
0000
0001
0000
1000
0000
0000
0000
0000
0001
0000
,  // measure 77
0010
0000
0000
0010
0000
0000
0100
0000
2000
0000
0000
0000
3001
0000
0000
0000
,  // measure 78
1000
0000
0010
0000
1000
0000
0002
0000
0000
0203
0000
0000
0300
0000
0000
0000
,  // measure 79
0020
1030
0001
0020
0000
0000
0130
1000
,  // measure 80
0001
1000
0010
1000
0001
0200
0000
0301
,  // measure 81
1000
0000
0010
0000
2000
0000
0000
3001
0000
0000
0200
0000
0310
0000
1000
0000
,  // measure 82
0001
1000
0100
0010
0001
2000
0000
3010
,  // measure 83
1000
0001
0010
0002
0000
1003
0010
1000
,  // measure 84
0010
0100
0001
1000
0100
0020
0000
0130
,  // measure 85
1000
0001
1000
0002
0000
0203
0000
0310
,  // measure 86
1000
0001
1000
0200
0000
0320
0000
0031
,  // measure 87
1000
0001
1000
0200
0000
0320
0000
0000
,  // measure 88
0000
0000
0000
0000
,  // measure 89
0000
0000
0000
0030
0000
0000
0200
0000
,  // measure 90
0000
2300
0000
3002
,  // measure 91
0000
0000
0000
0000
,  // measure 92
0000
0003
0000
0000
0000
0000
0000
0000
;

//---------------dance-single - Pinkie Pie----------------
#NOTES:
     dance-single:
     Ace Of Hearts (2011):
     Easy:
     5:
     0.234,0.069,0.046,0.253,0.000: // measure 1
0000
0000
0000
0000
,  // measure 2
1000
1000
1000
0000
,  // measure 3
0010
0010
0010
0000
,  // measure 4
0100
0100
0100
0000
,  // measure 5
0001
0001
0001
0000
,  // measure 6
1000
1000
1000
0000
,  // measure 7
0100
0100
0100
0000
,  // measure 8
0010
0010
0010
0000
,  // measure 9
0001
0001
0002
0003
,  // measure 10
1000
0000
1000
0000
1000
0000
0000
0001
,  // measure 11
0000
0010
0010
0010
,  // measure 12
0001
0000
0001
0000
0001
0000
0000
1000
,  // measure 13
0000
0010
0010
0010
,  // measure 14
0000
0100
0100
0001
,  // measure 15
0001
1000
1000
0001
,  // measure 16
0000
1000
0010
0010
,  // measure 17
0010
0000
0100
0100
,  // measure 18
0200
0000
0300
0000
,  // measure 19
0001
0001
0010
0010
,  // measure 20
0000
0001
1000
1000
,  // measure 21
0010
0010
0100
0100
,  // measure 22
0000
0000
0001
0000
1000
0000
0000
1000
,  // measure 23
0000
0001
0010
0010
,  // measure 24
0001
0000
0001
0000
1000
0000
0000
1000
,  // measure 25
0000
0001
0010
0010
,  // measure 26
0001
0000
0001
0000
1000
0000
0000
1000
,  // measure 27
0000
0010
0020
0030
,  // measure 28
0000
1000
0001
0001
,  // measure 29
0010
0000
0020
0000
,  // measure 30
0030
0001
0001
1000
,  // measure 31
0100
0000
0000
0000
0000
0200
0000
0000
,  // measure 32
0000
0000
0000
0000
0300
0000
1000
0001
,  // measure 33
1000
0000
0001
1000
0002
0000
0000
0000
,  // measure 34
1003
0000
2000
0000
0000
0000
3001
0100
,  // measure 35
0001
0000
1000
0001
2000
0000
0000
0000
,  // measure 36
3010
0000
2000
0000
0000
0000
3001
0010
,  // measure 37
0001
0000
1000
0010
2000
0000
0000
0000
,  // measure 38
3001
0000
0010
0000
0000
0001
0000
0000
,  // measure 39
1000
0010
0010
1000
,  // measure 40
1000
0000
0001
0000
0000
1000
0000
0000
,  // measure 41
0001
0100
0100
0010
,  // measure 42
0010
2000
0000
3000
,  // measure 43
0001
0010
0010
0000
,  // measure 44
0001
1000
1000
1000
,  // measure 45
0100
0100
0100
0000
,  // measure 46
0010
0010
0001
0002
,  // measure 47
0003
0000
1000
0000
1000
0000
0000
0020
,  // measure 48
0000
0030
1000
1000
,  // measure 49
0001
0002
0000
1003
,  // measure 50
2000
0000
3010
0010
,  // measure 51
0100
0200
0000
0301
,  // measure 52
0002
0000
1003
1000
,  // measure 53
0010
0020
0000
1030
,  // measure 54
1000
0000
0000
0001
0000
0000
0010
0000
,  // measure 55
0100
0100
1000
0000
,  // measure 56
1001
0000
0110
0000
,  // measure 57
2002
0000
3003
0000
,  // measure 58
0011
0000
1100
0000
,  // measure 59
0220
0000
0330
0000
,  // measure 60
0011
0000
1100
0000
,  // measure 61
1001
0000
0001
0001
,  // measure 62
0001
0000
1000
1000
,  // measure 63
2000
0000
0000
0000
3001
0010
0001
0000
,  // measure 64
1000
0100
2000
0000
0000
0000
3001
0000
,  // measure 65
0002
0000
0000
0000
1003
0010
1000
0000
,  // measure 66
0001
0100
0002
0000
0000
0000
1003
0000
,  // measure 67
2000
0000
0000
0000
3010
0100
0010
0000
,  // measure 68
1000
0001
2000
0000
0000
0000
3001
0000
,  // measure 69
0001
0000
0000
1000
0000
0000
0010
0000
,  // measure 70
1000
1000
0002
0000
,  // measure 71
2003
0000
3200
0000
,  // measure 72
0320
0000
0000
0000
,  // measure 73
0000
0032
0000
0000
0000
0000
0000
0000
,  // measure 74
0000
2003
0000
0000
0000
0000
0000
0000
,  // measure 75
0000
3002
0000
0000
0000
0203
0000
0000
,  // measure 76
0000
0320
0000
0000
0000
0030
0000
0000
,  // measure 77
1000
1000
0001
0001
,  // measure 78
0100
0000
0200
0000
0000
0300
0000
0000
,  // measure 79
0001
0000
0001
0000
0002
0000
1003
0010
,  // measure 80
1000
0000
0001
0010
0002
0000
0000
0000
,  // measure 81
1003
0000
2000
0000
0000
0000
3001
0010
,  // measure 82
0001
0000
1000
0100
2000
0000
0000
0000
,  // measure 83
3001
0000
0002
0000
0000
0000
0103
0010
,  // measure 84
0100
0000
0001
1000
0002
0000
0000
0000
,  // measure 85
1003
0000
1000
0000
0000
0200
0000
0000
,  // measure 86
0310
0000
0010
0000
0000
0002
0000
0000
,  // measure 87
1003
0000
1000
0000
0000
0020
0000
0000
,  // measure 88
0000
0000
0000
0000
,  // measure 89
0000
0000
0000
0030
0000
0000
0002
0000
,  // measure 90
0003
2000
3000
0020
,  // measure 91
0000
0000
0000
0000
,  // measure 92
0000
0030
0000
0000
0000
0000
0000
0000
;

//---------------dance-single - Fluttershy----------------
#NOTES:
     dance-single:
     Ace Of Hearts (2011):
     Beginner:
     2:
     0.149,0.046,0.020,0.182,0.000: // measure 1
0000
0000
0000
0000
,  // measure 2
1000
0000
1000
0000
,  // measure 3
0001
0000
0001
0000
,  // measure 4
0010
0000
0010
0000
,  // measure 5
0100
0000
0100
0000
,  // measure 6
1000
0000
1000
0000
,  // measure 7
0001
0000
0001
0000
,  // measure 8
1000
0000
1000
0000
,  // measure 9
0010
0000
0010
0000
,  // measure 10
1000
0000
1000
0000
,  // measure 11
1000
0000
1000
0000
,  // measure 12
0001
0000
0001
0000
,  // measure 13
0001
0000
0001
0000
,  // measure 14
0000
0000
0100
0000
,  // measure 15
0100
0000
0100
0000
,  // measure 16
0000
0000
0010
0000
,  // measure 17
0010
0000
1000
0000
,  // measure 18
2000
0000
3000
0000
,  // measure 19
0001
0001
0010
0010
,  // measure 20
0000
0000
0002
0000
,  // measure 21
1003
1000
0010
0010
,  // measure 22
0000
0000
1000
0000
,  // measure 23
1000
0000
1000
0000
,  // measure 24
0001
0001
0001
0000
,  // measure 25
1000
0000
0010
0010
,  // measure 26
0010
0000
1000
0000
,  // measure 27
1000
0000
2002
0000
,  // measure 28
3003
0000
0010
0000
,  // measure 29
0220
0000
0000
0000
,  // measure 30
0330
0000
1000
0000
,  // measure 31
2002
0000
0000
0000
,  // measure 32
0000
3003
0000
0001
,  // measure 33
0001
1000
2000
0000
,  // measure 34
0000
3020
0000
0130
,  // measure 35
0100
0001
0002
0000
,  // measure 36
0000
1003
0000
0010
,  // measure 37
0010
0100
0200
0000
,  // measure 38
0000
0301
0000
0001
,  // measure 39
0000
0001
0000
1000
,  // measure 40
1000
1000
0000
0010
,  // measure 41
0000
0010
0000
0100
,  // measure 42
0100
0100
0000
0001
,  // measure 43
0000
0001
0000
0000
,  // measure 44
0000
1000
0000
1000
,  // measure 45
0000
0020
0000
0030
,  // measure 46
0000
0100
0000
0100
,  // measure 47
0000
0220
0000
0000
,  // measure 48
0000
0330
0001
0000
,  // measure 49
0002
0000
0003
0000
,  // measure 50
1000
0000
0010
0000
,  // measure 51
0020
0000
0030
0000
,  // measure 52
0100
0000
0001
0000
,  // measure 53
0002
0000
0003
0000
,  // measure 54
1000
0000
0010
0000
,  // measure 55
0010
0000
1000
0000
,  // measure 56
1000
0000
0001
0000
,  // measure 57
0001
0000
0010
0000
,  // measure 58
0010
0000
0001
0000
,  // measure 59
0001
0000
1000
0000
,  // measure 60
1000
0000
0010
0000
,  // measure 61
0010
0000
0100
0000
,  // measure 62
0100
0000
0002
0000
,  // measure 63
0000
0000
1003
1000
,  // measure 64
0010
0020
0000
0000
,  // measure 65
2030
0000
3001
0001
,  // measure 66
0010
0020
0000
0000
,  // measure 67
0130
0000
1000
1000
,  // measure 68
0001
0002
0000
0000
,  // measure 69
1003
0000
0010
0000
,  // measure 70
0010
0000
0000
0000
,  // measure 71
2000
0000
3000
0000
,  // measure 72
0002
0000
0003
0000
,  // measure 73
2000
0000
0000
0000
0000
3000
0000
0000
,  // measure 74
0000
0020
0000
0030
,  // measure 75
0000
2000
0000
3000
,  // measure 76
0000
0002
0000
0003
,  // measure 77
0000
0010
0000
0010
,  // measure 78
0000
0020
0000
0030
,  // measure 79
0000
0001
0000
0001
,  // measure 80
0001
1000
2000
0000
,  // measure 81
0000
3020
0000
1030
,  // measure 82
1000
0001
0002
0000
,  // measure 83
0000
0013
0000
0001
,  // measure 84
0001
1000
2000
0000
,  // measure 85
0000
3010
0000
0010
,  // measure 86
0000
0100
0000
0100
,  // measure 87
0000
0001
0000
0002
,  // measure 88
0000
0000
0000
0000
,  // measure 89
0000
0000
0000
0003
0000
0000
1000
0000
,  // measure 90
0000
0001
0000
0200
,  // measure 91
0000
0000
0000
0000
,  // measure 92
0000
0300
0000
0000
0000
0000
0000
0000
;
