#TITLE:U.N. Owen Was Her?;
#SUBTITLE:(Metal Mix);
#ARTIST:Len;
#TITLETRANSLIT:;
#SUBTITLETRANSLIT:;
#ARTISTTRANSLIT:;
#GENRE:;
#CREDIT:Ace Of Hearts;
#BANNER:UN Owen- bn.png;
#BACKGROUND:UN Owen - bg.png;
#LYRICSPATH:;
#CDTITLE:Ace Of Hearts.png;
#MUSIC:UN Owen Was Her (Metal Mix).ogg;
#OFFSET:0.640;
#SAMPLESTART:51.280;
#SAMPLELENGTH:12.000;
#SELECTABLE:YES;
#BPMS:0.000=180.000,90.000=90.000,91.000=180.000,121.000=90.000,122.000=180.000,328.000=90.000,329.000=180.000,359.000=90.000,360.000=180.000;
#STOPS:;
#BGCHANGES:;
#FGCHANGES:;
#KEYSOUNDS:;

//---------------dance-single - Hard----------------
#NOTES:
     dance-single:
     Ace Of Hearts (2011):
     Hard:
     11:
     0.927,0.509,0.252,0.596,0.871:
0000
0000
0000
0000
,
0001
0010
0001
1000
0010
1000
0001
0010
0001
1000
0010
0100
00M1
0000
0000
00M1
,
0000
0000
00M1
0000
1000
0100
1000
0001
1000
0001
0100
0010
0100
0001
1000
0100
,
10M0
0000
0000
10M0
0000
0000
10M0
0000
0010
0100
0010
1000
0001
1000
0100
0010
,
0001
1000
0001
1000
0M10
0000
0000
0M10
0000
0000
0M10
0000
0100
0001
1000
0100
,
0010
0100
1000
0001
0100
0001
1000
0100
100M
0000
0000
100M
0000
0000
100M
0000
,
0001
0100
0010
0100
0001
1000
0100
0010
0100
1000
0001
0100
M010
0000
0000
M010
,
0000
0000
M010
0000
0100
0001
0100
0010
1000
0001
0010
0001
1000
0001
0010
0100
,
10M0
0000
0000
10M0
0000
0000
10M0
0000
0001
0100
0001
1000
0100
0010
0001
0010
,
0100
1000
0001
1000
01M0
0000
0000
01M0
0000
0000
01M0
0000
0010
0100
1000
0001
,
1000
0001
0100
0010
1000
0001
0010
0100
100M
0000
0000
100M
0000
0000
100M
0000
,
0002
0103
0020
0130
,
0002
0000
1003
0000
0200
0000
0310
0001
,
1001
1000
0010
0100
0001
1000
0100
0010
,
0100
0000
1000
0000
0001
0000
0100
0000
0010
1000
0010
1000
0010
0100
0001
0100
,
0001
1000
0100
1000
0100
0010
0001
0010
0001
0000
1000
0000
0010
0000
0100
0000
,
0010
1000
0010
1000
0001
0100
0001
0100
0010
0000
1000
0000
0001
0000
0010
0000
,
0100
1000
0100
1000
0001
0010
0001
0010
0100
0000
1000
0000
0001
0000
0100
0000
,
0010
1000
0001
1000
0100
0010
0001
1000
0010
0000
0100
0000
0001
0000
0100
0000
,
0110
1M00
1100
0M01
,
0101
0000
0100
0010
1000
0000
1001
0000
,
2000
0000
3001
0000
0100
0000
0010
0000
1000
0000
0001
0010
0100
0000
1000
0000
,
0001
0100
0010
1000
0002
0003
0101
0000
,
001M
1010
00M1
0011
,
0010
0100
1000
0000
1010
0000
0010
0100
,
0001
0000
1000
0000
0010
0000
1000
0001
0010
0000
0100
0000
2000
0000
0000
0000
,
3000
0000
0000
0000
1001
0000
0000
0101
0000
0000
0010
0000
1010
0000
0000
0000
,
1000
1001
0001
0011
,
0010
0100
1000
0000
1010
0000
0010
0100
,
0001
0000
1000
0000
0100
0000
0010
0001
1000
0000
0010
0000
0100
0000
0010
0000
,
1000
0001
0200
0300
0110
0000
1000
0000
,
1001
0000
0001
0000
0011
0000
0010
0100
,
1000
0000
1010
0000
0010
0100
0001
1000
,
0100
0000
0010
0001
1000
0000
0100
0000
0010
0001
1000
0001
1000
0010
0100
0010
,
0100
0000
0000
0001
0000
0000
0100
0000
0000
0001
0000
0000
1000
0000
0000
0100
0000
0000
1000
0000
0000
0100
0000
0000
0010
0000
0000
0000
0100
0000
0000
0000
1000
0000
0000
0000
0001
0000
0000
0000
0100
0000
0000
0000
0010
0000
0000
0000
,
0100
0001
1000
0100
0010
0100
1000
0001
0100
0010
1000
0001
,
0010
0001
1000
0010
0100
0010
1000
0001
0010
0100
1000
0001
,
0100
0010
0100
0001
1000
0100
0010
0100
1000
0001
0100
0010
,
1000
0000
0000
0000
0000
0000
0001
0000
0000
0010
0000
0000
0002
0000
0000
0000
0000
0000
0000
0000
0000
0000
0000
0000
1003
0000
0000
0000
0100
0000
0000
0000
0010
0000
0000
0000
0100
0000
0000
0000
0010
0000
0000
0000
0001
0000
0000
0000
,
0010
0001
1000
0001
0100
0010
1000
0001
0010
0100
1000
0001
,
0200
0000
0000
0000
0000
0000
0000
0000
0000
0000
0000
0000
0300
0000
0000
0000
0000
0000
0001
0000
0000
0100
0000
0000
0010
0000
0000
0000
1000
0000
0000
0000
0001
0000
0000
0000
0010
0000
0000
0000
0001
0000
0000
0000
1000
0000
0000
0000
,
0010
0100
0010
1000
0001
0010
0001
1000
0010
0100
0001
1000
,
0020
0000
0000
0000
0000
0000
0000
0000
0000
0000
0000
0000
0030
0000
0000
0000
0000
0000
1000
0000
0000
0001
0000
0000
0010
0000
0000
0000
0001
0000
0000
0000
1000
0000
0000
0000
0010
0000
0000
0000
0100
0000
0000
0000
0001
0000
0000
0000
,
1000
0100
1000
0001
0100
0010
1000
0001
0010
0001
1000
0010
,
0200
0000
0000
0000
0000
0000
0000
0000
0000
0000
0000
0000
0300
0000
0000
0000
0000
0000
0001
0000
0000
1000
0000
0000
0010
0000
0000
0000
1000
0000
0000
0000
0001
0000
0000
0000
0010
0000
0000
0000
0100
0000
0000
0000
1000
0000
0000
0000
,
0001
0100
0001
1000
0100
0010
0100
1000
0001
0100
0001
1000
,
0010
0000
0000
1000
0000
0000
1001
0000
0002
0000
0000
0000
0103
0000
0000
0000
,
0020
1030
0002
0013
,
0200
0000
1300
0000
0001
1000
0100
0010
,
0100
1000
0001
0100
0010
1000
0001
0010
,
0100
0000
1000
0000
0001
0100
0001
0100
0001
0000
1000
0100
0010
0001
0010
0100
,
1000
0000
0001
0000
0100
0010
0100
0010
0100
0000
0001
0000
0010
0000
0100
0000
,
1000
0001
0100
0010
1000
0001
0010
0100
,
0010
0001
1000
0010
1000
0001
0010
0100
,
1000
0100
0010
0001
20M0
0000
0M20
3000
,
M002
0030
20M0
0003
020M
3000
M002
0300
,
2M00
0003
020M
3000
M020
0300
2M00
0030
,
00M2
3000
M200
0003
002M
0300
0M02
0030
,
20M0
0003
300M
00M0
0M20
M000
0M02
M030
,
20M0
0003
020M
3000
M020
0300
2M00
0030
,
02M0
3000
M020
0300
2M00
0030
00M2
3000
,
M200
0003
200M
0300
0M02
3000
M203
0000
,
0310
1000
0010
1000
0001
0010
0001
1000
0020
0000
0000
0000
0000
0000
0000
0000
,
0030
0000
1000
0001
1000
0000
0010
0000
0200
0000
0000
0000
0300
0000
0000
0000
,
0002
0000
0000
1003
0000
0000
0100
0000
0020
0000
0000
0000
0130
0000
0000
0000
,
1000
0001
0100
0010
2000
0000
3002
0000
,
1003
0000
0200
0000
0300
0000
0000
0000
0010
0001
0010
0000
0001
1000
0001
0000
,
0100
0001
0100
0000
0010
0000
1000
0001
1000
0010
0100
0010
1000
0001
0010
0100
,
1000
0001
0100
0001
1000
0100
0010
0001
0010
0100
1000
0100
0010
0001
1000
0001
,
1000
0010
0100
0001
2000
0000
3000
0000
0020
0000
0000
0000
0000
0000
0000
0000
,
0230
0000
0302
0000
,
0000
0000
0000
0000
0000
0000
1003
0010
0200
0000
0000
0301
0000
0000
0002
0000
,
2003
0000
0000
3200
0000
0000
0310
0000
0002
0000
0000
0000
2003
0000
0000
0000
,
3001
0000
0010
0100
0010
0000
0002
0000
0000
0000
0000
0000
1003
0000
0020
0000
,
0000
0030
2000
0000
,
3020
0000
0000
0230
0000
0000
0301
0000
2000
0000
0000
3200
0000
0000
1300
0000
,
0002
0003
0021
0000
,
0230
0000
0000
2300
0000
0000
3001
0000
0200
0000
0310
1000
0010
1000
0001
0010
,
0100
1000
0100
0010
0001
1000
0010
0100
0001
0000
0000
0000
0011
0000
0000
0000
,
10M0
0000
1010
0000
M100
0000
0001
1000
,
0100
0000
0110
0000
0010
0001
1000
0010
,
0100
0000
0010
1000
0001
0000
0010
0000
0100
0000
1000
0000
0001
0000
1000
0000
,
0200
0300
1000
0000
1001
0000
M100
0000
,
0110
0000
0010
0000
1000
0001
0010
0000
,
0110
0000
0000
0000
0100
0000
0010
0000
0001
0000
1000
0000
0010
0000
1000
0001
,
0100
0000
0001
0000
1000
0100
1000
0100
0010
0001
0010
0001
1000
0010
1000
0010
,
0100
0001
0100
0001
1000
0000
0000
0000
1010
0000
0000
0000
M100
0000
0000
0000
,
0101
0000
1M00
0000
0100
0010
0001
0000
,
0101
0000
0000
0000
001M
0000
1000
0000
0100
0000
0010
0000
0001
0000
1000
0010
,
0100
0001
1000
0100
0010
0001
2000
3000
,
0010
0110
00M1
1001
,
M100
0000
0010
1000
0001
0000
0011
0000
,
0010
0000
0100
0000
1000
0000
0001
0000
0100
0000
0010
1000
0001
0000
0100
0000
,
0020
0000
0000
0000
,
0000
0000
0000
0000
0000
0000
0000
0000
0000
0000
0000
0000
0030
0000
1000
0001
,
0200
0300
0000
0000
;

//---------------dance-single - Lunatic----------------
#NOTES:
     dance-single:
     Ace Of Hearts (2011):
     Challenge:
     13:
     1.000,0.582,0.428,0.504,1.000: // measure 1
0000
0000
0000
0000
,  // measure 2
1000
0010
1000
0001
0010
0001
1000
0010
0100
0001
1000
0100
M11M
0000
0000
M11M
,  // measure 3
0000
0000
M11M
0000
0010
0001
1000
0010
1000
0001
0010
0001
1000
0010
1000
0001
,  // measure 4
MM11
0000
0000
MM11
0000
0000
MM11
0000
0010
0001
1000
0010
0100
0001
1000
0100
,  // measure 5
1000
0001
0010
0100
11MM
0000
0000
11MM
0000
0000
11MM
0000
1000
0001
0100
0010
,  // measure 6
0100
0001
1000
0100
0010
0001
1000
0001
0200
0310
1000
0002
0013
0100
2000
3001
,  // measure 7
0100
0001
1000
0100
0010
0100
1000
0001
0100
0010
1000
0001
MM20
0000
0031
MM20
,  // measure 8
0000
0031
MM20
0000
0031
1000
0010
0100
0010
1000
0001
0010
0100
1000
0001
1000
,  // measure 9
0M2M
0000
1030
0M2M
0000
1030
0M2M
0000
1030
0001
0010
0100
0010
0001
1000
0010
,  // measure 10
0100
0010
1000
0001
MM20
0000
0130
M02M
0000
0130
MM20
0000
0031
1000
0010
1000
,  // measure 11
0001
0010
0100
1000
0001
0100
0010
0100
0002
1003
0100
0020
0130
1000
0002
0103
,  // measure 12
0020
2030
3002
0023
,  // measure 13
0230
0000
2300
0000
3002
0000
0103
0110
,  // measure 14
1010
2000
3001
0020
0031
2000
3010
0200
,  // measure 15
0301
0000
2000
0000
3100
0000
0020
0000
0031
1000
0001
0100
0001
1000
0100
0010
,  // measure 16
0001
1000
0010
1000
0001
0100
0010
0100
0001
1000
0100
0010
0100
1000
0001
0100
,  // measure 17
0001
1000
0010
1000
0001
0010
0100
1000
0100
0010
0001
1000
0010
1000
0001
0010
,  // measure 18
0100
1000
0001
0100
0010
0100
0001
1000
0100
0010
0100
1000
0001
1000
0010
0100
,  // measure 19
0001
1000
0100
0010
0100
1000
0001
0100
0010
1000
0001
1000
0200
0000
0000
0300
,  // measure 20
0110
MM01
1001
01MM
,  // measure 21
0110
0000
0010
0001
0101
0000
M01M
0000
,  // measure 22
0200
0000
0301
0000
1000
0000
0100
0000
0010
0000
0001
1000
0010
0000
0100
0000
,  // measure 23
0001
1000
0100
0010
0002
0003
0101
0000
,  // measure 24
M01M
1010
M10M
0101
,  // measure 25
0010
1000
0001
0000
0011
0000
0010
0100
,  // measure 26
1000
0000
0001
0000
0100
0000
0010
1000
0001
0000
0100
0000
0010
1000
0001
0010
,  // measure 27
0100
0010
0001
1000
0010
0100
0010
1000
0001
0010
0001
1000
0010
0000
0000
0000
,  // measure 28
0110
M0M1
1001
MM10
,  // measure 29
0001
0100
0010
0000
1010
0000
M10M
0001
,  // measure 30
1000
0000
0100
0000
0010
0000
0100
1000
0001
0000
0100
0000
0010
0000
1000
0000
,  // measure 31
0001
0010
0200
0300
1100
0000
M01M
0000
,  // measure 32
0011
0000
10MM
0000
1010
0000
01MM
0001
,  // measure 33
1000
0000
1001
0000
0001
0100
0010
1000
,  // measure 34
0100
0000
0010
0100
1000
0000
0001
0000
0100
0010
1000
0001
0010
0100
0010
0001
,  // measure 35
1000
0000
0000
0010
0000
0000
1000
0000
0000
0001
0000
0000
0010
0000
0000
0100
0000
0000
1000
0000
0000
0100
0000
0000
0010
0000
0000
0000
0001
0000
0000
0000
1000
0000
0000
0000
0010
0000
0000
0000
0100
0000
0000
0000
0001
0000
0000
0000
,  // measure 36
1000
0100
0010
0001
1000
0010
0100
0001
1000
0010
1000
0001
,  // measure 37
0010
0100
1000
0001
0010
0001
1000
0010
0100
0001
1000
0100
,  // measure 38
0010
0100
1000
0001
0100
0010
0100
0001
1000
0100
0010
0100
,  // measure 39
1000
0000
0000
0000
0000
0000
0001
0000
0000
0100
0000
0000
0002
0000
0000
0000
0000
0000
0000
0000
0000
0000
0000
0000
1003
0000
0000
0000
0010
0000
0000
0000
1000
0000
0000
0000
0001
0000
0000
0000
0010
0000
0000
0000
0100
0000
0000
0000
,  // measure 40
1000
0001
0100
0010
0100
0001
1000
0100
0010
0100
1000
0001
,  // measure 41
0200
0000
0000
0000
0000
0000
0000
0000
0000
0000
0000
0000
0300
0000
0000
0000
0000
0000
0001
0000
0000
0100
0000
0000
0010
0000
0000
0000
0100
0000
0000
0000
0001
0000
0000
0000
1000
0000
0000
0000
0100
0000
0000
0000
0010
0000
0000
0000
,  // measure 42
0100
1000
0001
0100
0010
0100
0001
1000
0100
0010
0001
1000
,  // measure 43
0002
0000
0000
0000
0000
0000
0000
0000
0000
0000
0000
0000
0000
0000
0000
0000
0000
0000
0000
0000
0000
0000
0000
0000
0000
0000
0000
0000
0000
0000
0000
0000
0000
0000
0000
0000
0000
0000
0000
0000
0000
0000
0000
0000
0000
0000
0000
0000
0000
0000
0000
0000
0000
0000
0000
0000
0000
0000
0000
0000
0000
0000
0000
0000
0000
0000
0000
0000
0000
0000
0000
0000
0003
0000
0000
0000
0000
0000
0000
0000
0000
0000
0000
0000
0010
0000
0000
0000
0000
0000
0100
0000
0000
0000
0000
0000
1000
0000
0000
0000
0000
0000
0000
0000
0000
0000
0000
0000
0000
0000
0000
0000
0001
0000
0000
0000
0000
0000
0000
0000
0000
0000
0000
0000
0000
0000
0000
0000
0100
0000
0000
0000
0000
0000
0000
0000
0000
0000
0000
0000
0000
0000
0000
0000
0010
0000
0000
0000
0000
0000
0000
0000
0000
0000
0000
0000
0000
0000
0000
0000
0100
0000
0000
0000
0000
0000
0000
0000
0000
0000
0000
0000
0000
0000
0000
0000
0001
0000
0000
0000
0000
0000
0000
0000
0000
0000
0000
0000
0000
0000
0000
0000
,  // measure 44
1000
0100
0010
0100
1000
0001
0100
0010
1000
0001
0010
0100
,  // measure 45
2000
0000
0000
0000
0000
0000
0000
0000
0000
0000
0000
0000
3000
0000
0000
0000
0000
0000
0001
0000
0000
0010
0000
0000
0100
0000
0000
0000
0010
0000
0000
0000
0001
0000
0000
0000
1000
0000
0000
0000
0010
0000
0000
0000
0100
0000
0000
0000
,  // measure 46
0010
1000
0001
0010
0100
1000
0100
0010
0001
1000
0010
0100
,  // measure 47
0101
0000
0000
1001
0000
0000
1100
0000
0120
0000
0000
0000
0M31
0000
0000
0000
,  // measure 48
0201
031M
2010
30M1
,  // measure 49
0201
0000
031M
0000
2010
3001
0010
0100
,  // measure 50
2100
3001
0100
0010
2010
3001
0010
0001
,  // measure 51
2001
0000
3010
0000
0100
0001
1000
0100
0010
0000
0001
1000
0010
0100
0001
1000
,  // measure 52
0100
0010
0100
1000
0001
1000
0010
0100
0001
0000
1000
0000
1020
0000
0130
0000
,  // measure 53
0102
0000
0003
2M01
0000
3000
102M
0030
M210
0000
0301
0000
1000
0100
0010
0001
,  // measure 54
1000
0010
0100
0010
1000
0001
0010
0100
1000
0100
0010
0001
1000
0100
1000
0001
,  // measure 55
0100
0010
1000
0001
0010
0100
0010
0001
1000
0010
0100
0010
1000
0001
0010
0100
,  // measure 56
1000
0100
0010
0100
1000
0001
0100
0010
0100
0001
1000
0100
0010
0001
0010
0100
,  // measure 57
1000
0001
0100
0001
1000
0100
0010
0100
1000
0001
0100
0010
1000
0001
0010
0001
,  // measure 58
1000
0010
0100
0001
1000
0001
0010
0100
1000
0100
0010
0001
1000
0010
0100
0010
,  // measure 59
1000
0001
0010
0100
1000
0001
0100
0001
1000
0100
0010
0001
0010
0100
1000
0001
,  // measure 60
0010
0001
1000
0010
0100
0010
1000
0010
0100
0001
1000
0100
1000
0001
0100
0010
,  // measure 61
1000
0001
0100
0001
1000
0100
0010
0001
0010
0100
0010
0001
1000
0001
0100
0010
,  // measure 62
0100
0001
1000
0100
0010
0100
1000
0001
0100
0010
0100
0001
1000
0100
0010
0001
,  // measure 63
1000
0001
0100
0010
1000
0001
0010
0001
2000
0000
0000
0000
0000
0000
0000
0000
,  // measure 64
0000
0000
3001
0010
0100
0000
0010
0000
0002
0000
0000
0000
0000
0000
0000
0000
,  // measure 65
2003
0000
0000
0000
0000
0000
3020
0000
0000
0000
0000
0000
0130
0000
0000
0001
2000
0000
0000
0000
0000
0000
0000
0000
3020
0000
0000
0000
0000
0000
0000
0000
,  // measure 66
0130
0010
1000
0001
0200
0000
0320
0000
,  // measure 67
1030
0000
0002
0000
0000
0000
0000
0000
1003
0010
0100
0000
0001
1000
0100
0000
,  // measure 68
0010
0001
1000
0010
0100
0010
1000
0001
0010
0100
0010
0001
2000
0000
3010
0100
,  // measure 69
0001
1000
0100
0010
0100
1000
0001
0100
0010
1000
0001
0010
0001
1000
0010
0100
,  // measure 70
0001
1000
0100
1000
0002
0000
0000
0000
0023
0000
0000
0000
0000
0000
0000
0000
,  // measure 71
0230
0000
0000
0000
0000
0000
0000
0000
1300
0001
0100
0010
0100
0001
1000
0100
,  // measure 72
0010
0100
1000
0001
0100
0010
0100
0001
1000
0001
0010
0100
1000
0001
0100
0010
,  // measure 73
1000
0001
0010
0100
0010
0001
1000
0010
0100
0010
1000
0001
0010
0100
1000
0001
,  // measure 74
1000
0010
1000
0001
0010
0100
1000
0100
0010
0001
1000
0001
0100
0010
1000
0001
,  // measure 75
0010
0100
1000
0001
0100
0010
0100
0001
1000
0001
0010
0100
1000
0001
0100
0010
,  // measure 76
0100
0001
1000
0010
1000
0001
0010
0100
1000
0001
0100
0010
0100
0001
1000
0100
,  // measure 77
0010
0100
1000
0001
0100
0010
1000
0001
0010
0100
0010
0001
1000
0001
0100
0001
,  // measure 78
1000
0100
0010
0001
1000
0010
0100
0010
1000
0001
1000
0100
0010
0001
1000
0010
,  // measure 79
1000
0100
0010
0100
1000
0001
1000
0010
0100
0000
0000
0000
0110
0000
0000
0000
,  // measure 80
M0M1
0000
0101
0000
M01M
0000
1000
0001
,  // measure 81
0010
0000
0110
0000
0100
1000
0001
0100
,  // measure 82
0010
0000
1000
0001
0100
0000
0010
0000
1000
0000
0001
0000
0010
0000
0001
0000
,  // measure 83
2000
3000
1010
0000
0MM1
0000
0011
0000
,  // measure 84
M10M
0000
1100
0000
0MM1
0100
0010
0000
,  // measure 85
1010
0000
0000
0000
1000
0000
0001
0000
0010
0000
0100
0000
0010
0000
0001
1000
,  // measure 86
0010
0000
0100
0000
0001
1000
0100
0010
0100
1000
0001
0100
0010
0100
0001
1000
,  // measure 87
0100
0010
0100
1000
0001
0000
0000
0000
0101
0000
0000
0000
1MM0
0000
0000
0000
,  // measure 88
1100
0000
M01M
0000
0001
1000
0010
0000
,  // measure 89
0110
0000
0000
0000
M0M1
0000
1000
0000
0100
0000
0010
0000
0100
0000
1000
0001
,  // measure 90
0100
0010
0100
0001
1000
0010
0200
0300
,  // measure 91
0101
1MM0
1100
M01M
,  // measure 92
0011
0000
0001
1000
0010
0000
0110
0000
,  // measure 93
M0M1
0000
1000
0000
0100
0000
0010
0000
0100
0000
1000
0001
0100
0000
0001
0000
,  // measure 94
2000
0000
0000
0000
,  // measure 95
0000
0000
0000
0000
0000
0000
0000
0000
0000
0000
0000
0000
0000
0000
3001
0100
,  // measure 96
0020
0030
0000
0000
;

//---------------dance-single - Medium----------------
#NOTES:
     dance-single:
     Ace Of Hearts (2011):
     Medium:
     9:
     0.669,0.291,0.000,0.787,0.252:
0000
0000
0000
0000
,
0001
0000
0010
0000
0001
0000
1000
0000
0010
0000
0100
0000
0001
0000
0000
0001
,
0000
0001
1000
0010
1000
0001
0010
0100
,
1000
0000
0000
1000
0000
0000
1000
0000
0001
0000
0100
0000
0010
0000
0100
0000
,
0001
0000
1000
0000
0100
0000
0000
0100
0000
0000
0100
0000
0010
0000
0100
0000
,
1000
0000
0001
0000
0100
0000
0001
0000
1000
0000
0000
1000
0000
0000
1000
0000
,
0001
0000
0100
0000
0010
0000
1000
0000
0001
0000
0100
0000
0010
0000
0000
0010
,
0000
0010
1000
0001
0100
0010
0100
0001
,
1000
0000
0000
1000
0000
0000
1000
0000
0100
0000
0010
0000
0100
0000
1000
0000
,
0001
0000
0100
0000
0010
0000
0000
0010
0000
0000
0010
0000
0100
0000
0001
0000
,
1000
0000
0001
0000
0010
0000
0100
0000
1000
0000
0000
1000
0000
0000
1000
0000
,
0002
0103
0020
0130
,
0002
0000
1003
0000
0200
0000
0310
0001
,
1000
0010
1000
0001
0020
0000
0130
0000
,
1000
0001
0100
0010
0200
0000
0000
0000
,
0320
2030
3002
0203
,
0320
2030
3200
0320
,
0032
2003
3020
0230
,
0320
2030
3002
0003
,
1000
0010
0100
0010
,
1000
0000
0001
0010
0100
0000
0010
0000
,
0001
0000
1000
0000
0010
0000
0100
0000
0010
0000
1000
0010
1000
0000
0001
0000
,
0010
0100
1000
0001
2000
3000
0010
0000
,
0100
0001
1000
0100
,
0010
0001
1000
0000
0010
0000
1000
0001
,
0010
0000
0100
0000
0010
0000
0001
1000
0001
0000
1000
0000
0020
0000
0000
0000
,
0000
0030
0000
1000
,
0001
0010
0100
0010
,
0001
1000
0010
0000
0100
0000
0001
0100
,
0010
0000
1000
0000
0001
0000
1000
0100
1000
0000
0001
0000
0100
0000
0010
0000
,
1000
0001
0200
0300
0010
0000
0100
0000
,
0001
0000
1000
0000
0100
0000
0010
0100
,
1000
0000
0001
0000
1000
0010
0100
0001
,
1000
0000
0010
1000
0010
0000
0100
0000
0002
0000
0000
0000
0000
0000
0000
0000
,
0003
0000
0000
0000
0000
0000
1000
0000
1000
0001
0000
0001
,
0100
0000
0100
0010
0000
0010
1000
0000
1000
0001
0000
0001
,
0010
0000
0010
0100
0000
0100
1000
0000
1000
0001
0000
0001
,
0100
0000
0100
0010
0000
0010
1000
0000
1000
0001
0000
0001
,
0010
0000
0010
0200
0000
0000
1300
0000
0001
0100
0000
0001
,
1000
0000
0001
0100
0000
0010
1000
0000
0010
0100
0000
0010
,
2000
0000
0000
0000
0000
0000
0000
0000
0000
0000
0000
0000
3000
0000
0000
0000
0000
0000
0001
0000
0000
0010
0000
0000
0001
0000
0000
0000
0000
0000
0000
0000
1000
0000
0000
0000
0001
0000
0000
0000
0000
0000
0000
0000
0100
0000
0000
0000
,
0001
0000
1000
0001
0000
0010
0100
0000
1000
0100
0000
0010
,
0002
0000
0000
0000
0000
0000
0000
0000
0000
0000
0000
0000
0003
0000
0000
0000
0000
0000
1000
0000
0000
0010
0000
0000
1000
0000
0000
0000
0000
0000
0000
0000
0001
0000
0000
0000
1000
0000
0000
0000
0000
0000
0000
0000
0100
0000
0000
0000
,
1000
0000
0001
1000
0000
0010
0100
0000
0001
0100
0000
0001
,
2000
0000
0000
0000
0000
0000
0000
0000
0000
0000
0000
0000
3000
0000
0000
0000
0000
0000
0010
0000
0000
1000
0000
0000
0010
0000
0000
0000
0000
0000
0000
0000
1000
0000
0000
0000
0001
0000
0000
0000
0000
0000
0000
0000
0010
0000
0000
0000
,
0001
0000
1000
0001
0000
0100
0010
0000
0100
0001
0000
1000
,
0010
0000
0000
0010
0000
0000
0010
0000
2000
0000
0000
0000
0000
0000
0000
0000
,
3002
0000
0023
0000
,
0230
0000
0000
0000
1300
0100
0010
0001
,
0010
0100
1000
0001
0100
0010
0100
0001
,
1000
0100
0010
0001
2000
0000
0000
0000
,
3020
0000
0230
0000
,
0302
0000
0000
0000
1003
0010
1000
0001
,
0010
0100
0010
0001
1000
0010
0100
0010
,
1000
0001
0010
0100
2000
0000
3002
0000
,
0203
0320
2030
3002
,
0023
0230
2300
3002
,
0203
0302
2003
3200
,
0320
0030
0002
2003
,
3020
0230
0302
2003
,
3200
0320
0230
2300
,
3002
0203
0320
2030
,
3002
0003
0020
0000
,
0000
0031
1000
0010
0200
0000
0000
0000
,
0302
0000
0000
2003
0000
0000
3100
0000
0020
0000
0000
0000
0230
0000
0000
0000
,
1300
0001
0010
0200
0000
0000
2300
0000
,
3001
0200
0000
0000
0310
1000
0001
0010
,
0100
0010
0001
1000
0010
1000
0001
0010
,
0100
1000
0001
0100
0010
1000
0001
0010
,
0100
1000
0002
0000
0023
0000
0000
0000
,
0230
0000
2300
0000
,
0000
0000
0000
0000
0000
0000
3002
0000
0203
0000
0000
0310
0000
0000
1000
0000
,
0002
0000
0000
0023
0000
0000
0130
0000
2000
0000
0000
0000
3002
0000
0000
0000
,
1003
0010
0100
0002
0000
0000
1003
0020
,
0000
0000
2030
0000
,
3002
0000
0000
0023
0000
0000
0031
0000
2000
0000
0000
3020
0000
0000
0130
0000
,
0002
0000
0203
0000
,
0302
0000
0000
2003
0000
0000
3010
0000
0200
0000
0000
0000
0000
0000
0000
0000
,
0000
0000
0301
1000
,
0100
0000
0010
0000
0100
0000
1000
0001
,
0100
0000
0010
0000
1000
0001
0010
0001
,
1000
0000
0010
1000
0010
0000
0100
0000
0001
0000
0100
0000
0010
0000
1000
0000
,
0002
0003
0010
0000
0100
0000
0010
0000
,
0001
0000
1000
0000
0010
1000
0001
0000
,
0010
0000
0000
0000
0100
0000
0010
0000
0001
0000
1000
0000
0010
0000
0100
0001
,
0100
0010
2000
0000
0000
0000
3000
0000
,
0000
0001
0100
0010
,
1000
0000
0001
0000
1000
0100
0010
0000
,
0001
0000
0000
0000
0010
0000
0100
0000
1000
0000
0001
0000
0100
0000
0001
1000
,
0001
0010
0100
0010
0001
1000
0200
0300
,
0010
0001
1000
0010
,
0100
0000
0010
1000
0001
0000
0010
0000
,
0100
0000
1000
0000
0001
0000
0100
0000
0010
0000
1000
0010
1000
0000
0001
0000
,
0020
0000
0000
0000
,
0000
0000
0000
0000
0000
0000
0000
0000
0000
0000
0000
0000
0030
0000
0001
1000
,
0002
0003
0000
0000
;

//---------------dance-single - Easy----------------
#NOTES:
     dance-single:
     Ace Of Hearts (2011):
     Easy:
     6:
     0.367,0.109,0.008,0.634,0.042:
0000
0000
0000
0000
,
0004
0000
0000
0000
0000
0000
0000
0000
0003
0000
0000
0000
1000
0000
0000
1000
,
0000
1000
0040
0000
0000
0000
0030
0000
,
0100
0000
0000
0100
0000
0000
0100
0000
0004
0000
0000
0000
0000
0000
0000
0000
,
0003
0000
0000
0000
0010
0000
0000
0010
0000
0000
0010
0000
0400
0000
0000
0000
,
0000
0000
0000
0000
0300
0000
0000
0000
1000
0000
0000
1000
0000
0000
1000
0000
,
0004
0000
0000
0000
0000
0000
0000
0000
0003
0000
0000
0000
0100
0000
0000
0100
,
0000
0100
0040
0000
0000
0000
0030
0000
,
1000
0000
0000
1000
0000
0000
1000
0000
0004
0000
0000
0000
0000
0000
0000
0000
,
0003
0000
0000
0000
0010
0000
0000
0010
0000
0000
0010
0000
0400
0000
0000
0000
,
0000
0000
0000
0000
0300
0000
0000
0000
1000
0000
0000
1000
0000
0000
1000
0000
,
0002
0000
2003
0000
,
3020
0000
2030
3000
,
1002
0000
0203
0000
,
0320
0000
2030
0000
,
3001
1000
0010
1000
,
0002
0000
0003
0000
,
1000
0001
0100
0001
,
2000
0000
3000
0000
,
0001
0010
0100
0010
,
0002
0000
0003
0000
,
1000
0010
1000
0000
0001
0000
1000
0000
,
0010
0000
1000
0000
0002
0003
1000
0000
,
0100
0010
0100
2000
,
0000
3000
0000
0001
,
0100
0010
0100
0002
,
0000
0003
0000
1000
,
0001
0010
0001
2000
,
0000
0000
3000
0000
0000
0000
0010
1000
,
0010
1000
0001
1000
,
0001
0000
0200
0300
0001
0000
0010
0000
,
0100
0010
0002
0000
,
0003
0000
0000
0000
1000
0100
1000
0000
,
0001
1000
0020
0000
,
0030
0000
0000
0000
0000
0000
4000
0004
0000
0000
0000
0000
,
0000
0000
0000
0000
,
3003
0000
0000
0000
0000
0000
0004
4000
0000
0000
0000
0000
,
0000
0000
0000
0000
,
3003
0000
0004
0000
,
0000
0003
1000
0001
,
2000
3000
0040
0000
,
0000
0030
1000
0001
,
2000
3000
0040
0000
,
0000
0030
1000
0001
,
2000
3000
0400
0000
,
0000
0300
0010
0001
,
0020
0030
0002
0000
,
2003
0000
3020
0000
,
0230
0000
0301
0001
,
1000
1000
0010
0010
,
0100
0100
0002
0000
,
2003
0000
3200
0000
,
0320
0000
0031
0001
,
1000
1000
0100
0100
,
0010
0010
0002
2003
,
3002
0203
0302
0203
,
0320
0230
0320
2030
,
3020
2030
3002
0023
,
0032
0003
2000
3200
,
2300
3002
2003
3020
,
2030
3002
0023
0032
,
0023
0230
0320
0032
,
2003
3000
0020
0000
,
0000
1030
2000
0000
,
3001
0001
0002
0000
,
0103
0100
0200
0302
,
2003
0000
0000
0000
0000
0000
3004
0400
0000
0000
0000
0000
,
0000
0000
0000
0000
,
0000
0000
0000
0000
,
0303
0000
0002
0000
,
2003
0000
3200
0000
,
0000
0000
0320
0000
,
0000
0030
0001
0100
,
0010
0100
0002
0000
,
0003
0000
2000
0000
,
3001
0010
0100
1000
,
0002
0000
2003
0000
,
3001
1000
0002
0000
,
0003
0000
1000
0010
,
0100
0010
2000
0000
,
3000
0000
0000
0000
0001
0010
0001
0000
,
1000
0010
1000
0001
,
0200
0300
0001
0000
1000
0000
0010
0000
,
1000
0002
0000
0003
,
0000
0000
1000
0100
1000
0000
0001
0000
,
1000
0020
0000
0030
,
0000
1000
0001
0100
,
0001
2000
0000
3000
,
0000
0000
0001
0100
0001
0000
1000
0000
,
0001
0000
0010
0000
0100
0000
2000
3000
,
0001
0010
0100
0010
,
0002
0000
0003
0000
,
1000
0010
1000
0000
0001
0000
1000
0000
,
0020
0000
0000
0000
,
0000
0000
0000
0000
,
0130
0000
0000
0000
;

//---------------dance-single - Novice----------------
#NOTES:
     dance-single:
     Ace Of Hearts (2011):
     Beginner:
     2:
     0.157,0.036,0.015,0.237,0.000:
0000
0000
0000
0000
,
0004
0000
0003
0000
,
0000
4000
0000
3000
,
0000
0000
0004
0000
,
0003
0000
0000
4000
,
0000
3000
0000
0000
,
0040
0000
0030
0000
,
0000
0400
0000
0300
,
0000
0000
0040
0000
,
0030
0000
0000
0400
,
0000
0300
0000
0000
,
0001
0000
0001
0000
,
0001
0000
0000
0000
,
1000
0000
1000
0000
,
1000
0000
0000
0000
,
0010
0000
0010
0000
,
0010
0000
0010
0000
,
1000
0000
1000
0000
,
2000
0000
3000
0000
,
0001
0000
0001
0000
,
0001
0000
0000
0000
,
0100
0000
0100
0000
,
0200
0000
0300
0001
,
0000
0001
0000
0001
,
0000
0000
0000
1000
,
0000
1000
0000
2000
,
0000
3000
0000
0010
,
0000
0010
0000
0010
,
0000
0000
0000
0100
,
0000
0100
0000
0200
,
0000
0300
0001
0000
,
0001
0000
0001
0000
,
0000
0000
1000
0000
,
1000
0000
2000
0000
,
3000
0000
2002
0000
,
0000
0000
0000
0000
,
0000
0000
0000
0000
,
0000
0000
3003
0000
,
0000
0000
0004
0000
,
0000
0000
0003
0000
,
0000
0000
4000
0000
,
0000
0000
3000
0000
,
0000
0000
0400
0000
,
0000
0000
0300
0000
,
0000
0000
0040
0000
,
0000
0000
0030
0000
,
1001
0000
0002
0000
,
0003
0000
2000
0000
,
3000
0000
0010
0000
,
0010
0000
1000
0000
,
1000
0000
0002
0000
,
0003
0000
2000
0000
,
3000
0000
0020
0000
,
0030
0000
0200
0000
,
0300
0000
0002
0000
,
0003
0000
2000
0000
,
3000
0000
0002
0000
,
0003
0000
0020
0000
,
0030
0000
0002
0000
,
0003
0000
2000
0000
,
3000
0000
0020
0000
,
0030
0000
2000
0000
,
3000
0000
0002
0000
,
0003
0000
1000
0000
,
1000
0000
0010
0000
,
0010
0000
0020
0000
,
0030
0000
4000
0000
,
0000
0000
0000
0000
,
0000
0000
0000
0000
,
3000
0000
0020
0000
,
0030
0000
0100
0000
,
0000
0000
0100
0000
,
0000
0000
0001
0000
,
0002
0000
0003
0000
,
0000
0000
1000
0000
,
1000
0000
2000
0000
,
3000
0000
0100
0000
,
0100
0000
0200
0000
,
0300
0000
0010
0000
,
0010
0000
0010
0000
,
0000
0000
0001
0000
,
0001
0000
0002
0000
,
0003
1000
0000
1000
,
0000
1000
0000
0000
,
0000
0010
0000
0010
,
0000
0020
0000
0030
,
0000
1000
0000
1000
,
0000
1000
0000
0000
,
0000
0001
0000
0001
,
0000
0002
0000
0003
,
1000
0000
1000
0000
,
1000
0000
0000
0000
,
0010
0000
0010
0000
,
0020
0000
0000
0000
,
0000
0000
0000
0000
,
0030
0000
0000
0000
;
