#TITLE:Pure Pure Heart;
#SUBTITLE:;
#ARTIST:Ho-kago Tea Time;
#TITLETRANSLIT:;
#SUBTITLETRANSLIT:;
#ARTISTTRANSLIT:;
#GENRE:J-Pop;
#CREDIT:Ace Of Hearts;
#BANNER:Pure Pure Heart - bn.png;
#BACKGROUND:Pure Pure Heart - bg.png;
#LYRICSPATH:;
#CDTITLE:Ace Of Hearts.png;
#MUSIC:Pure Pure Heart.ogg;
#OFFSET:1.120;
#SAMPLESTART:59.500;
#SAMPLELENGTH:12.000;
#SELECTABLE:YES;
#BPMS:0.000=154.000;
#STOPS:;
#BGCHANGES:0.375=Pure Pure Heart Video.avi=1.000=0=0=1=====,
99999=-nosongbg-=1.000=0=0=0 // don't automatically add -songbackground-
;
#KEYSOUNDS:;

//---------------dance-single - Hard----------------
#NOTES:
     dance-single:
     Ace Of Hearts (2011):
     Hard:
     8:
     0.604,0.253,0.086,1.000,0.116: // measure 1
0000
0000
0000
0000
,  // measure 2
0002
0000
0000
0000
0203
0000
0000
0310
0000
0000
2000
0000
0000
0000
3001
0000
,  // measure 3
0020
0000
0000
0000
0032
0000
0000
1003
0000
0000
0020
0000
0000
0000
0130
0000
,  // measure 4
0002
0000
0000
0000
2003
0000
0000
3100
0000
0000
0020
0000
0000
0000
0031
0000
,  // measure 5
4000
0400
0000
0000
0000
0000
0000
0000
0000
0000
0000
0000
3300
0000
0000
0000
,  // measure 6
0200
0000
0000
0000
2300
0000
0000
3001
0000
0000
0200
0000
0000
0000
0301
0000
,  // measure 7
2000
0000
0000
0000
3020
0000
0000
0130
0000
0000
0002
0000
0000
0000
1003
0000
,  // measure 8
0020
0000
0000
0000
2030
0000
0000
3001
0000
0000
0020
0000
0000
0000
0130
0000
,  // measure 9
2000
0000
0000
0000
3002
0000
0000
0103
0000
0000
0020
0000
0000
0000
1030
0000
,  // measure 10
0002
0000
0000
0000
0203
0000
0000
0310
0000
0000
2000
0000
0000
0000
3001
0000
,  // measure 11
0020
0000
0000
0000
0032
0000
0000
1003
0000
0000
0010
0000
1000
0000
0001
0000
,  // measure 12
0020
0000
0000
0000
0032
0000
0000
1003
0000
0000
0020
0000
0000
0000
1030
0000
,  // measure 13
0002
0000
0000
0000
0203
0000
0000
0310
0000
0000
1000
0000
0001
0000
0010
0000
,  // measure 14
0100
0000
0010
0000
0002
0000
0000
1003
0010
0000
0100
0000
0010
0000
1000
0000
,  // measure 15
0002
0000
0013
0200
0000
2300
0000
3000
,  // measure 16
0000
0000
0001
0000
2000
0000
0000
3001
0100
0000
0010
0000
0100
0000
0001
0000
,  // measure 17
2000
0000
3100
0020
0000
0032
0000
0003
,  // measure 18
0000
0000
1000
0000
0020
0000
0000
0130
0001
0000
0100
0000
0010
0000
1000
0000
,  // measure 19
0002
0000
0013
0200
0000
2300
0000
3020
,  // measure 20
0000
1030
0002
0000
0000
0003
0000
2000
,  // measure 21
0000
3100
0000
1000
0002
0000
0013
0000
,  // measure 22
0000
0100
2000
0000
3001
0100
0010
1000
,  // measure 23
0002
0000
0103
0020
0000
2030
0000
3000
,  // measure 24
0000
0010
0200
0000
0301
1000
0100
0010
,  // measure 25
0002
0000
0103
0020
0000
2030
0000
3000
,  // measure 26
0000
0000
0001
0000
0200
0000
0000
0310
1000
0000
0001
0000
0010
0000
0100
0000
,  // measure 27
0020
0000
0031
2000
0000
3200
0000
0320
,  // measure 28
0000
0130
2000
0000
3000
0000
0000
0002
,  // measure 29
0000
0103
0000
0010
2000
0000
3100
0000
,  // measure 30
0110
0011
1001
2020
,  // measure 31
3030
0020
0000
1030
0001
0010
0000
0002
,  // measure 32
0000
1003
0010
0000
0100
0001
1000
0100
,  // measure 33
0010
0001
1000
0010
0000
0000
2000
3000
,  // measure 34
1001
0101
1010
2200
,  // measure 35
3300
1000
0001
0100
0010
1000
0000
0020
,  // measure 36
0000
0130
0001
1000
0100
0010
0000
0002
,  // measure 37
0000
1003
0010
0100
0010
1000
0001
0200
,  // measure 38
0000
0301
1000
0100
0010
0001
1000
0010
,  // measure 39
4000
0004
0000
0000
0000
0000
0000
0000
0000
0000
0000
0000
3003
0000
0000
0000
,  // measure 40
0102
0000
0003
1000
0200
0000
0300
0010
,  // measure 41
0004
0000
0003
1000
0010
1000
0001
0010
,  // measure 42
0200
0000
0300
1000
0002
0000
0003
1000
,  // measure 43
0040
0000
1030
0001
0010
0100
2000
0000
,  // measure 44
3020
0000
0030
0100
0002
0000
0003
1000
,  // measure 45
0400
0000
0300
1000
0001
0100
0010
1000
,  // measure 46
0002
0023
0230
2300
,  // measure 47
3002
0000
0000
1003
0200
0000
0000
0310
,  // measure 48
0002
0000
0003
1000
0020
0000
0030
0100
,  // measure 49
0004
0000
0003
1000
0010
1000
0002
0000
,  // measure 50
0203
0000
0300
0010
0200
0000
0300
0001
,  // measure 51
4000
0000
3000
0001
0010
0100
1000
0001
,  // measure 52
0200
0000
0300
0010
2000
0000
3000
0001
,  // measure 53
0040
0000
0030
0100
1000
0001
0100
0010
,  // measure 54
2000
0000
3000
0001
0400
0000
0300
0000
,  // measure 55
0002
0000
0000
0000
4003
0040
0000
0000
0000
0000
0000
0000
3030
0000
0000
0000
,  // measure 56
2000
0000
0000
0000
3002
0000
0000
0013
0000
0000
0200
0000
0000
0000
0310
0000
,  // measure 57
0002
0000
0000
0000
2003
0000
0000
3010
0000
0000
0100
0000
0001
0000
1000
0000
,  // measure 58
0200
0000
0000
0000
2300
0000
0000
3001
0000
0000
0200
0000
0000
0000
0310
0000
,  // measure 59
2000
0000
0000
0000
3002
0000
0000
0013
0000
0000
0100
0000
0010
0000
0001
0000
,  // measure 60
2000
0000
0000
0000
3002
0000
0000
0103
0000
0000
0020
0000
0000
0000
0130
0000
,  // measure 61
0002
0000
0000
0000
2003
0000
0000
3100
0000
0000
0010
0000
0001
0000
1000
0000
,  // measure 62
0020
0000
0000
0000
2030
0000
0000
3001
0000
0000
0020
0000
0000
0000
0130
0000
,  // measure 63
2000
0000
0000
0000
3002
0000
0000
0103
0000
0000
0010
0000
1000
0000
0001
0000
,  // measure 64
0200
0302
2003
3200
,  // measure 65
0320
0032
2003
3020
,  // measure 66
0230
0000
0000
0301
2000
0000
0000
3100
,  // measure 67
0010
0001
2000
0000
0000
3010
1000
0010
,  // measure 68
0100
0002
0000
0000
1003
0100
0010
0100
,  // measure 69
2000
0000
3001
0100
0020
0000
0130
0001
,  // measure 70
1000
0001
0100
0010
0100
0001
1000
0100
,  // measure 71
0040
0004
0000
0000
0000
0000
0000
0000
0000
0000
0000
0000
0000
0000
0033
0000
,  // measure 72
2002
0000
0000
0000
,  // measure 73
0000
0000
0000
0000
,  // measure 74
0000
0000
0000
0000
3000
0003
0000
0000
;

//---------------dance-single - Expert----------------
#NOTES:
     dance-single:
     Ace Of Hearts (2011):
     Challenge:
     11:
     1.000,0.285,0.086,0.861,0.934:
0000
0000
0000
0000
,
0201
0000
0000
0000
0320
0000
0000
0130
0000
0000
0002
0000
0000
0000
1003
0000
,
2100
0000
0000
0000
3020
0000
0000
0130
0000
0000
0001
0000
1000
0000
0100
0010
,
0002
0000
0000
0000
2003
0000
0000
3010
0000
0000
0100
0000
0001
0000
1000
0000
,
0100
0010
0100
0000
0000
1000
0100
0000
0010
0000
0000
0001
0010
0100
0010
0001
,
1000
0010
1000
0000
0002
0000
0013
0100
1000
0000
0002
0000
0000
0000
0103
0010
,
1000
0001
1000
0000
0200
0000
0310
0001
1000
0000
0020
0000
0000
0000
0130
0001
,
1000
0100
0010
0000
0002
0000
1003
0100
0010
0000
0200
0000
0000
0000
1300
0001
,
1000
0100
0010
0000
0002
0000
1003
0010
0100
0000
0010
1000
0001
0010
0100
1000
,
0100
0010
0001
0000
2000
0000
3001
0100
0010
0000
0200
0000
0000
0000
0301
0100
,
0010
1000
0001
0000
0020
0000
0130
1000
0001
0000
0200
0000
0000
0000
0301
0010
,
0001
1000
0100
0000
0020
0000
0130
1000
0001
0000
2000
0000
0000
0000
3010
0100
,
0001
1000
0100
0000
0020
0000
0130
1000
0001
0000
1000
0010
1000
0001
0010
0100
,
1000
0000
0001
0000
0200
0000
0000
0310
1000
0000
0002
0000
1003
0000
0010
0100
,
0010
0000
1000
0000
0002
0000
0013
0100
0010
0000
0002
0000
1003
0100
0010
0000
,
0100
0000
1000
0000
0002
0000
0000
1003
0010
0000
0200
0000
0301
0000
1000
0001
,
0100
0000
0010
0000
2000
0000
3001
0010
0100
0000
0020
0000
0031
0000
1000
0100
,
0010
0000
0100
0000
2000
0000
3001
0100
0010
0000
0200
0000
0301
0000
1000
0100
,
0010
0000
0001
0000
2000
0000
3001
0100
0010
0000
2000
0000
3100
0000
0020
0000
,
0130
0000
1000
0000
0002
0000
1003
0010
0100
0000
0020
0000
1030
0000
0001
0000
,
0010
0000
0100
0000
2000
0000
3001
0100
0010
0000
0100
0001
1000
0001
0100
0010
,
1000
0000
0001
0010
0200
0000
0310
0001
1000
0001
0010
0100
1000
0100
0010
0001
,
2000
0000
3001
0100
0010
1000
0001
0010
0200
0000
0310
0100
0010
0001
1000
0010
,
0200
0000
0301
1000
0100
0010
0100
1000
0002
0000
1003
0010
0100
0010
1000
0001
,
0200
0000
0301
1000
0100
0010
0100
1000
0002
0000
1003
0010
0100
0010
1000
0001
,
0020
0000
0031
1000
0010
0100
0010
1000
0002
0000
0013
0100
0010
0001
1000
0010
,
0200
0000
0301
1000
0100
0010
0001
1000
0002
0000
1003
0010
0100
0010
1000
0001
,
0020
0000
0130
1000
0100
0010
0001
1000
0002
0000
0103
0010
0100
0001
1000
0100
,
0020
0000
0130
1000
0001
1000
0010
0100
0001
0100
0001
0100
0010
1000
0001
0000
,
0011
0000
0000
0000
0110
0000
0000
0000
1100
0000
0000
0000
1002
0000
0013
0100
,
1000
0000
0001
1000
0010
0000
0100
0000
0010
0000
1000
0000
0002
0000
0103
0000
,
0001
0000
1000
0000
0100
0000
0010
0000
0001
0000
1000
0000
0010
0000
0100
0001
,
1000
0000
0100
0000
0010
0000
0001
0000
1000
0000
0010
0100
0001
1000
0001
0010
,
0100
0000
0000
0000
1100
0000
0000
0000
1001
0000
0000
0000
0201
0000
0310
1000
,
0002
0000
0013
0100
1000
0000
0001
0000
0100
0000
0010
0000
1000
0000
0001
0000
,
0010
0000
0100
0000
1000
0000
0001
0000
0010
0000
0001
0000
1000
0000
0010
1000
,
0001
0000
0010
0000
0100
0000
1000
0000
0100
0000
0010
0000
0001
0000
1000
0010
,
0100
0001
0100
0001
1000
0100
1000
0100
0010
0001
0010
0001
1000
0010
1000
0010
,
0100
0001
0100
0001
1000
0100
1000
0100
0010
0001
0010
0000
0200
0000
1300
0001
,
2000
0000
0001
3000
0001
0000
0100
0000
0020
0000
0100
0030
0100
0000
0001
1000
,
0200
0000
0010
0300
0010
0000
0100
0000
1000
0000
0001
0000
0100
0001
1000
0000
,
0200
0000
0010
0300
0010
0000
0001
0000
2000
0000
0010
3000
0010
0000
0100
0001
,
2000
0000
0100
3000
0100
0000
0010
0000
0001
0000
1000
0000
0010
0000
0100
0001
,
0200
0000
0010
0300
0010
0000
1000
0000
0002
0000
0010
0003
0010
0000
0100
1000
,
0002
0000
0100
0003
0100
0000
0010
1000
0001
0000
0010
0000
0100
0000
0010
0001
,
2000
0000
3010
0000
0100
0000
0001
0000
0100
0000
0010
0000
1000
0000
0001
1000
,
0010
0000
0100
0000
0001
0000
1000
0100
0010
0001
0010
0100
1000
0001
0100
0010
,
0200
0000
0001
0300
0001
0000
1000
0000
0200
0000
0010
0300
0010
0000
0001
1000
,
0020
0000
1000
0030
1000
0000
0001
0000
0010
0000
0100
0000
0010
0000
0001
1000
,
0200
0000
0010
0300
0010
0000
0001
0000
2000
0000
0100
3000
0100
0000
0010
0001
,
2000
0000
3010
0100
0010
1000
0001
0010
0001
1000
0010
1000
0002
0000
0013
0000
,
0200
0000
1000
0300
1000
0000
0001
0000
0200
0000
0010
0300
0010
0000
1000
0001
,
0020
0000
0100
0030
0100
0000
1000
0000
0001
0000
0100
0000
0010
0000
1000
0001
,
0100
0000
0010
0000
1000
0000
0001
0000
0010
0000
0001
0000
1000
0000
0010
0100
,
0001
0000
1000
0000
0100
0010
0100
1000
0001
0100
0010
0100
0001
0000
1000
0010
,
0100
0001
1000
0000
0200
0000
0310
0001
1000
0000
0010
0100
0001
1000
0100
0010
,
0001
1000
0010
0000
0200
0000
0301
1000
0100
0000
0010
0001
0010
0100
1000
0001
,
0100
0010
1000
0000
0002
0000
1003
0010
0100
0000
0020
0000
1030
0000
0001
0010
,
0100
1000
0001
0000
0200
0000
0310
1000
0001
0000
1000
0010
0100
0010
1000
0001
,
0010
0001
1000
0000
0020
0000
1030
0001
0010
0000
0100
1000
0100
0010
0001
1000
,
0010
1000
0001
0000
0200
0000
0310
1000
0001
0000
0010
0001
1000
0010
0100
0010
,
1000
0001
0010
0000
0200
0000
0310
0001
1000
0000
0010
1000
0001
1000
0100
0010
,
0100
1000
0001
0000
1000
0010
1000
0001
0010
0000
0100
0000
0010
0000
0001
1000
,
0020
0230
0302
2003
,
3200
0320
0032
0203
,
0320
0000
0000
0000
0000
0000
0130
0001
2000
0000
0000
0000
3100
0000
0010
0001
,
1000
0000
0010
0100
0002
0000
0000
0000
0000
0000
1003
0100
0010
0000
0100
1000
,
0001
0000
2000
0000
0000
0000
0000
0000
3001
0100
0010
0000
0100
0000
0001
1000
,
0100
0010
0100
1000
0001
0100
0001
1000
0010
1000
0001
0010
0100
1000
0100
0010
,
0002
0000
1003
0010
2000
0000
3001
0100
0020
0000
0130
0001
1000
0000
0100
0010
,
0100
1000
0001
0100
0010
1000
0001
0010
0100
1000
0001
0100
0010
0000
1000
0000
,
1002
0000
0000
0000
,
0000
0000
0000
0000
,
0000
0000
0000
0000
0003
0000
0000
1000
0010
0000
0100
0000
0000
0000
0000
0000
;

//---------------dance-single - Medium----------------
#NOTES:
     dance-single:
     Ace Of Hearts (2011):
     Medium:
     7:
     0.486,0.190,0.009,0.964,0.017: // measure 1
0000
0000
0000
0000
,  // measure 2
2000
0000
3002
0000
1003
0010
0000
0000
,  // measure 3
2000
0000
3002
0000
1003
0100
0000
0000
,  // measure 4
0020
0000
0032
0000
1003
0010
0000
0000
,  // measure 5
4000
0004
0000
0000
0000
0000
0000
0000
0000
0000
0000
0000
3003
0000
0000
0000
,  // measure 6
2000
0000
3002
0000
1003
0010
0000
0000
,  // measure 7
2000
0000
3002
0000
0013
0100
0000
0000
,  // measure 8
0020
0000
0032
0000
1003
0010
0000
0000
,  // measure 9
0200
0000
0320
0000
1030
0001
0000
0000
,  // measure 10
0020
0000
0032
0000
1003
0100
0000
0000
,  // measure 11
2000
0000
3002
0000
1003
0010
0000
0000
,  // measure 12
0200
0000
0302
0000
1003
0001
0000
0000
,  // measure 13
2000
0000
3002
0000
1003
0010
1000
0000
,  // measure 14
0002
0000
0013
0000
0001
1000
0001
0000
,  // measure 15
2000
0000
3001
0100
0000
0002
0000
0000
,  // measure 16
0003
0000
1000
0000
0001
0010
0001
0000
,  // measure 17
2000
0000
3001
0100
0000
0020
0000
0030
,  // measure 18
0000
0000
2000
0000
3001
1000
0001
0000
,  // measure 19
0020
0000
0031
1000
0000
0002
0000
1003
,  // measure 20
0000
0010
0200
0000
0300
0000
0000
0002
,  // measure 21
0000
1003
0000
0001
0200
0000
0310
0000
,  // measure 22
0000
0000
1000
0000
0001
0010
0001
0000
,  // measure 23
2000
0000
3001
0100
0000
0002
0000
0003
,  // measure 24
0000
1000
0100
0000
2000
0000
3001
0000
,  // measure 25
0020
0000
0031
1000
0000
0200
0000
0300
,  // measure 26
0000
1000
0002
0000
1003
0010
1000
0000
,  // measure 27
0002
0000
1003
0100
0000
0010
0000
0002
,  // measure 28
0000
1003
0020
0000
0030
0000
0000
2000
,  // measure 29
0000
3001
0000
1000
0200
0000
0310
0000
,  // measure 30
0001
0010
0100
2000
,  // measure 31
3000
0002
0000
0000
1003
0010
0000
2000
,  // measure 32
0000
3001
0010
0000
0001
0000
1000
0000
,  // measure 33
0002
0000
1003
0010
0000
0000
2000
0000
,  // measure 34
3001
0100
0010
2000
,  // measure 35
3000
0001
0020
0000
0031
1000
0000
0020
,  // measure 36
0000
1030
0001
0000
1000
0000
0000
0020
,  // measure 37
0000
0130
0001
0000
1000
0001
0000
2000
,  // measure 38
0000
3001
0100
0000
0010
0000
1000
0001
,  // measure 39
4000
0004
0000
0000
0000
0000
0000
0000
0000
0000
0000
0000
3003
0000
0000
0000
,  // measure 40
0002
0000
0000
1003
0020
0000
0000
0130
,  // measure 41
0002
0000
0003
0000
1000
0100
1000
0000
,  // measure 42
0002
0000
0000
1003
0020
0000
0000
0130
,  // measure 43
0001
0000
1000
0001
1000
0000
0010
0000
,  // measure 44
2000
0000
0000
3001
0020
0000
0000
0130
,  // measure 45
1000
0000
0000
0001
0100
0000
0001
0000
,  // measure 46
1000
0100
0010
0001
,  // measure 47
2000
0000
0000
0000
3200
0000
0000
0310
,  // measure 48
0002
0000
0000
1003
0020
0000
0000
0130
,  // measure 49
0002
0000
0003
1000
0010
0000
1000
0000
,  // measure 50
0002
0000
0000
0013
0200
0000
0000
1300
,  // measure 51
0001
0000
0000
1000
0010
0000
1000
0000
,  // measure 52
0002
0000
0000
0013
0200
0000
0000
1300
,  // measure 53
0001
0000
0000
1000
0010
0000
1000
0000
,  // measure 54
0002
0000
0000
1003
0010
0000
0000
0000
,  // measure 55
2000
0000
0000
0000
3004
4000
0000
0000
0000
0000
0000
0000
0000
0000
0000
0000
,  // measure 56
3003
0000
1000
0000
0001
0020
0000
0031
,  // measure 57
2000
0000
3002
0000
1003
0020
0000
1030
,  // measure 58
0002
0000
2003
0000
3001
0020
0000
0031
,  // measure 59
2000
0000
3002
0000
1003
0020
0000
1030
,  // measure 60
0002
0000
0203
0000
0301
2000
0000
3001
,  // measure 61
0020
0000
0230
0000
0310
0002
0000
1003
,  // measure 62
0020
0000
2030
0000
3001
0020
0000
0031
,  // measure 63
2000
0000
0000
3000
,  // measure 64
0020
0230
0302
2003
,  // measure 65
3002
0023
0230
2300
,  // measure 66
3002
0000
2003
3002
,  // measure 67
0203
0320
0000
2030
,  // measure 68
3001
0020
0000
0000
0032
0000
1003
0000
,  // measure 69
0001
0100
0001
0000
2000
0000
3001
0000
,  // measure 70
0100
0001
0100
0000
0020
0000
1030
0000
,  // measure 71
0004
4000
0000
0000
0000
0000
0000
0000
0000
0000
0000
0000
3003
0000
0000
0000
,  // measure 72
2002
0000
0000
0000
,  // measure 73
0000
0000
0000
0000
,  // measure 74
0000
0000
3003
0000
;

//---------------dance-single - Easy----------------
#NOTES:
     dance-single:
     Ace Of Hearts (2011):
     Easy:
     4:
     0.208,0.095,0.009,0.172,0.000: // measure 1
0000
0000
0000
0000
,  // measure 2
0001
0001
0001
0000
,  // measure 3
0100
0100
0100
0000
,  // measure 4
0010
0010
0010
0000
,  // measure 5
4000
0000
3000
0000
,  // measure 6
0001
0001
0001
0000
,  // measure 7
0010
0010
0010
0000
,  // measure 8
0001
0001
0001
0000
,  // measure 9
1000
1000
1000
0000
,  // measure 10
0010
0010
0010
0000
,  // measure 11
0100
0100
0100
0000
,  // measure 12
0001
0001
0001
0000
,  // measure 13
1000
1000
1000
0000
,  // measure 14
0000
0001
0001
0000
,  // measure 15
0010
0000
0010
0000
,  // measure 16
0000
0001
0001
0000
,  // measure 17
1000
0000
1000
0000
,  // measure 18
0000
0010
0010
0000
,  // measure 19
1000
0000
1000
0000
,  // measure 20
2000
0000
3000
0000
,  // measure 21
0010
0010
0010
0000
,  // measure 22
0000
1000
1000
0000
,  // measure 23
0001
0000
0001
0000
,  // measure 24
0000
0010
0010
0000
,  // measure 25
0001
0000
0001
0000
,  // measure 26
0000
1000
1000
0000
,  // measure 27
0010
0000
0010
0000
,  // measure 28
0020
0000
0030
0000
,  // measure 29
1000
1000
1000
0000
,  // measure 30
0010
0010
0010
0010
,  // measure 31
0000
2000
0000
3000
,  // measure 32
0001
0000
0001
0000
,  // measure 33
0010
0010
0010
0000
,  // measure 34
0100
0100
0100
0100
,  // measure 35
0000
2000
0000
3000
,  // measure 36
0001
0001
0001
0000
,  // measure 37
1000
1000
1000
0000
,  // measure 38
0100
0100
0100
0000
,  // measure 39
0040
0000
0030
0000
,  // measure 40
0002
0000
1000
0000
,  // measure 41
1003
0000
0000
0000
,  // measure 42
2000
0000
0001
0000
,  // measure 43
3001
0000
0000
0000
,  // measure 44
0002
0000
0010
0000
,  // measure 45
0013
0000
0000
0000
,  // measure 46
0010
0000
0010
0000
,  // measure 47
0020
0000
0030
0000
,  // measure 48
0002
0000
1000
0000
,  // measure 49
1003
0000
0000
0000
,  // measure 50
2000
0000
0100
0000
,  // measure 51
3100
0000
0000
0000
,  // measure 52
0200
0000
0010
0000
,  // measure 53
0310
0000
0000
0000
,  // measure 54
0010
0000
0010
0000
,  // measure 55
0004
0000
0003
0000
,  // measure 56
1000
1000
1000
0000
,  // measure 57
0010
0010
0010
0000
,  // measure 58
1000
1000
1000
0000
,  // measure 59
0001
0001
0001
0000
,  // measure 60
0010
0010
0010
0000
,  // measure 61
0100
0100
0100
0000
,  // measure 62
1000
1000
1000
0000
,  // measure 63
0002
0000
0003
0000
,  // measure 64
2000
0000
3000
0000
,  // measure 65
0002
0000
0003
0000
,  // measure 66
0020
0000
0030
0000
,  // measure 67
0002
0000
0003
0000
,  // measure 68
2000
0000
3000
0000
,  // measure 69
0020
0000
0030
0000
,  // measure 70
1000
1000
1000
0000
,  // measure 71
0004
0000
0003
0000
,  // measure 72
2002
0000
0000
0000
,  // measure 73
0000
0000
0000
0000
,  // measure 74
0000
0000
3003
0000
;

//---------------dance-single - Novice----------------
#NOTES:
     dance-single:
     Ace Of Hearts (2011):
     Beginner:
     2:
     0.155,0.063,0.009,0.293,0.000: // measure 1
0000
0000
0000
0000
,  // measure 2
0002
0000
0003
0000
,  // measure 3
2000
0000
3000
0000
,  // measure 4
0002
0000
0003
0000
,  // measure 5
4000
0000
3000
0000
,  // measure 6
0020
0000
0030
0000
,  // measure 7
0200
0000
0300
0000
,  // measure 8
0020
0000
0030
0000
,  // measure 9
0200
0000
0300
0000
,  // measure 10
0002
0000
0003
0000
,  // measure 11
2000
0000
3000
0000
,  // measure 12
0002
0000
0003
0000
,  // measure 13
2000
0000
3000
0000
,  // measure 14
0001
0000
0001
0000
,  // measure 15
0002
0000
0003
0000
,  // measure 16
1000
0000
1000
0000
,  // measure 17
2000
0000
3000
0000
,  // measure 18
0010
0000
0010
0000
,  // measure 19
0010
0000
0000
0000
,  // measure 20
0020
0000
0030
0000
,  // measure 21
1000
1000
1000
0000
,  // measure 22
0001
0000
0001
0000
,  // measure 23
0002
0000
0003
0000
,  // measure 24
0010
0000
0010
0000
,  // measure 25
0020
0000
0030
0000
,  // measure 26
0001
0000
0001
0000
,  // measure 27
0001
0000
0000
0000
,  // measure 28
0002
0000
0003
0000
,  // measure 29
1000
1000
1000
0000
,  // measure 30
0020
0000
0000
0030
,  // measure 31
0000
0000
0000
0000
,  // measure 32
1000
0000
1000
0000
,  // measure 33
1000
0000
0000
0000
,  // measure 34
0002
0000
0000
0003
,  // measure 35
0000
0000
0000
0000
,  // measure 36
0020
0000
0030
0000
,  // measure 37
0001
0000
0001
0000
,  // measure 38
1000
0000
1000
0000
,  // measure 39
4000
0000
3000
0000
,  // measure 40
0001
0000
0001
0000
,  // measure 41
0001
0000
0000
0000
,  // measure 42
0010
0000
0010
0000
,  // measure 43
0010
0000
0000
0000
,  // measure 44
0001
0000
0001
0000
,  // measure 45
0001
0000
0000
0000
,  // measure 46
1000
0000
0000
0000
,  // measure 47
1000
0000
0000
0000
,  // measure 48
0010
0000
0010
0000
,  // measure 49
0010
0000
0000
0000
,  // measure 50
0100
0000
0100
0000
,  // measure 51
0100
0000
0000
0000
,  // measure 52
0001
0000
0001
0000
,  // measure 53
0001
0000
0000
0000
,  // measure 54
1000
0000
0000
0000
,  // measure 55
4000
0000
3000
0000
,  // measure 56
0002
0000
0003
0000
,  // measure 57
2000
0000
3000
0000
,  // measure 58
0002
0000
0003
0000
,  // measure 59
2000
0000
3000
0000
,  // measure 60
0200
0000
0300
0000
,  // measure 61
0020
0000
0030
0000
,  // measure 62
0200
0000
0300
0000
,  // measure 63
0020
0000
0030
0000
,  // measure 64
0001
0000
0001
0000
,  // measure 65
0001
0000
0001
0000
,  // measure 66
0002
0000
0003
0000
,  // measure 67
2000
0000
3000
0000
,  // measure 68
0020
0000
0030
0000
,  // measure 69
2000
0000
3000
0000
,  // measure 70
0001
0000
1000
0000
,  // measure 71
0004
0000
0003
0000
,  // measure 72
2002
0000
0000
0000
,  // measure 73
0000
0000
0000
0000
,  // measure 74
0000
0000
3003
0000
;
