#TITLE:Pure My Voices;
#SUBTITLE:;
#ARTIST:ave-new feat. Saori Sakura;
#TITLETRANSLIT:;
#SUBTITLETRANSLIT:;
#ARTISTTRANSLIT:;
#GENRE:Bubblegum J-Pop;
#CREDIT:Ace Of Hearts;
#BANNER:Pure My Voices - bn.png;
#BACKGROUND:Pure My Voices - bg.jpg;
#LYRICSPATH:;
#CDTITLE:Ace Of Hearts.png;
#MUSIC:Pure My Voices.ogg;
#OFFSET:0.840;
#SAMPLESTART:74.900;
#SAMPLELENGTH:12.000;
#SELECTABLE:YES;
#BPMS:0.000=133.000,136.000=66.500,144.000=133.000;
#STOPS:;
#BGCHANGES:0.000=Pure My Voices - bg.png=1.000=0=0=1=====,
1.750=Pure My Voices Video.avi=1.000=0=0=1=====,
99999=-nosongbg-=1.000=0=0=0 // don't automatically add -songbackground-
;
#KEYSOUNDS:;

//---------------dance-single - Hard----------------
#NOTES:
     dance-single:
     Ace Of Hearts (2011):
     Hard:
     9:
     0.545,0.080,0.306,0.934,0.318:
0000
0000
0000
0000
,
0102
0000
0000
0000
,
2003
3020
0230
0302
,
2003
0000
0000
3200
,
0320
0032
2003
3002
,
0023
0000
0000
0000
0130
1000
0001
0000
,
2002
0003
3020
0000
,
0230
0000
0000
0000
,
0302
0000
0000
0000
,
1003
0000
0010
0000
0100
0001
0000
0010
0000
0100
1000
0001
1000
0010
0100
0000
,
0102
0000
1003
0000
0200
0000
0000
0000
0320
0000
0000
0031
0000
0000
1000
0000
,
1010
0000
0000
0020
0000
0000
0130
0000
0101
0000
0000
0000
0002
0000
0003
0011
,
0000
0000
0010
0000
0200
0000
0300
1100
0000
0000
1000
0000
0002
0000
0103
0000
,
0120
0000
0000
0000
2030
0000
0000
0000
3001
0010
0000
0200
0000
0000
0300
0000
,
0010
0000
0001
0000
1000
0000
0000
0000
0020
0000
0000
0230
0000
0000
0301
0000
,
2001
0000
0000
3020
0000
0000
0130
0000
0101
0000
0000
0000
0001
0010
0001
2000
,
0000
0000
3010
0000
0100
0001
0000
2000
0000
0000
3100
0000
0010
0000
0100
0000
,
1000
0000
0002
0200
0000
0000
0000
0000
0000
0000
0000
0000
0000
0000
0003
0000
,
0310
0000
1000
0000
0001
0010
0000
0001
0000
1000
0100
0000
0010
0000
0100
1000
,
0001
0000
1000
0000
0010
0100
0000
0001
0000
1000
0010
1000
0001
0000
1000
0000
,
0100
0000
0010
0000
0100
1000
0000
0001
0000
0100
0010
0000
1000
0000
0001
0000
,
0020
0000
0000
0000
0230
0000
0000
0000
2300
0000
0000
3020
0000
0030
0220
0000
,
0000
0000
0000
0000
0000
0000
0000
0030
,
0300
0000
0001
0000
1000
0000
0010
0000
0200
0000
0000
0002
0000
0000
0000
0000
,
0000
0000
0000
0000
0000
0300
0003
0000
,
1000
0000
0001
0020
0000
0000
0000
0000
0000
0000
0000
0000
0030
0000
0000
0000
,
0210
0000
2300
0000
3002
0000
0103
0020
,
0000
1030
0002
0000
0003
0000
0200
0000
,
0320
0000
1030
0002
0000
0023
0000
0230
,
0000
0000
0000
0000
1300
0000
0002
0000
0000
0000
0203
0000
0310
0000
1000
0001
,
0020
0000
0230
0000
2300
0000
3001
0200
,
0000
0310
2000
0000
0000
3001
0100
0040
,
0000
0030
0000
0000
1000
0000
0002
0000
0000
0000
0000
0000
1003
0010
0100
0000
,
0020
0000
1030
0002
0000
0023
0000
0030
,
0001
0000
0000
0000
0100
0000
0000
0000
1000
0000
0000
0000
0100
0000
0000
0000
0001
0000
0000
0000
1000
0000
0000
0000
0100
0000
0000
0000
0010
0000
0000
0000
0002
0000
0000
0000
0000
0000
0000
0000
0000
0000
0000
0000
0000
0000
0000
0003
0004
0000
0000
0000
0000
0000
0000
0000
0003
0000
0000
0000
0000
0000
0000
0000
,
1000
0000
0010
0000
0001
0000
0010
0000
1000
0000
0001
0000
0010
0000
0100
0000
2000
0000
0000
0000
3000
0000
0000
0000
1020
0000
0000
0230
0000
0000
0301
0000
,
0021
0000
0130
2100
0000
3001
0200
0000
,
0000
0000
0300
0001
1000
0100
0010
0001
,
2000
0000
0000
0000
3010
0000
0200
0000
0000
0000
0302
0000
0000
0003
0011
0000
,
0000
0000
1100
0000
1001
0000
0000
0000
1010
0000
1020
0000
0000
0000
0000
0030
,
0110
0000
0100
0000
0002
0000
0000
0000
0023
0000
0000
0130
0000
0000
1000
0000
,
0002
0000
0000
0023
0000
0000
0130
0000
1000
0000
0000
0000
0002
0000
0003
0101
,
0000
0000
0100
0000
0020
0000
0030
1010
0000
0000
1000
0000
0100
0000
0010
0000
,
0012
0000
0000
0000
2003
0000
0000
3000
0001
0100
0000
0020
0000
0000
0030
0000
,
2010
0000
3001
0000
0020
0000
0000
0000
0032
0000
0000
0103
0000
0000
0010
0000
,
2010
0000
0000
3002
0000
0000
1003
0000
1010
0000
0000
0000
1000
0010
1000
0002
,
0000
0000
0013
0000
0001
1000
0000
0020
0000
0000
0130
0000
0001
0000
1000
0000
,
0200
0000
0310
0002
0000
0000
0000
0000
0000
0000
0000
0000
0003
0000
0000
0000
,
2010
0000
3001
0000
0200
0000
0300
0000
0120
0000
0000
1030
0000
0000
0001
0000
,
0021
0000
0130
2000
0000
0000
3001
0000
0101
0000
0000
0000
0210
0000
0300
1010
,
0000
0000
1000
0000
1200
0000
0300
0110
0000
0000
0010
0000
0001
0000
1000
0000
,
1020
0000
0030
0000
0210
0000
0000
0000
0301
0010
0000
0200
0000
0000
0300
0000
,
1000
0000
0001
0000
0010
0000
0100
0000
2000
0000
0000
3002
0000
0000
0013
0000
,
0210
0000
0000
2300
0000
0000
3001
0000
0101
0000
0000
0000
0100
0010
0100
0002
,
0000
0000
1003
0000
0100
0010
0000
0200
0000
0000
1300
0000
0001
0000
0100
0000
,
0001
0000
1000
0000
0010
0100
0000
0001
0000
1000
0100
0000
0010
0000
0100
1000
,
0001
0000
0100
0000
0010
1000
0000
0001
0000
0010
0100
0010
0001
0000
1000
0000
,
0010
0000
0100
0000
0001
1000
0000
0100
0000
0010
0001
0000
1000
0000
0010
0000
,
2000
0000
0000
0000
3020
0000
0000
0000
0230
0000
0000
0302
0000
0003
2002
0000
,
0000
0000
0000
0000
0000
0000
0000
3003
,
0000
0000
0001
0000
0100
0000
0010
0000
2000
0000
0000
3200
0000
0000
0000
0000
,
0310
0002
0000
0000
0203
0000
0310
1000
,
0002
0000
1003
0020
0000
0000
0130
0000
0001
1000
0000
0100
0020
0000
0031
0000
,
2002
0000
0000
0000
,
0000
0000
0000
0000
,
30M3
0000
0000
0000
,
0M00
0000
0000
0000
,
M000
0000
0000
0000
,
000M
0000
0000
0000
,
00M0
0000
0000
0000
,
0M00
0000
0000
0000
,
M000
0000
0000
0000
;

//---------------dance-single - Expert----------------
#NOTES:
     dance-single:
     Ace Of Hearts (2011):
     Challenge:
     11:
     0.855,0.080,0.486,0.553,0.956:
0000
0000
0000
0000
,
1101
0000
0000
0000
,
2000
3010
0100
0010
1000
0001
0010
0001
,
1000
0010
0100
0001
1000
0100
0010
0100
,
1000
0001
0100
0010
1000
0001
0010
0100
,
1000
0100
0010
0001
2000
3010
0100
0010
,
1000
0100
0010
0001
0010
0100
1000
0001
0100
0000
0100
0001
1000
0100
0010
0100
,
1000
0001
1000
0010
0100
0010
1000
0001
0010
0001
1000
0010
0100
0001
1000
0100
,
0010
0100
1000
0001
0100
0010
1000
0001
0010
0001
1000
0010
0100
0001
1000
0100
,
0010
0000
0000
0000
0100
0000
0000
0000
1000
0000
0001
0010
0001
0000
1000
0000
0010
0000
0100
0000
0001
0000
1000
0000
0100
0000
0010
0000
0100
0000
1000
0000
,
1002
0000
0103
0000
0020
0000
0130
0000
0101
0000
0001
2000
0000
3001
0010
0000
,
0210
0000
1300
0002
0000
1003
0100
0000
0110
0000
0010
0000
0001
2000
3000
1010
,
0000
0010
0100
0000
0001
2000
3000
1100
0000
0100
0010
0000
0100
0000
1000
0000
,
1002
0000
0103
0000
0220
0000
0330
0000
1010
1000
0000
0001
0010
0001
1000
0010
,
0110
0000
0100
0000
0001
0000
1000
0000
0100
0000
0010
0002
0000
1003
0010
0000
,
0210
0000
0300
0102
0000
0003
1001
0000
1100
0000
0100
0000
0010
0001
1000
0020
,
0000
0130
0001
0000
1000
0010
0000
0210
0000
0301
1000
0000
0100
0000
0010
0000
,
0012
0000
1003
0000
0010
0100
0001
0000
1000
0100
0000
0000
0010
0100
1000
0001
,
0100
0000
0110
0000
0100
0001
0000
1001
0000
1000
0100
0010
0002
0000
1003
0100
,
0010
0000
0110
0000
0010
0001
0000
0011
0000
0010
0100
1000
0001
1000
0020
0000
,
0130
0000
0101
0000
0001
1000
0000
1100
0000
0100
0010
0001
2000
0000
3010
0100
,
0001
0000
0011
0000
0010
0100
0000
1100
0000
1000
0001
0100
0010
0100
0001
1000
,
0100
0000
0110
0000
0010
0100
0000
1100
0000
1000
0001
0100
0020
0000
0130
0001
,
1000
0000
1100
0000
0100
0010
0000
0011
0000
0001
1000
0010
1000
0001
0010
0001
,
1000
0000
1010
0000
0010
0100
0000
0101
0000
0001
1000
0100
0020
0000
0130
1000
,
0001
0000
0100
0010
1000
0000
0001
0100
0010
1000
0001
1000
0010
0100
0001
1000
,
0200
0000
0310
0000
0001
0000
1000
0010
0100
0001
1000
0000
0001
0000
1000
0010
,
0100
0001
1000
0000
0100
0000
0010
0001
1000
0010
0100
0001
1000
0001
0010
0001
,
1000
0000
0010
0000
1000
0000
0001
0010
0100
1000
0001
0000
0100
0000
0010
0100
,
0001
1000
0100
0000
0010
0000
0100
1000
0001
0100
0010
1000
0001
0010
0100
1000
,
0002
0000
1003
0000
0010
0000
1000
0001
0010
0100
1000
0000
0001
0000
0100
0010
,
0100
0001
1000
0000
0100
0000
0010
0100
1000
0001
0100
0010
0100
0001
1000
0100
,
0010
0000
0100
0000
1000
0000
0001
0100
0010
1000
0001
0000
0010
0000
0001
1000
,
0010
0100
0001
1000
0100
0010
0100
1000
0001
0100
0010
0100
0001
1000
0100
0010
,
0100
0000
1000
0000
0001
0000
0100
0000
0001
1000
0100
0000
0010
0000
0001
0000
0010
0100
1000
0000
0001
0000
0010
0001
1000
0000
0010
0000
0100
0000
0001
0000
,
1000
0100
0010
0000
0100
0000
1000
0000
0001
0100
0010
0000
0100
0000
0001
0000
1000
0100
0010
0000
0001
0000
1000
0001
1000
0010
0100
0010
1000
0001
0010
0001
,
1000
0010
1000
0000
0001
0000
1000
0100
0010
0001
0010
0000
0100
0000
0010
0001
,
1000
0010
0100
0000
0001
0000
0100
0010
1000
0001
0010
0000
0001
0000
1000
0010
,
0100
0010
1000
0000
0001
0000
0010
0100
0010
0001
1000
0000
0010
0000
0110
0000
,
0000
0000
0101
0000
0100
0010
1000
0001
0010
0001
1000
0010
0100
0001
1000
0010
,
0210
0000
0301
0000
2000
0000
3100
0000
0120
0000
0031
2000
0000
3001
0100
0000
,
0120
0000
1030
0200
0000
0000
1300
0000
1001
0000
0000
0000
0001
0200
0300
0110
,
0000
0010
1000
0000
0001
0020
0030
0110
0000
0100
1000
0000
0100
0000
0010
0000
,
0012
0000
1003
0000
2020
0000
3030
0000
0110
0100
0000
0001
1000
0100
1000
0001
,
0101
0000
0100
0000
0020
0000
1030
0000
1200
0000
0310
0002
0000
1003
0010
0000
,
0210
0000
0301
2000
0000
0000
3100
0000
0110
0000
0010
0000
0001
1000
0100
0020
,
0000
0130
1000
0000
0001
0100
0000
0120
0000
1030
0001
0000
0010
0000
0100
0000
,
2100
0000
3001
0100
0010
1000
0001
0000
0100
0010
0000
0000
1000
0100
0010
0001
,
2001
0000
3010
0000
0200
0000
0000
0000
0302
0000
0000
1003
0000
0000
0100
0000
,
0010
0000
0100
2000
0000
0000
3001
0000
0101
0000
0000
0000
2020
0000
3030
1011
,
0000
0000
1000
0000
2200
0000
0000
0001
0000
3300
1000
0000
0001
0000
0100
0000
,
0220
0000
0000
0330
0202
0000
0000
0000
0010
1000
0000
1010
0000
0000
0303
0000
,
1002
0000
0103
0000
0010
0000
1000
0000
0200
0000
0000
0310
0000
0000
0001
0000
,
1000
0100
0010
0001
1000
0010
0100
0001
1000
0100
0010
0001
1000
0010
0100
0002
,
0000
1003
0010
0000
0100
0001
0000
0000
0010
0001
1000
0100
0010
0100
1000
0001
,
0100
0000
0010
0000
1000
0001
0000
0011
0000
0010
0100
1000
0002
0000
0103
0010
,
1000
0000
1100
0000
0100
0010
0000
0011
0000
0001
1000
0010
0100
0001
1000
0100
,
0010
0000
0110
0000
0100
1000
0000
1001
0000
0001
0100
0010
1000
0001
0010
0100
,
2200
0000
3000
0000
0020
0000
0300
0000
0032
0000
0000
0203
0000
0000
0020
0000
,
0000
0000
0000
0000
0000
0000
0000
0330
,
0000
0000
2000
0000
3001
0000
0100
0000
0120
0000
0000
2030
0000
0000
3200
0000
,
0310
0002
0000
0000
0203
0000
0310
1000
,
0001
0000
1000
0010
0100
0001
0100
0010
1000
0001
0010
0001
1000
0010
0100
0001
,
2002
0000
0000
0000
,
0000
0000
0000
0000
,
3013
0000
0000
0000
,
M000
0000
0000
0000
,
00M0
0000
0000
0000
,
0M00
0000
0000
0000
,
000M
0000
0000
0000
,
M000
0000
0000
0000
,
00M0
0000
0000
0000
;

//---------------dance-single - Medium----------------
#NOTES:
     dance-single:
     Ace Of Hearts (2011):
     Medium:
     7:
     0.381,0.000,0.007,0.702,0.179:
0000
0000
0000
0000
,
0000
0000
0000
0000
,
0002
1003
0020
0000
,
0230
0000
0000
0000
,
0302
1003
0200
0000
,
0320
0000
0000
0000
,
0032
0000
0000
0000
,
2003
0000
0000
0000
,
3020
1030
0002
0000
,
1003
0000
0010
0000
1000
0000
0000
0002
0000
0000
0000
0000
0003
0000
0000
0000
,
1000
0000
0010
0000
1000
0000
0000
0000
0002
0000
0000
0103
0000
0000
0001
0000
,
1000
0000
0000
0200
0000
0000
0310
0000
0001
0000
0000
0000
2000
0000
0000
3010
,
0000
0000
0000
0000
0200
0000
0000
0301
0000
0000
1000
0000
0001
0000
0000
0000
,
0020
0000
0000
0000
0230
0000
0000
0000
1300
0000
0000
1000
0000
0000
0000
0000
,
0001
0000
0100
0000
0001
0000
0000
0000
2000
0000
0000
3100
0000
0000
1000
0000
,
0001
0000
0000
0020
0000
0000
0130
0000
1000
0000
0000
0000
0002
0000
0000
0103
,
0000
0000
0001
0000
2000
0000
0000
3010
0000
0000
1000
0000
0001
0000
0000
0000
,
1000
0000
0000
0020
0000
0000
0000
0000
0000
0000
0000
0000
0000
0000
0030
0000
,
1000
0000
0001
0000
1000
0000
0000
0100
0000
0000
0010
0000
0001
0000
0000
0000
,
1000
0000
0100
0000
1000
0000
0000
0001
0000
0000
0010
0000
0100
0000
0000
0000
,
0010
0000
0001
0000
0010
0000
0000
0100
0000
0000
1000
0000
0001
0000
0000
0000
,
2000
0000
0000
0000
3200
0000
0000
0000
2300
0000
0000
3002
0000
0000
0023
0000
,
0000
0000
0000
0000
0000
0000
0000
0030
,
0000
0000
0001
0000
1000
0000
0000
0000
0010
0000
0000
0200
0000
0000
0000
0000
,
0000
0000
0000
0300
,
0001
0000
0000
0002
0000
0000
0000
0000
0000
0000
0000
0000
0003
0000
0000
0000
,
0000
0000
2000
0000
3020
0000
1030
0002
,
0000
1003
0200
0000
0300
0000
2000
0000
,
3002
0000
1003
0020
0000
0230
0000
0302
,
0000
0000
1003
0200
0000
0320
0000
0000
,
0030
0000
0002
0000
0023
0000
0130
2000
,
0000
3001
0200
0000
0300
0001
1000
0001
,
0000
0000
0010
0200
0000
0000
0310
0001
,
2000
0000
3001
0100
0000
0020
0000
0030
,
1000
0010
1000
0000
0001
0010
0001
0000
2000
0000
0000
0000
0000
0000
3000
0000
,
0010
0000
1000
0000
0010
0000
0000
0000
0100
0000
0001
0000
0100
0000
0000
0000
0020
0000
0000
0000
0030
0000
0000
0000
1000
0000
0000
0200
0000
0000
0310
0000
,
0002
0000
1003
0020
0000
1030
0002
0000
,
0000
0000
0003
1000
0100
1000
0001
0000
,
2000
0000
3001
0200
0000
0301
0000
2000
,
0000
3001
0001
0000
0010
0020
0030
0000
,
0001
0000
1000
0000
0010
0000
0000
0000
2000
0000
0000
3001
0000
0000
0010
0000
,
0001
0000
0000
0020
0000
0000
0130
0000
1000
0000
0000
0000
0002
0000
0000
0103
,
0000
0000
0001
0000
2000
0000
0000
3100
0000
0000
0010
0000
0001
0000
1000
0000
,
0020
0000
0000
0000
2030
0000
0000
0000
3001
0000
0000
0200
0000
0000
0300
0000
,
0001
0000
0100
0000
0001
0000
0000
0000
2000
0000
0000
3200
0000
0000
0310
0000
,
0001
0000
0000
2000
0000
0000
3001
0000
0100
0000
0000
0000
0001
0000
0000
0001
,
0000
0000
1000
0000
0100
0000
0000
0100
0000
0000
0010
0000
0001
0000
0000
0000
,
1000
0000
0000
0020
0000
0000
0000
0000
0000
0000
0000
0000
0030
0000
0000
0000
,
1000
0000
0010
0000
2000
0000
0000
0000
3002
0000
0000
0013
0000
0000
0001
0000
,
1000
0000
0000
0020
0000
0000
1030
0000
0001
0000
0000
0000
2000
0000
0000
3001
,
0000
0000
1000
0000
0020
0000
0000
0130
0000
0000
0001
0000
1000
0000
0100
0000
,
0020
0000
0000
0000
0032
0000
0000
0000
1003
0100
0000
2000
0000
0000
3000
0000
,
0001
0000
0100
0000
0001
0000
0000
0000
2000
0000
0000
3100
0000
0000
0010
0000
,
0001
0000
0000
2000
0000
0000
3001
0000
0100
0000
0000
0000
0010
0000
0000
0010
,
0000
0000
1000
0000
0001
0000
0000
0100
0000
0000
0001
0000
1000
0000
0100
0000
,
0010
0000
0000
0002
0000
0000
0000
0000
0000
0000
0000
0000
0000
0000
0000
0000
,
0003
0000
1000
0000
0010
0000
1000
0000
0002
0000
0000
0203
0000
0000
0000
0000
,
0000
0000
0000
0300
,
0002
0000
0000
0000
2003
0000
0000
0000
3200
0000
0000
0320
0000
0000
0002
0000
,
0000
0000
0000
0000
0000
0000
0000
0033
,
0000
0000
0001
0000
1000
0000
0010
0000
2000
0000
0000
3002
0000
0000
0000
0000
,
0023
0000
0000
0000
0230
0000
1300
0001
,
2000
0000
0000
3010
0000
0000
0020
0000
0000
0000
1030
0000
0010
0000
1000
0000
,
2002
0000
0000
0000
,
0000
0000
0000
0000
,
3003
0000
0000
0000
;

//---------------dance-single - Easy----------------
#NOTES:
     dance-single:
     Ace Of Hearts (2011):
     Easy:
     5:
     0.193,0.000,0.022,0.247,0.000:
0000
0000
0000
0000
,
0000
0000
0000
0000
,
2000
0000
0000
0000
,
3002
0000
0000
0000
,
0023
0000
0000
0000
,
0032
0000
0000
0000
,
2003
0000
0000
0000
,
3020
0000
0000
0000
,
0230
0000
0000
0000
,
0302
0000
0003
0000
,
1000
0010
1000
0000
,
0001
0010
0001
0000
,
1000
0000
1001
0000
,
0001
0100
0001
0001
,
1000
1000
1000
0000
,
0010
0010
0010
0000
,
0100
0000
0001
0000
,
2000
0000
0000
0000
,
3001
0100
0001
0000
,
1000
0010
1000
0000
,
0001
1000
0001
0000
,
0020
0000
0032
0000
2003
0000
0000
3020
,
0000
0000
0000
0000
0000
0000
0000
0030
,
0000
1000
0001
0200
,
0000
0000
0000
0300
,
0002
0000
0000
0003
,
0000
0000
1000
0000
1000
0000
0000
0020
,
0000
0030
0000
0000
,
1000
0001
0100
0000
,
0001
1000
0001
0000
,
0000
0000
1000
0010
,
1000
0000
0000
0000
,
0001
0000
1000
0000
,
0001
0010
0001
0000
,
1000
1000
0010
0010
0200
0000
0300
0000
,
0001
0001
1000
1000
0020
0030
0100
0100
,
0001
0000
0002
0000
,
0003
0000
1000
0100
,
1000
0000
0001
0000
,
0020
0000
0030
0000
,
0001
1000
0002
0003
,
1000
0010
1000
0001
,
0001
1000
1000
0000
,
0010
1000
1001
0000
,
0001
0100
0001
0000
,
1000
0100
1000
0000
,
0001
0000
1000
0000
,
0020
0000
0000
0030
,
1000
0001
0010
0001
,
1000
0010
1000
0010
,
0010
0100
0100
0001
,
2000
0000
3002
0000
1003
0100
1000
0000
,
0001
1000
0001
0000
,
1000
0010
1000
0000
,
0001
0000
0010
0000
,
0200
0000
0000
0000
,
0300
0010
0001
2000
,
0000
0000
0000
3000
,
0002
0000
0203
0000
0320
0000
0000
2000
,
0000
0000
0000
0000
0000
0000
0000
3030
,
0000
0010
1000
0002
,
0000
0000
0000
0003
,
0010
0100
1000
0001
,
2002
0000
0000
0000
,
0000
0000
0000
0000
,
3003
0000
0000
0000
;

//---------------dance-single - Novice----------------
#NOTES:
     dance-single:
     Ace Of Hearts (2011):
     Beginner:
     2:
     0.126,0.000,0.022,0.179,0.000:
0000
0000
0000
0000
,
0000
0000
0000
0000
,
0001
0000
0000
0000
,
0001
0000
0000
0000
,
1000
0000
0000
0000
,
1000
0000
0000
0000
,
0010
0000
0000
0000
,
0010
0000
0000
0000
,
0100
0000
0000
0000
,
0100
0000
0000
0000
,
0001
0000
0001
0000
,
0001
0000
0000
0000
,
1000
0000
1000
0000
,
2000
0000
3000
0000
,
0010
0000
0000
0000
,
0010
0000
0000
0000
,
0100
0000
0100
0000
,
0200
0000
0000
0000
,
0300
0000
0000
0000
,
0000
0000
0002
0000
,
0000
0000
0000
0003
,
0010
0000
0010
0000
,
0020
0000
0000
0000
,
0030
0000
0200
0000
,
0000
0000
0300
0000
,
2000
0000
0000
0000
,
3000
0000
0001
0000
,
0001
0000
0000
0000
,
0100
0000
0100
0000
,
0200
0000
0300
0000
,
0000
0000
0010
0000
,
0010
0000
0000
0000
,
1000
0000
1000
0000
,
2000
0000
3000
0000
,
0001
0001
0002
0003
,
0100
0100
0200
0300
,
0010
0000
0020
0000
,
0030
0000
1000
0000
,
1000
0000
1000
0000
,
2000
0000
3000
0000
,
0001
0000
0001
0000
,
0010
0010
0010
0000
,
0001
0000
0001
0000
,
1000
1000
1000
0000
,
0010
0000
0010
0000
,
0020
0000
0030
0000
,
1000
0000
1000
0000
,
2000
0000
3000
0000
,
0001
0000
0001
0000
,
1000
1000
1000
0010
,
0010
0100
0100
0000
,
0220
0330
1001
0000
,
1000
0000
1000
0000
,
0010
0000
0010
0000
,
1000
0000
1000
0000
,
0002
0000
0000
0000
,
0003
0000
2000
0000
,
0000
0000
3000
0000
,
0001
0001
0002
0000
,
2000
0000
0000
0000
0000
0000
0000
3003
,
0000
0000
2000
0000
,
0000
0000
3000
0000
,
0020
0000
1030
0001
,
2002
0000
0000
0000
,
0000
0000
0000
0000
,
3003
0000
0000
0000
;

//---------------dance-double - Hard----------------
#NOTES:
     dance-double:
     Ace Of Hearts (2011):
     Hard:
     9:
     0.498,0.105,0.120,0.964,0.299:
00000000
00000000
00000000
00000000
,
00000022
00000000
00000000
00000033
,
00000002
00000203
00000320
00020030
,
00002000
00030000
00003000
02000000
,
03200000
20300000
32000000
03020000
,
00002000
00030000
00003000
00000000
,
00002002
00003000
00000203
00000000
,
00000320
00000000
00000030
00020000
,
00032000
00203000
02300000
23000000
,
30010000
00000000
00100000
00000000
00001000
00010000
00000000
00000010
00000000
00001000
00000000
00000001
00000010
00000000
00000100
00000000
,
00001000
00000000
00000100
00000000
00000020
00000000
00000000
00000000
00000032
00000000
00000000
00002003
00000000
00000000
00003010
00000000
,
00020000
00000000
00000000
00032000
00000000
00000000
00103000
00000000
01000000
00000000
00000000
00000000
10000000
00000000
00000000
10200000
,
00000000
00000000
02300000
00000000
03001000
00000000
00000000
00021000
00000000
00000000
00030010
00000000
00001000
00000000
00000001
00000000
,
00000201
00000000
00000000
00000000
00000320
00000000
00000000
00000000
00010030
00001000
00000000
02000000
00000000
00000000
03000000
00000000
,
00100000
00000000
01000000
00000000
00020000
00000000
00000000
00000000
20030000
00000000
00000000
31000000
00000000
00000000
00100000
00000000
,
00020000
00000000
00000000
00030020
00000000
00000000
00000031
00000000
00001000
00000000
00000000
00000000
00000001
00000010
00000100
00002000
,
00000000
00000000
00003001
00000000
00000100
00000010
00000000
00020000
00000000
00000000
00031000
00000000
00100000
00000000
00001000
00000000
,
00010000
00000000
00000200
00020000
00000000
00000000
00000000
00000000
00000000
00000000
00000000
00000000
00030300
00000000
00000000
00000000
,
00000100
00000000
00000010
00000000
00000001
00001000
00000000
00000010
00000000
00001000
00000000
00000001
00000200
00000000
00000310
00000100
,
00000010
00000000
00001000
00000000
00000001
00000010
00000000
00000100
00000000
00010000
00000000
00001000
01000000
00000000
00200000
00000000
,
10300000
00000000
00010000
00000000
00100000
01000000
00000000
00100000
00000000
00001000
00000000
00010000
00000100
00000000
00000010
00000000
,
00000002
00000000
00000000
00000000
00002003
00000000
00000000
00000000
00003200
00000000
00000000
00010300
00000000
00000000
00022000
00000000
,
00000000
00000000
00000000
00000000
00000000
00000000
00000000
00033000
,
00000000
00000000
00010000
00000000
00001000
00000000
00000000
00000000
00020000
00000000
00000000
00000200
00000000
00000000
00000000
00000000
,
00000000
00000000
00000000
00030300
,
00020000
00000000
00030100
00000020
00000000
00000000
00000130
00000000
00010000
00001000
00000000
00001000
01000000
00000000
00010000
00000000
,
20010000
00000000
30200000
00000000
02300000
00000000
03010000
20000000
,
00000000
30100000
02000000
00000000
03000000
00000000
00020000
00000000
,
00230000
00000000
00301000
00020000
00000000
00030200
00000000
00000320
,
00000000
00000000
00000031
00002000
00000000
00000020
00000000
00000000
,
00003000
00000000
00000230
00000000
00000302
00000000
00001003
00000200
,
00000000
00010300
00002000
00000000
00003000
00100000
00010000
10000000
,
00000000
00000000
00000000
00000000
00100000
00000000
02000000
00000000
00000000
00000000
00000000
00000000
03100000
10000000
00100000
00000000
,
02000000
00000000
03010000
20000000
00000000
00200000
00000000
30000000
,
10300000
01000000
00100000
00010000
00001000
00000100
00000010
00000001
00002000
00000000
00000000
00000000
00000001
00000001
00000001
00000000
,
00000001
00000000
00000010
00000000
00000100
00000000
00001000
00000000
00013000
00000000
00100000
00000000
01000000
00000000
10000000
00000000
00020000
00000000
00000000
00000000
00000000
00000000
00000000
00000000
20000000
00000000
00000000
00200000
00030000
00000000
31000000
00000000
,
01020000
00300000
00000000
00000000
00000000
00000000
00000000
00000000
10030000
00000000
00000000
00000000
02000000
00000000
00000000
00000000
00000000
00000000
00000000
00000000
03100000
00000000
00000000
00000000
00020000
00000000
00000000
00000000
00000000
00000000
00000000
00000000
,
00000000
00000000
00030000
00100000
00010000
10000000
00100000
01000000
,
00002000
00000000
01003000
00100000
00000000
10000000
00000000
10020000
,
00000000
01030000
00001000
00000000
00100000
00200000
00000000
00300000
,
00001000
00000000
00010000
00000000
00000200
00000000
00000000
00000000
00000320
00000000
00000000
00000230
00000000
00000000
00010300
00000000
,
00002000
00000000
00000000
02003000
00000000
00000000
03010000
00000000
10000000
00000000
00000000
00000000
02000000
00000000
03000000
01100000
,
00000000
00000000
00100000
00000000
00002000
00000000
00003000
00011000
00000000
00000000
00010000
00000000
00000010
00000000
00001000
00000000
,
00000002
00000000
00000000
00000000
00000023
00000000
00000000
00000000
00000130
00001000
00000000
00020000
00000000
00000000
00030000
00000000
,
00000010
00000000
00000100
00000000
00002000
00000000
00000000
00000000
00003002
00000000
00000000
00000203
00000000
00000000
00000310
00000000
,
00020000
00000000
00000000
00032000
00000000
00000000
00103000
00000000
01000000
00000000
00000000
00000000
10000000
01000000
00100000
00020000
,
00000000
00000000
00130000
00000000
00001000
00010000
00000000
00000020
00000000
00000000
00001030
00000000
00000001
00000000
00000100
00000000
,
00000010
00000000
00020000
00000020
00000000
00000000
00000000
00000000
00000000
00000000
00000000
00000000
00030030
00000000
00000000
00000000
,
00010000
00000000
00001000
00000000
00200000
00000000
00000000
00000000
00302000
00000000
00000000
00013000
00000000
00000000
00000010
00000000
,
00002000
00000000
00003001
00000020
00000000
00000000
00000130
00000000
00001000
00000000
00000000
00000000
00000002
00000000
00000003
00000101
,
00000000
00000000
00000100
00000000
00000020
00000000
00000030
00010010
00000000
00000000
00010000
00000000
00001000
00000000
00100000
00000000
,
00002000
00000000
00000000
00000000
00023000
00000000
00000000
00000000
01030000
10000000
00000000
10010000
00000000
00000000
00000000
00000000
,
10000000
00000000
00100000
00000000
01000000
00000000
00010000
00000000
02000000
00000000
00000000
03200000
00000000
00000000
10300000
00000000
,
00020000
00000000
00000000
00230000
00000000
00000000
00301000
00000000
00010000
00000000
00000000
00000000
00000010
00001000
00000010
00000200
,
00000000
00000000
00000301
00000000
00001000
00000100
00000000
00000020
00000000
00000000
00000130
00000000
00010000
00000000
00001000
00000000
,
01000000
00000000
00002000
00020000
00000000
00000000
00000000
00000000
00000000
00000000
00000000
00000000
00000000
00000000
00000000
00000000
,
00033000
00000000
00001000
00000000
01000000
00000000
00000000
00000000
00020000
00000000
00000000
00200000
00000000
00000000
00000000
00000000
,
00000000
00000000
00000000
00330000
,
00200000
00000000
00000000
00000000
00302000
00000000
00000000
00000000
02003000
00000000
00000000
03001000
00000000
00000000
00202000
00000000
,
00000000
00000000
00000000
00000000
00000000
00000000
00000000
00303000
,
00000000
00000000
00001000
00000000
00010000
00000000
00000000
00000000
00002000
00000000
00000000
02000000
00003000
00000000
00000000
00000000
,
03010000
20000000
00000000
00000000
32000000
00000000
03000000
00000000
,
00100000
00001000
00000000
00001000
00010000
00000000
00010000
00000010
00000000
00000010
00001000
00000000
00001000
00000000
00000010
00000000
,
00020020
00000000
00000000
00000000
,
00000000
00000000
00000000
00000000
,
00031030
00000000
00000000
00000000
,
0000000M
00000000
00000000
00000000
,
0000M000
00000000
00000000
00000000
,
000000M0
00000000
00000000
00000000
,
M0000000
00000000
00000000
00000000
,
00M00000
00000000
00000000
00000000
;

//---------------dance-double - Expert----------------
#NOTES:
     dance-double:
     Ace Of Hearts (2011):
     Challenge:
     11:
     0.739,0.121,0.448,0.740,0.710:
00000000
00000000
00000000
00000000
,
00021200
00000000
00030000
00000000
,
00200300
00320000
20030000
30200000
,
02300000
00000000
03000000
00002000
,
00023000
00030200
00000320
00000032
,
00002003
00000000
00003000
00000000
,
00001010
00000000
00000010
00001000
00000010
00001000
00000001
00000010
00000100
00000000
00010000
00001000
00010000
00001000
00100000
00010000
,
10000000
00000000
00100000
01000000
00100000
01000000
00010000
10000000
01000000
00000000
00100000
00010000
00100000
00010000
00100000
00001000
,
00010000
00000000
00000100
00001000
00000100
00001000
00000001
00001000
00000010
00000000
00001000
00000001
00001000
00000001
00000100
00000010
,
00001000
00000000
00000100
00000000
00010000
00001000
00000000
00100000
00000000
00001000
00010000
00001000
00010000
00001000
00100000
00000000
,
01100000
00000000
01000000
00000000
20000000
00000000
00000000
30000000
10020000
00000000
00000000
02030000
00000000
00000000
03100000
00000000
,
20100000
00000000
00000000
30020000
00000000
00000000
01030000
00000000
01001000
00000000
00000000
00000000
00011000
00000000
00000000
00001002
,
00000000
00000000
00000103
00000000
00000010
00000000
00000000
00020010
00000000
00000000
00031000
00000000
00100000
00000000
00010000
00000000
,
20010000
00000000
30100000
00000000
02100000
00000000
00000000
03000000
01010000
00010000
00000000
10000000
01000000
00100000
01000000
10000000
,
00010000
00000000
01000000
00000000
00100000
00000000
01000000
00000000
00002000
00000000
00000000
00203000
00000000
00000000
00301000
00000000
,
00021000
00000000
00000000
00030020
00000000
00000000
00001030
00000000
00001100
00000000
00000100
00000000
00000010
00000001
00000010
00000210
,
00000000
00000000
00010300
00000000
00001000
00100000
00000000
02100000
00000000
00000000
13000000
00000000
00010000
00000000
01000000
00000000
,
01100000
00000000
00100000
20000000
00000000
00000000
00010000
00000000
30010000
00100000
00000000
00000000
00001000
00010000
00001000
00010000
,
00000100
00000000
00001000
00000000
00000001
00000100
00000000
00000110
00000000
00000010
00000100
00000001
00002000
00000000
00003100
00000010
,
00000001
00000000
00001001
00000000
00001000
00000010
00000000
00010010
00000000
00010000
00001000
00010000
00001000
00000000
00200000
00300000
,
01100000
00000000
01000000
00000000
10000000
00010000
00000000
01010000
00000000
01000000
00100000
01000000
00020000
00000000
00130000
00000000
,
00202000
00000000
00303000
00000000
00022000
00000000
00033000
00000000
00001200
00000000
00000000
00000310
00000000
00000000
00000022
00000000
,
00000000
00000000
00000000
00000000
00000000
00000000
00000000
00000033
,
00000000
00000000
00000010
00000000
00000100
00000000
00000000
00000000
00001200
00000000
00000000
00020000
00000000
00000000
00000000
00000000
,
00000000
00000000
00000000
00030300
,
00000100
00000000
00010000
00001000
00000000
00001000
00100000
00000000
00010000
10000000
00100000
10000000
00010000
00100000
00001000
00100000
,
00002000
00000000
00103000
00010000
00100000
00000000
00001000
00010000
00000100
00010000
00000100
00001000
00000001
00000000
00001000
00000010
,
00001000
00000000
00000001
00000010
00000001
00000000
00001000
00000010
00001000
00000010
00010000
00001000
00010000
00000000
00001000
00100000
,
00001000
00000000
00010000
00001000
00010000
00000000
00001000
00100000
00001000
00100000
00010000
10000000
00100000
00000000
10000000
00100000
,
10000000
00000000
00010000
00100000
00010000
00000000
00100000
00001000
00100000
00001000
00010000
00001000
00010000
00000100
00001000
00000100
,
00000020
00000000
00000000
00000000
00000130
00000000
00010000
00001000
00010000
00000000
00000100
00001000
00000100
00000010
00000100
00001000
,
00000001
00000000
00001000
00000010
00001000
00000000
00000010
00010000
00000010
00000000
00010000
00001000
00010000
00001000
00100000
00001000
,
00010000
00000000
10000000
00100000
10000000
00000000
00010000
00100000
00010000
00000000
10000000
00100000
01000000
00100000
10000000
00010000
,
00100000
00010000
10000000
00010000
00100000
00001000
00010000
00001000
00010000
00000100
00001000
00000100
00000010
00000100
00001000
00000001
,
00001000
00000000
00000100
00000000
00010000
00000000
01000000
00000000
10000000
00000000
00010000
00000000
01000000
00000000
00001000
00000000
00000200
00000000
00000000
00000000
00000000
00000000
00000010
00001000
00000001
00000000
00000010
00000000
00000320
00000000
00000100
00000000
,
00001030
00000000
00000001
00000000
00000100
00000000
00000010
00000000
00010000
00000000
00100000
00000000
10000000
00000000
00010000
00000000
02000000
00000000
00100000
00000000
03200000
00000000
10000000
00000000
00310000
00100000
00010000
10000000
00100000
01000000
00100000
10000000
,
00020000
00000000
00130000
00001000
00100000
00000000
00001000
00010000
00001000
00000100
00001000
00000100
00000010
00000000
00000001
00001000
,
00000001
00000000
00000100
00000001
00000100
00000000
00000010
00000100
00000010
00000000
00001000
00000000
00000100
00000000
00010000
00000000
,
00002000
00000000
00103000
00010000
10000000
00000000
00100000
00000000
01000000
00000000
00010000
00000000
00100000
00000000
00102000
00000000
,
00000000
00000000
00013000
00000000
00010010
00000000
00000000
00000000
00001010
00000000
00000101
00000000
00000001
00001000
00000100
00001000
,
00001001
00000000
00000001
00000000
00000200
00000000
00000000
00000000
00000320
00000000
00000000
00020030
00000000
00000000
00031000
00000000
,
00201000
00000000
00000000
02300000
00000000
00000000
13000000
00000000
10010000
00000000
00000000
00000000
00010000
00000000
00000000
02010000
,
00000000
03001000
00010000
00000000
00010000
00000010
00000000
00000210
00000000
00000301
00001000
00000000
00000100
00000000
00010000
00000000
,
00012000
00000000
01003000
00000000
01020000
00000000
00030000
00000000
10010000
10000000
00000000
00100000
01000000
00100000
10000000
00010000
,
00110000
00000000
00100000
00000000
02000000
00000000
00000000
00000000
23000000
00000000
00000000
30020000
00000000
00000000
01030000
00000000
,
01002000
00000000
00000000
00023000
00000000
00000000
00030010
00000000
00000110
00000000
00000000
00000000
00000100
00000001
00000100
00000020
,
00000000
00000000
00010030
00000000
00001000
00100000
00000000
02100000
00000000
00000000
13000000
00000000
00010000
00000000
01000000
00000000
,
00001000
00000000
00010000
00000100
00010000
00000000
00001000
00000000
00010000
00000010
00000000
00000010
00002000
00000000
00003010
00000000
,
00000110
00000000
00000100
00000000
00000002
00000000
00000000
00000000
00002003
00000000
00000000
00003200
00000000
00000000
00100300
00000000
,
00020000
00000000
10030000
00020000
00000000
00000000
00130000
00000000
00001000
00000000
00000000
00000000
00202000
00000000
00000000
00010000
,
00303000
00000000
00100000
00000000
00200200
00000000
00000000
00001000
00000000
00300300
00100000
00000000
00000100
00000000
00010000
00000000
,
00012000
00000000
00000000
00000000
02000000
00000000
00000000
00000000
00010000
00100000
00000000
10000000
00000000
03003000
00000000
00000000
,
01000000
00000000
00010000
00000000
10000000
00000000
01000000
00000000
00200000
00000000
00000000
02300000
00000000
00000000
13000000
00000000
,
00010000
00100000
00010000
00100000
01000000
10000000
01000000
10000000
00010000
01000000
00010000
01000000
00010000
10000000
00010000
02000000
,
00000000
00000000
03001000
00000000
00010000
00001000
00000000
00201000
00000000
00000000
00301000
00000000
00010000
00000000
00000010
00000000
,
00001000
00000000
00000001
00000000
00001000
00000010
00000000
00010010
00000000
00010000
00001000
00010000
00002000
00000000
01003000
00100000
,
01000000
00000000
00010000
00000000
10000000
01000000
00000000
01100000
00000000
00100000
00010000
00100000
02000000
00000000
13000000
00000000
,
10010000
00000000
00010000
00000000
01000000
00001000
00000000
00011000
00000000
00010000
00000100
00001000
00000200
00000000
00000310
00000000
,
00000022
00000000
00000033
00000000
00002002
00000000
00003003
00000000
00001020
00000000
00000000
00100030
00000000
00000000
00200020
00000000
,
00000000
00000000
00000000
00000000
00000000
00000000
00000000
00300030
,
00000000
00000000
00100000
00000000
00001000
00000000
00000000
00000000
02001000
00000000
00000000
00000200
00000000
00000000
03000000
00000000
,
00010300
00002000
00000000
00000000
02003000
00000000
03100000
00000000
,
10100000
00000000
00100000
01000000
00010000
00000000
00110000
00000000
00100000
00001000
00000000
00001000
00020000
00000000
00030001
00000000
,
00000202
00000000
00000000
00000000
,
00000000
00000000
00000000
00000000
,
01000303
00000000
00000000
00000000
;

//---------------dance-single - Omake----------------
#NOTES:
     dance-single:
     Omake:
     Edit:
     10:
     -1.000,-1.000,-1.000,-1.000,-1.000:
// measure 1
0000
0000
0000
0000
,  // measure 2
0202
0000
0303
0000
,  // measure 3
0001
1000
0100
1000
0001
0100
0010
0100
,  // measure 4
0001
1000
0100
0010
0100
1000
0001
0100
,  // measure 5
0010
0100
0001
1000
0100
0010
0001
1000
,  // measure 6
0010
0100
0001
1000
0010
1000
0001
1000
,  // measure 7
1010
0000
0010
0100
0010
0100
0010
0100
0001
0000
1000
0100
1000
0100
1000
0100
,  // measure 8
0010
0000
0001
1000
0001
1000
0001
1000
0010
0000
0100
0001
0100
0001
0100
0001
,  // measure 9
1000
0000
0001
0010
0001
0010
0001
0010
0100
0000
1000
0100
1000
0100
1000
0100
,  // measure 10
0010
0000
0100
0000
1000
0001
0000
0100
0000
0010
1000
0010
1000
0001
0010
0100
,  // measure 11
1000
0000
0001
0000
0200
0000
0000
0000
0320
0000
0000
2030
0000
0000
3001
0000
,  // measure 12
0200
0000
0000
0320
0000
0000
1030
0000
0001
0000
0000
0000
0011
0000
0000
2200
,  // measure 13
0000
3300
1000
0000
2002
0000
3003
0202
0000
0303
0100
0000
0010
0000
1000
0000
,  // measure 14
2002
0000
3003
0000
0202
0000
0303
0000
0200
0020
0000
1000
0000
0000
0330
0000
,  // measure 15
0101
0000
0001
0000
2000
0000
0000
0000
3200
0000
0000
0320
0000
0000
0031
0000
,  // measure 16
2000
0000
0000
3020
0000
0000
0130
0000
0101
0000
0000
0000
0001
1000
0100
0020
,  // measure 17
0000
0130
1000
0000
0001
0100
0000
0020
0000
1030
0001
0000
0100
0000
0010
0000
,  // measure 18
2010
0000
3001
0200
0000
0000
0010
0000
0301
1000
0000
1000
0010
1000
0001
0010
,  // measure 19
0100
0000
0010
0000
0001
1000
0000
0010
0000
1000
0010
1000
0002
0000
0013
0100
,  // measure 20
1000
0000
0001
0000
0100
0010
0000
1000
0000
0010
0100
0010
2000
0000
3002
0000
,  // measure 21
0013
0000
0100
0000
0010
0001
0000
1000
0000
0010
1000
0001
0200
0000
0300
0000
,  // measure 22
0220
0000
0330
0000
2020
0000
3030
0000
0210
0000
0000
0002
0000
0000
0020
0000
,  // measure 23
0000
0000
0000
0000
0000
0000
0000
0333
,  // measure 24
0000
0000
0001
0000
2000
0000
3000
0000
1020
0000
0000
0200
0030
0000
0301
0000
,  // measure 25
1000
0000
0100
0000
0010
0100
0000
1000
0000
0001
0100
0010
2000
0000
3001
0100
,  // measure 26
0020
0000
0130
0001
0000
0001
1000
0000
1000
0100
0010
0000
0001
0010
0001
1000
,  // measure 27
0002
0000
2003
0000
3200
0000
0310
0002
,  // measure 28
0000
1003
0200
0000
0300
0000
0020
0000
,  // measure 29
0230
0000
1300
0002
0000
0203
0000
0320
,  // measure 30
0000
0000
0000
0000
0130
0000
0001
1000
0001
0010
0001
1000
0010
0000
0100
0001
,  // measure 31
2000
0000
3100
0000
0020
0000
0031
2000
,  // measure 32
0000
3001
0200
0000
0300
0010
0100
0004
,  // measure 33
0000
0000
0003
0000
1000
0000
0200
0000
0000
0000
0000
0000
0310
0100
1000
0000
,  // measure 34
0001
0010
0001
0010
0100
1000
0100
1000
0001
0100
0001
0100
0010
1000
0010
1000
,  // measure 35
0001
0000
0100
0000
1000
0000
0100
0000
0001
0000
0010
0000
1000
0000
0010
0000
0002
0000
1000
0003
1000
0000
0010
0100
0001
0000
1000
0000
0100
0000
0010
0000
,  // measure 36
0001
0000
0010
0000
1000
0000
0010
0000
0001
0000
0100
0000
1000
0000
0100
0000
0002
0000
1000
0003
1000
0000
0100
0010
0100
1000
0100
1000
0001
0100
0001
0100
,  // measure 37
0020
1030
0001
0020
0000
0130
2000
0001
,  // measure 38
0000
3001
0000
0001
0100
0010
1000
0001
,  // measure 39
0020
0130
1000
0001
0000
0100
0010
2010
,  // measure 40
0000
3001
0001
0000
0101
0102
0000
0003
,  // measure 41
1001
0000
1000
0000
0200
0000
0000
0000
0320
0000
0000
0230
0000
0000
1300
0000
,  // measure 42
1002
0000
0000
0100
0000
0000
1003
0000
1100
0000
0000
0000
0110
0000
0000
0022
,  // measure 43
0000
0033
0001
0000
2002
0000
3003
2200
0000
3300
0100
0000
0010
0000
0100
0000
,  // measure 44
2200
0000
3300
0000
0021
0000
0000
0000
0230
2000
0000
0001
0000
0000
3300
0000
,  // measure 45
1000
0000
0001
0000
0200
0000
0000
0000
0320
0000
0000
2030
0000
0000
3001
0000
,  // measure 46
0201
0000
0000
0010
0000
0000
0301
0000
1001
0000
0000
0000
1000
0100
0010
0002
,  // measure 47
0000
1003
0010
0000
0010
0100
0000
0102
0000
1003
0100
0000
0010
0000
0100
0000
,  // measure 48
1000
0000
0001
0100
0000
0100
0010
0000
1000
0001
0000
0000
0010
0001
0010
0001
,  // measure 49
1000
0000
0100
0000
0020
0000
0000
0000
0230
0000
0000
2300
0000
0000
3001
0000
,  // measure 50
0200
0000
0301
2000
0000
0000
3001
0000
0101
0000
0000
0000
0220
0330
0000
2120
,  // measure 51
0000
3000
1030
0000
2002
3003
0000
0122
0000
0003
0130
0000
1000
0000
0001
0000
,  // measure 52
2001
0000
0000
0000
0200
0000
0000
0000
0010
0001
0000
0011
0000
0000
3300
0000
,  // measure 53
1001
0000
0001
0000
0200
0000
0000
0000
0320
0000
0000
2030
0000
0000
3001
0000
,  // measure 54
0020
0000
0000
0032
0000
0000
1003
0000
0100
0000
0000
0000
1000
0001
1000
0020
,  // measure 55
0000
1030
0001
0000
0001
0010
0000
0210
0000
1300
0001
0000
0100
0000
0010
0000
,  // measure 56
1000
0000
0001
0000
0010
0100
0000
1000
0000
0001
0100
0000
0020
0000
1030
0001
,  // measure 57
0100
0000
0010
0000
0100
0001
0000
1000
0000
0001
0010
0001
2000
0000
3020
0000
,  // measure 58
0130
0000
0001
0000
1000
0100
0000
0010
0000
0100
1000
0001
0200
0000
0300
0000
,  // measure 59
0102
0000
0003
0000
2001
0000
3000
0000
2000
0000
0000
0200
0000
0000
0020
0000
,  // measure 60
0000
0000
0000
0000
0000
0000
0000
3330
,  // measure 61
0000
0000
1000
0000
0002
0000
0003
0000
0201
0000
0000
0320
0000
0000
1030
0000
,  // measure 62
0001
0020
0000
0000
0230
0000
0300
1000
,  // measure 63
1001
0000
0001
0100
0000
0001
1000
0100
0010
0100
0000
1000
0100
0010
0001
2000
,  // measure 64
0020
0000
0000
0000
,  // measure 65
0000
0000
0000
0000
,  // measure 66
0001
0000
3030
0000
1000
0001
0100
0000
,  // measure 67
0002
0000
0003
0000
1000
0100
0010
0000
,  // measure 68
0200
1300
0001
0100
0010
1000
0001
0000
,  // measure 69
0020
0000
0130
0000
1000
0001
1000
0000
,  // measure 70
2002
0000
3003
0000
;
