#TITLE:Omoiyoshino;
#SUBTITLE:;
#ARTIST:Loos;
#TITLETRANSLIT:;
#SUBTITLETRANSLIT:;
#ARTISTTRANSLIT:;
#GENRE:;
#CREDIT:Ace Of Hearts;
#BANNER:Omoiyoshino - bn.png;
#BACKGROUND:Omoiyoshino - bg.png;
#LYRICSPATH:;
#CDTITLE:Ace Of Hearts.png;
#MUSIC:Omoiyoshino.ogg;
#OFFSET:0.720;
#SAMPLESTART:46.400;
#SAMPLELENGTH:12.000;
#SELECTABLE:YES;
#BPMS:0.000=168.000,52.000=336.000,53.500=84.000,54.500=168.000,55.500=336.000,56.500=84.000,57.500=168.000,90.000=336.000,91.500=168.000,92.000=336.000,96.500=168.000,97.000=336.000,98.000=168.000,152.000=336.000,154.000=168.000,161.000=84.000,191.000=168.000,191.500=336.000,193.500=168.000,194.000=336.000,195.000=168.000,223.000=336.000,225.000=168.000,227.000=84.000,241.000=168.000,245.000=164.000,246.500=336.000,248.000=168.000,312.000=84.000;
#DISPLAYBPM:84.000:168.000;
#STOPS:52.000=0.268
,55.500=0.178
,90.000=0.268
,92.000=0.268
,93.500=0.178
,94.500=0.178
,95.500=0.188
,97.000=0.178
,152.000=0.178
,153.000=0.178
,158.000=0.357
,191.500=0.178
,192.500=0.178
,194.000=0.178
,223.000=0.089
,223.500=0.089
,224.000=0.089
,224.500=0.089
,245.000=1.786
,246.500=0.268
;
#BGCHANGES:1.958=Omoiyoshino Video.avi=1.000=0=0=1=====,
99999=-nosongbg-=1.000=0=0=0 // don't automatically add -songbackground-
;
#FGCHANGES:;
#KEYSOUNDS:;

//---------------dance-single - Hard----------------
#NOTES:
     dance-single:
     Ace Of Hearts (2011):
     Hard:
     9:
     0.588,0.232,0.051,0.684,0.215: // measure 1
0000
0000
0000
0000
,  // measure 2
0001
0100
0001
1000
0010
1000
0001
1000
,  // measure 3
0100
0010
0001
0010
0100
1000
0001
0100
,  // measure 4
0010
1000
0001
0010
,  // measure 5
0100
0000
0000
0000
0020
0000
0031
2000
,  // measure 6
0000
0000
0000
0000
3002
0000
0103
0020
,  // measure 7
0000
0000
0030
0000
2000
0000
3001
0020
,  // measure 8
0000
0000
0000
0000
0032
0000
1003
0200
,  // measure 9
0000
0000
0000
0000
0320
0000
0130
2000
,  // measure 10
0000
0000
0000
0000
3002
0000
0103
0020
,  // measure 11
0000
0000
0030
0000
2000
0000
3001
0200
,  // measure 12
0000
0000
0000
0301
2000
0000
3100
0020
,  // measure 13
0000
0000
0000
0030
,  // measure 14
1001
0000
0000
0202
0000
0303
0001
1000
,  // measure 15
0000
2200
0000
3300
1000
0001
0100
0001
,  // measure 16
1000
0010
1000
0001
0010
0100
1000
0001
,  // measure 17
0100
0000
0010
1000
0010
0000
1000
0000
0002
0000
0000
0000
0000
0000
0000
0000
,  // measure 18
0000
0000
0003
0000
2000
0000
3010
0200
,  // measure 19
0000
0301
0020
0000
0430
0000
0000
0000
,  // measure 20
0000
0000
0300
0000
2000
0000
3001
0200
,  // measure 21
0000
0310
1000
0001
0020
0000
0000
0200
,  // measure 22
0000
0000
0000
0000
0030
0000
0300
2000
,  // measure 23
0000
3001
0100
0010
0100
0000
0000
0001
,  // measure 24
1000
0000
0000
0010
0000
1000
0000
0001
,  // measure 25
0000
1000
1000
0000
0004
0000
0000
0000
,  // measure 26
0000
0000
0003
0000
2000
0000
3010
0200
,  // measure 27
0000
0301
1000
0010
0200
0000
0000
0000
,  // measure 28
0300
0000
0002
0000
1003
0010
0000
0200
,  // measure 29
0000
0310
1000
0400
0000
0000
0000
0000
,  // measure 30
0300
0000
0020
0000
0031
1000
0000
0020
,  // measure 31
0000
1030
0001
0100
0010
1000
0001
0000
,  // measure 32
0100
0000
0010
0000
1000
0000
0001
0010
,  // measure 33
0001
0000
1000
0010
1000
0000
0001
0000
2000
0000
0000
0000
3010
0000
0000
0000
,  // measure 34
0204
0000
0003
0320
0000
1030
0100
1000
,  // measure 35
0002
0000
1003
0010
0000
0000
1000
0000
,  // measure 36
2400
0000
0300
3001
0000
0100
0010
1000
,  // measure 37
0002
0203
0300
0010
,  // measure 38
2040
0000
0030
3001
0000
0010
0100
1000
,  // measure 39
0001
0000
1000
0000
0200
0000
0310
0001
,  // measure 40
1000
0010
0100
0001
1000
0000
0000
0100
,  // measure 41
0100
0000
0100
0000
1000
0100
0010
0001
2000
0000
3001
0010
0100
1000
0002
0000
,  // measure 42
2003
0000
3001
0010
0001
1000
0001
0010
0100
1000
0100
0010
0001
1000
0010
0100
,  // measure 43
0004
0000
0003
0000
1000
0010
0100
0001
4000
0000
3001
0010
0001
1000
0010
0000
,  // measure 44
0200
0000
0310
1000
0002
0000
0013
0100
1000
0001
0100
0010
0100
0001
1000
0001
,  // measure 45
0400
0000
0300
0000
0010
1000
0001
0010
0400
0000
0310
0001
1000
0001
0040
0000
,  // measure 46
0032
0000
1003
0010
0200
0000
0310
1000
0001
0010
0100
0010
0001
1000
0001
0100
,  // measure 47
0020
0000
0000
0000
0030
0000
0000
0000
4000
0004
0000
0000
0000
0000
0000
0000
0000
0000
0000
0000
0000
0000
0000
0000
0000
0000
0000
0000
0000
0000
0000
0000
,  // measure 48
0000
0000
0000
0000
0000
3003
0001
0100
,  // measure 49
0000
0010
0000
1000
1000
0000
0002
0000
,  // measure 50
0013
0100
0000
0010
0001
0100
0001
1000
,  // measure 51
0010
0100
0002
0000
1003
0100
0020
0000
,  // measure 52
0130
1000
0000
0001
0100
0010
1000
0001
,  // measure 53
0010
0000
0100
0000
1000
0000
0001
0100
0001
0000
1000
0000
0200
0000
0000
0000
,  // measure 54
0310
0001
0000
0010
0100
1000
0001
1000
,  // measure 55
0010
0100
0002
0000
0103
0010
2000
0000
,  // measure 56
3001
0010
0000
0001
1000
0010
0100
0001
,  // measure 57
1000
0000
0001
0000
0200
0000
0000
0000
0010
0000
0000
0000
0302
0000
0003
1000
,  // measure 58
0200
0000
0310
0100
2000
0000
3001
0100
0010
1000
0010
0100
0002
0000
2003
0000
,  // measure 59
3200
0000
0320
0000
0130
1000
0001
0100
0004
0000
0003
0000
0020
0000
0000
0130
,  // measure 60
2000
0000
0000
3001
0200
0000
0310
1000
0002
0000
1003
0100
0020
0000
0000
0000
,  // measure 61
0000
0000
0030
0000
0011
0000
0001
0000
1000
0000
0010
0000
0400
0004
0000
0000
,  // measure 62
0000
0000
0303
0000
2000
3000
0000
0000
,  // measure 63
0001
0100
0010
1000
0002
0000
0013
0100
,  // measure 64
0010
0001
2000
0000
3020
0000
0130
0001
,  // measure 65
2000
0000
3010
0100
0001
1000
0100
0010
,  // measure 66
0100
0000
1000
0000
0001
0000
0100
0000
0010
0000
1000
0001
1000
0000
0100
0000
,  // measure 67
0010
0001
1000
0010
0200
0000
0301
1000
,  // measure 68
0100
0010
0002
0000
0203
0000
0310
0100
,  // measure 69
0002
0000
0103
0010
2000
0000
3100
0010
,  // measure 70
0001
0000
0100
0000
0010
0000
1000
0000
0001
0000
0100
0010
0100
0000
0001
0000
,  // measure 71
1000
0100
0010
0100
2000
0000
3001
0100
,  // measure 72
0010
1000
0002
0000
0023
0000
0031
1000
,  // measure 73
0020
0000
0130
0001
1000
0001
0100
0001
,  // measure 74
0010
0100
1000
0001
0200
0000
0300
0000
,  // measure 75
0020
0000
0000
0000
0000
0000
1030
0001
,  // measure 76
0200
0320
2030
3002
,  // measure 77
0013
0000
0100
1000
0100
0000
0010
0000
0001
0000
1000
0000
0010
0000
1000
0000
,  // measure 78
0001
0000
0010
0001
0010
0000
0100
0000
1000
0000
0001
0100
0001
0000
1000
0000
,  // measure 79
0010
0100
0001
1000
0100
0010
0100
1000
0001
0100
0001
1000
0020
0000
0000
0000
,  // measure 80
0030
0000
0000
0000
0000
0000
0100
0200
0000
0000
0000
0000
0000
0000
0000
0000
0000
0000
0300
0000
0000
0000
0000
0000
;

//---------------dance-single - Expert----------------
#NOTES:
     dance-single:
     Ace Of Hearts (2011):
     Challenge:
     11:
     0.965,0.232,0.466,0.582,0.815: // measure 1
0000
0000
0000
0000
,  // measure 2
0001
0010
0100
1000
0001
0100
0010
1000
,  // measure 3
0001
0010
0001
0100
0010
1000
0001
0100
,  // measure 4
0110
1010
0101
0011
,  // measure 5
1100
0000
0000
0000
2000
0000
3001
0100
,  // measure 6
0020
0000
1030
0001
0010
0000
0001
0000
1000
0000
0010
1000
0001
0000
0010
0000
,  // measure 7
0200
0000
1300
0001
0100
0000
0010
0000
1000
0000
0001
0010
0100
0000
1000
0000
,  // measure 8
0002
0000
0013
0001
1000
0000
0010
0000
0100
0000
0001
0100
0010
0000
1000
0000
,  // measure 9
0002
0000
0013
0100
2000
0000
0002
0000
0010
0000
0000
0000
3003
0000
0000
0000
,  // measure 10
0011
0000
0010
0100
1000
0000
0001
0000
0100
0000
0010
1000
0001
0000
0100
0000
,  // measure 11
0010
0000
1000
0001
0010
0000
0100
0000
0010
0000
0001
1000
0010
0000
0100
0000
,  // measure 12
0010
0000
1000
0001
0010
0000
0100
0000
0010
0000
0001
1000
0010
0000
0100
0000
,  // measure 13
0010
0000
1000
0001
0100
0000
0001
0000
1000
0000
0100
0010
0001
0000
1000
0000
,  // measure 14
1010
0000
0000
0000
0000
0000
0020
0000
0100
0130
0000
0000
0102
0000
1003
0000
,  // measure 15
0000
0000
0200
0000
0010
0310
0000
0000
0001
0000
0100
0000
0010
0000
1000
0000
,  // measure 16
0001
0010
0100
0010
0001
1000
0010
0100
,  // measure 17
0001
0000
0010
0100
1000
0000
0001
0000
0201
0000
0310
1000
0001
0000
0010
0000
,  // measure 18
0001
0000
1000
0010
0100
0000
0001
0000
2100
0000
3001
0100
0010
0000
1000
0000
,  // measure 19
0001
0000
1000
0010
0100
0000
0001
0000
0021
0000
0130
1000
0001
0000
0100
0000
,  // measure 20
0010
0000
1000
0001
0010
0000
0001
0000
2001
0000
3010
0100
0001
0000
1000
0000
,  // measure 21
0100
0000
0010
0100
1000
0000
0001
0000
0021
0000
0130
1000
0001
0000
0100
0000
,  // measure 22
0001
0000
0100
0001
1000
0000
0001
0000
0010
0000
0100
1000
0001
0000
0100
0000
,  // measure 23
0010
0000
0100
0001
1000
0000
0100
0000
0110
0000
0000
0000
0000
0000
0001
0000
,  // measure 24
1001
0000
0000
1000
0000
1010
0000
0202
,  // measure 25
0000
0000
1000
0000
1000
0000
0303
0000
0021
0000
0130
1000
0001
0000
0100
0000
,  // measure 26
0010
0000
1000
0001
0100
0000
0010
0000
2010
0000
3001
0010
0100
0000
0010
0000
,  // measure 27
0001
0000
1000
0010
0100
0000
0001
0000
2001
0000
3100
0010
0001
0000
1000
0000
,  // measure 28
0010
0000
0100
0001
1000
0000
0100
0000
0120
0000
0031
1000
0010
0000
0100
0000
,  // measure 29
0001
0000
0100
0010
1000
0000
0001
0000
0010
0000
0001
1000
0100
0000
0010
0000
,  // measure 30
0100
0000
1000
0001
0100
0000
0010
0000
2010
0000
3001
0100
0010
0000
1000
0000
,  // measure 31
0100
0000
0010
0100
1000
0000
0001
0010
0100
0000
0010
0000
0012
0000
0000
0000
,  // measure 32
1003
0010
0210
0000
0301
1000
1200
0310
,  // measure 33
0001
0000
1000
0010
0100
0010
1000
0000
0002
0000
0013
0100
1000
0000
0001
0000
,  // measure 34
0201
0000
0310
1000
0001
0000
0021
0000
0000
0000
0130
1000
0001
0000
0100
0001
,  // measure 35
1000
0000
1100
0000
0110
0000
0010
0000
0012
0000
1003
0010
0200
0000
0301
0000
,  // measure 36
2000
0000
0100
0000
3100
0000
0020
0000
0000
0000
0130
1000
0001
0000
0100
0010
,  // measure 37
1000
0000
1001
0000
0101
0000
0100
0000
0020
0000
1030
0001
0010
0000
0100
0000
,  // measure 38
2000
0000
0001
0000
3001
0000
0200
0000
0000
0000
0310
1000
0001
0000
0010
0000
,  // measure 39
0110
0000
0000
0000
1100
0000
0000
0000
0021
0000
0130
1000
0001
0000
1000
0010
,  // measure 40
0100
0000
0010
1000
0001
0000
0100
0000
1001
0000
0000
0000
0000
0000
1000
0010
,  // measure 41
1000
0000
0001
0000
0010
0100
1000
0001
0200
0000
0310
1000
0001
0010
0200
0000
,  // measure 42
0320
0000
0031
1000
0010
0100
0001
1000
0010
0100
0010
1000
0001
0010
0100
1000
,  // measure 43
0004
0000
0003
0000
0010
0001
1000
0010
0400
0000
0310
1000
0001
0010
0100
0000
,  // measure 44
0020
0000
0031
1000
0200
0000
1300
0001
0010
0001
0100
0010
1000
0100
0010
0001
,  // measure 45
0400
0000
0000
0000
0300
0000
0000
0000
0100
0000
0001
0000
1000
0000
0100
0000
0010
0000
0100
0000
1000
0000
0001
0010
0001
0000
1000
0000
0100
0000
0010
0000
,  // measure 46
0001
0000
1000
0000
0010
0000
1000
0100
1000
0000
0001
0000
0010
0000
0100
0000
1000
0000
0100
0000
1000
0000
0001
0010
0001
0000
1000
0000
0100
0000
1000
0000
,  // measure 47
0001
0000
0100
0000
0001
0000
1000
0100
1000
0001
1000
0001
0010
0001
0010
0100
1000
0100
0010
0001
0010
0100
1000
0100
0010
0001
0010
0001
0010
0100
1000
0100
,  // measure 48
0010
0000
0000
0000
0000
0000
0001
0000
0000
0000
0000
0000
0010
0000
0000
0000
0000
0000
0100
0000
0000
0000
0000
0000
1000
0000
0000
0000
0000
0000
0100
0000
0000
0000
0000
0000
1000
0000
0000
0000
0000
0000
0100
0000
0000
0000
0000
0000
0010
0000
0000
0000
0001
0000
0000
0000
0010
0000
0000
0000
0001
0000
0000
0000
0000
0000
1000
0000
0000
0000
0000
0000
0010
0000
0000
0000
0000
0000
1000
0000
0000
0000
0000
0000
0001
0000
0000
0000
0000
0000
0010
0000
0000
0000
0000
0000
0100
0000
0000
0000
1000
0000
0000
0000
0100
0000
0000
0000
1000
0000
0000
0000
0000
0000
0001
0000
0000
0000
0000
0000
1000
0000
0000
0000
0000
0000
0001
0000
0000
0000
0000
0000
0100
0000
0000
0000
0000
0000
0010
0000
0000
0000
0000
0000
1010
0000
0000
0000
0000
0000
0000
0000
0000
0000
0000
0000
0000
0000
0000
0000
0000
0000
0000
0000
0000
0000
0000
0000
0101
0000
0000
0000
0000
0000
0000
0000
0000
0000
0000
0000
0000
0000
0000
0000
0000
0000
0000
0000
0000
0000
0000
0000
,  // measure 49
0000
2200
0000
0001
0001
3300
1002
0000
,  // measure 50
0013
0000
1100
0000
0000
0000
1000
0000
0001
0000
0100
0000
0110
0000
0010
0100
,  // measure 51
0001
0000
1000
0000
0100
0000
0010
0100
1000
0000
0001
0000
0200
0000
0000
0000
,  // measure 52
0310
1001
0000
1000
0100
0010
0210
1300
,  // measure 53
0001
0000
0100
0000
0120
0000
1030
0001
0010
0000
0100
0000
2100
0000
0000
0000
,  // measure 54
3010
0101
0000
0001
0010
0001
0201
0310
,  // measure 55
1000
0001
0020
0000
0031
1000
1020
0000
,  // measure 56
0130
0000
1001
0000
0000
0000
0001
1000
0100
0000
0010
0000
0210
0000
1300
0000
,  // measure 57
0001
0000
0000
0000
0010
0000
0000
0000
0210
0000
0000
0000
0000
0000
0000
0000
1000
0000
0000
0000
0000
0000
0000
0000
0310
0000
0001
0010
0001
0000
1000
0000
,  // measure 58
0010
0000
1000
0100
1000
0000
0001
0000
0010
0000
0001
0000
1000
0000
0010
0000
0100
0000
0001
0100
0001
0000
1000
0000
0001
0000
0100
0010
0100
0000
0001
0000
,  // measure 59
1000
0000
0010
1000
0010
0000
0100
0000
0001
0000
1000
0000
0010
0000
0100
0000
0001
0000
1000
0010
1000
0000
0001
0000
0010
0000
0001
0010
0100
0000
1000
0000
,  // measure 60
0001
0000
1000
0100
0010
0000
0001
0000
1000
0000
0010
0100
0001
0000
0100
0000
0010
0000
1000
0001
0010
0000
0100
0000
1000
0000
0001
0100
0010
0000
1000
0000
,  // measure 61
0001
0000
0010
0001
1000
0000
0002
0000
2000
0000
0000
0000
0000
0000
0000
0000
0000
0000
0000
0000
0000
0000
0000
0000
0040
0000
0000
0000
0000
0000
0000
0000
,  // measure 62
0000
0000
3033
0000
0220
0330
0000
0000
,  // measure 63
2010
0000
3001
0100
0010
0000
1000
0000
0001
0000
0010
0001
1000
0000
0010
0000
,  // measure 64
1000
0000
0001
0100
0020
0000
0000
0000
2030
0000
3001
0010
0100
0000
0010
0000
,  // measure 65
0001
0000
1000
0010
0200
0000
0301
0000
1000
0000
0100
1000
0001
0000
0100
0000
,  // measure 66
0010
0000
1000
0001
0010
0000
0100
0000
1000
0000
0001
0010
0100
0000
0010
0000
,  // measure 67
0012
0000
1003
0100
0010
0000
0100
0000
1000
0000
0001
0100
0010
0000
0100
0000
,  // measure 68
0001
0000
1000
0100
0020
0000
0130
0000
2000
0000
3001
0100
0010
0000
0100
0000
,  // measure 69
0002
0000
0013
0100
1000
0000
0001
0000
0200
0000
0310
1000
0001
0000
0010
0000
,  // measure 70
0210
0000
1300
0000
0001
0000
0010
0000
0100
0000
1000
0001
1000
0000
0010
0000
,  // measure 71
0210
0000
0301
1000
0100
0000
0010
0000
0200
0000
0300
0000
2100
0000
3001
0100
,  // measure 72
0010
0000
1000
0000
0200
0000
0300
0000
0120
0000
0031
1000
0010
0000
0100
0000
,  // measure 73
0102
0000
1003
0100
0120
0031
0100
0010
,  // measure 74
2010
0000
3001
0000
0010
0000
0100
0000
2100
0000
3001
0100
0010
0000
1000
0000
,  // measure 75
1200
0010
1000
0010
1000
0310
0010
0001
,  // measure 76
0020
0000
0100
0000
0001
0000
0100
0000
0001
0000
0130
1000
0001
0000
0100
0000
,  // measure 77
0010
1000
0010
0100
0010
1000
0001
0010
0001
1000
0010
0100
0010
1000
0001
0010
,  // measure 78
0100
0010
0001
1000
0010
0100
0010
1000
0001
0010
0100
0010
0001
1000
0010
0100
,  // measure 79
0001
1000
0100
0010
0100
1000
0001
0100
0010
1000
0001
0100
0020
0000
0000
0000
,  // measure 80
0030
0000
0000
0000
0000
0000
0100
0200
0000
0000
0000
0000
0000
0000
0000
0000
0000
0000
0300
0000
0000
0000
0000
0000
;

//---------------dance-single - Medium----------------
#NOTES:
     dance-single:
     Ace Of Hearts (2011):
     Medium:
     7:
     0.420,0.145,0.000,0.538,0.018: // measure 1
0000
0000
0000
0000
,  // measure 2
0001
0010
0001
0000
1000
0000
0010
0000
,  // measure 3
1000
0001
1000
0000
0010
0000
1000
0001
,  // measure 4
1000
0010
1000
0001
,  // measure 5
0100
0000
0000
0000
0001
0000
1000
0020
,  // measure 6
0000
0000
0030
0000
1000
0000
0001
0020
,  // measure 7
0000
0000
0030
0000
0100
0000
0010
0002
,  // measure 8
0000
0000
0003
0000
1000
0000
0001
0200
,  // measure 9
0000
0000
0300
0000
0001
0000
1000
0020
,  // measure 10
0000
0000
0030
0000
1000
0000
0001
0020
,  // measure 11
0000
0000
0030
0000
0001
0000
1000
0200
,  // measure 12
0000
0000
0300
1000
0001
0000
1000
0020
,  // measure 13
0000
0000
0000
0030
,  // measure 14
1000
0000
0000
0000
0000
0000
0200
0000
0000
0300
0000
0000
1000
0000
0000
0000
,  // measure 15
0000
0000
0002
0000
0000
0003
0000
0000
1000
0000
0010
0000
1000
0000
0000
0000
,  // measure 16
0001
0000
0010
0000
0100
1000
0100
0000
,  // measure 17
0010
0001
0001
0000
2000
0000
0000
0000
,  // measure 18
0000
0000
3000
0000
0002
0000
1003
0010
,  // measure 19
0000
1000
0001
0000
0020
0000
0000
0000
,  // measure 20
0000
0000
0030
0000
0002
0000
1003
0010
,  // measure 21
0000
1000
0001
0000
0020
0000
0000
0230
,  // measure 22
0000
0000
0000
0000
0300
0000
0000
0020
,  // measure 23
0000
0031
1000
0000
0010
0000
0000
0000
,  // measure 24
0010
0000
0000
1000
0000
1000
0000
1000
,  // measure 25
0000
0010
0200
0000
,  // measure 26
0000
0000
0300
0000
0002
0000
1003
0010
,  // measure 27
0000
1000
0001
0000
0200
0000
0000
0000
,  // measure 28
0300
0000
0002
0000
1003
0010
0000
0100
,  // measure 29
0000
0000
0001
2000
0000
0000
0000
0000
,  // measure 30
3000
0000
0002
0000
1003
0100
0000
0010
,  // measure 31
0000
0001
1000
0200
0000
0000
0310
0000
,  // measure 32
0001
0000
1000
0000
0001
0000
1000
0100
,  // measure 33
0000
0000
0000
0020
,  // measure 34
0130
0000
0000
2000
0000
3001
0100
0000
,  // measure 35
0020
0130
0000
0002
,  // measure 36
0013
0000
0000
0002
0000
1003
0010
0000
,  // measure 37
2000
3100
0000
0020
,  // measure 38
0130
0000
0000
2000
0000
3001
0100
0000
,  // measure 39
0010
1000
0002
0000
,  // measure 40
0000
0000
0000
0000
0003
0000
0000
1000
,  // measure 41
1000
0000
0010
1000
0010
0100
0001
0100
,  // measure 42
0010
1000
0010
1000
0001
1000
0010
1000
,  // measure 43
0002
0003
0010
0001
0010
0100
1000
0100
,  // measure 44
0010
0100
1000
0001
1000
0010
1000
0001
,  // measure 45
0200
0300
0001
1000
0001
0100
0010
0100
,  // measure 46
0001
0100
0010
0100
0001
1000
0100
0010
,  // measure 47
0002
0000
0000
0000
0003
0000
0000
0000
4000
0004
0000
0000
0000
0000
0000
0000
0000
0000
0000
0000
0000
0000
0000
0000
0000
0000
0000
0000
0000
0000
0000
0000
,  // measure 48
0000
0000
0000
0000
0000
3003
1000
0000
,  // measure 49
0000
1000
0000
0000
1000
0000
0002
0000
,  // measure 50
1003
0100
0000
0010
0001
0000
1000
0000
,  // measure 51
0010
0000
1000
0000
0010
0100
0020
0000
,  // measure 52
1030
0001
0000
1000
0010
0000
1000
0000
,  // measure 53
0001
0010
0200
1000
1300
0000
0002
0000
,  // measure 54
1003
0010
0000
1000
0001
0000
0010
0000
,  // measure 55
0001
0000
1000
0000
0010
1000
0020
0000
,  // measure 56
1030
0001
0000
0010
0001
0000
1000
0001
,  // measure 57
1000
0001
0200
0000
0310
0000
2000
0000
,  // measure 58
3002
0000
1003
0010
1000
0001
0020
0000
,  // measure 59
0230
0000
1300
0100
0010
0000
0002
0000
,  // measure 60
2003
0000
3010
1000
0010
1000
0002
0000
,  // measure 61
0000
0000
0000
0000
0003
0000
1000
0000
0010
0000
0000
0000
4000
0004
0000
0000
,  // measure 62
0000
3003
0000
0000
,  // measure 63
1000
0100
1000
0000
0001
0000
1000
0010
,  // measure 64
1000
0001
0020
0031
,  // measure 65
2000
0000
3010
1000
0020
0000
1030
0001
,  // measure 66
1000
0000
0000
0000
0001
0000
0100
0000
0020
0000
0100
0030
0100
0000
0000
0000
,  // measure 67
0010
1000
0010
0000
0200
0000
0301
1000
,  // measure 68
0001
0000
0020
0000
0032
0000
1003
0010
,  // measure 69
2000
0000
3001
0010
0002
0000
1003
0010
,  // measure 70
2000
0000
0000
0000
3001
0000
0100
0000
0002
0000
1000
0003
1000
0000
0000
0000
,  // measure 71
0001
0010
0001
0000
2000
0000
3010
0100
,  // measure 72
0010
0000
0200
0000
0302
0000
1003
0010
,  // measure 73
2000
0000
3001
1000
0002
0000
0013
0001
,  // measure 74
0020
0000
0000
0000
0130
0000
1000
0000
0200
0000
0010
0300
0010
0000
0000
0000
,  // measure 75
0002
0000
0000
0000
0000
0000
1003
0010
,  // measure 76
2000
3002
0203
0320
,  // measure 77
4030
0000
0000
0000
,  // measure 78
0000
0000
0000
3000
,  // measure 79
0001
0010
0001
0000
1000
0000
0010
0000
1000
0100
0010
0001
2000
0000
0000
0000
,  // measure 80
3000
0200
0000
0300
;

//---------------dance-single - Easy----------------
#NOTES:
     dance-single:
     Ace Of Hearts (2011):
     Easy:
     4:
     0.222,0.086,0.007,0.262,0.000:
0000
0000
0000
0000
,
0001
0001
0001
0000
,
1000
1000
1000
0000
,
0010
0000
0010
0000
,
0010
0000
1000
0000
,
2000
0000
3001
0000
,
0002
0000
0013
0000
,
0020
0000
0031
0000
,
0002
0000
1003
0000
,
2000
0000
3100
0000
,
0200
0000
1300
0000
,
2000
0000
3010
0000
,
0020
0000
0000
0000
,
0030
0000
0000
1001
,
0000
0000
0001
0001
,
0001
0000
0100
0100
,
0100
0000
0002
0000
,
0000
0003
1000
0000
,
0010
0010
0020
0000
,
0000
0030
1000
0000
,
0001
0001
0002
0000
,
0000
0000
0003
0000
,
1000
1000
2000
0000
,
0000
0000
0000
0000
,
0000
3000
0002
0000
,
0000
0003
0010
0000
,
0100
0100
0200
0000
,
0300
0000
0001
0000
,
1000
1000
2000
0000
,
3000
0000
0010
0000
,
0100
0100
0200
0000
,
0000
0000
0300
0000
,
0000
0000
0000
0001
,
0001
0000
1000
1000
,
1000
0000
0000
0100
,
0100
0000
0010
0010
,
0010
0000
0000
0100
,
0100
0000
1000
1000
,
0001
0001
0002
0000
,
0000
0000
0003
0000
,
0000
2000
3000
0001
,
0001
0002
0003
2000
,
3000
0020
0030
1000
,
1000
2000
3000
0002
,
0003
0020
0030
0001
,
0001
0002
0003
0200
,
0300
0002
0000
2003
,
0000
3040
0000
0030
,
0000
0000
0000
2000
,
0000
3001
0000
0000
1000
0000
0010
0000
,
0010
0010
0000
2000
,
0000
3001
0000
0000
0100
0000
0010
0000
,
0010
0010
0000
2000
,
0000
3001
0000
0000
0010
0000
0001
0000
,
0001
0001
0000
2000
,
0000
3001
0000
0000
0010
0000
0100
0000
,
0100
0100
0000
1000
,
0001
0000
0100
0100
0100
0000
0010
0000
,
1000
0000
0001
0001
0001
0000
0100
0000
,
0100
0000
0010
0010
0010
0000
2000
0000
,
0000
3000
0000
0004
,
0000
0003
0000
0000
,
1000
1000
1000
0000
,
0010
0010
0000
0000
,
1000
0000
1000
0000
,
0010
0010
0010
0000
,
0100
0100
0100
0000
,
0001
0001
0000
0000
,
1000
1000
1000
0000
,
0100
0100
0100
0000
,
0010
0010
0010
0000
,
0001
0001
0000
0000
,
0100
0000
0100
0000
,
0010
0010
0010
0000
,
2000
0000
0000
0000
,
3001
0001
0010
0010
,
0002
0000
0000
0000
,
0000
0000
0000
0000
,
1003
1000
1000
0000
0010
0010
0020
0000
,
0000
0130
0000
0000
;

//---------------dance-single - Novice----------------
#NOTES:
     dance-single:
     Ace Of Hearts (2011):
     Beginner:
     2:
     0.142,0.058,0.000,0.167,0.000:
0000
0000
0000
0000
,
0002
0000
0000
0000
,
0000
0000
0000
0000
,
0003
0000
0000
0000
,
0000
0000
0000
0000
,
1000
0000
0000
0000
,
0001
0000
0000
0000
,
0100
0000
0000
0000
,
0010
0000
0000
0000
,
1000
0000
0000
0000
,
0001
0000
0000
0000
,
1000
0000
0000
0000
,
0010
0000
0000
0000
,
1000
0000
0000
1000
,
0000
0000
2000
0000
,
0000
0000
0000
0000
,
3000
0000
0002
0000
,
0003
0000
1000
0000
,
1000
0000
2000
0000
,
3000
0000
0010
0000
,
0010
0000
0020
0000
,
0030
0000
0000
0000
,
0000
0000
0200
0000
,
0000
0000
0000
0000
,
0300
0000
0002
0000
,
0003
0000
1000
0000
,
1000
0000
2000
0000
,
3000
0000
0100
0000
,
0100
0000
0200
0000
,
0300
0000
0010
0000
,
0010
0000
0020
0000
,
0000
0000
0030
0000
,
0000
0000
0000
0001
,
0001
0000
2000
0000
,
3000
0000
0000
0010
,
0010
0000
0200
0000
,
0300
0000
0000
0001
,
0001
0000
0010
0000
,
0010
0000
0020
0000
,
0000
0000
0030
0000
,
0000
0001
0000
0001
,
0000
2000
0000
3000
,
0000
0010
0000
0010
,
0000
0200
0000
0300
,
0000
0001
0000
0001
,
0000
2000
0000
3000
,
0000
0100
0000
0100
,
0000
0020
0000
0030
,
0000
0000
0000
0001
,
0000
0001
0000
1000
,
1000
1000
0000
0010
,
0000
0010
0000
0100
,
0100
0100
0000
0001
,
0000
0001
0000
1000
,
1000
1000
0000
0001
,
0000
0001
0000
0100
,
0100
0100
0000
0010
,
0010
0020
0030
1000
,
1000
2000
3000
0001
,
0001
0100
0100
0200
,
0000
0300
0000
0040
,
0000
0030
0000
0000
,
1000
0000
1000
0000
,
1000
0000
0000
0000
,
0001
0000
0001
0000
,
0001
0000
0000
0000
,
0010
0000
0010
0000
,
0010
0000
0000
0000
,
0100
0000
0100
0000
,
0100
0000
0000
0000
,
1000
0000
1000
0000
,
1000
0000
0000
0000
,
0001
0000
0001
0000
,
0001
0000
0000
0000
,
0200
0000
0300
0000
,
0002
0000
0003
0000
,
1000
1000
1000
0000
,
0001
0001
0001
0000
,
1000
1000
0020
0000
,
0000
0030
0000
0000
;
