#TITLE:I Can Take Off My Panties!;
#SUBTITLE:;
#ARTIST:Rin Kagamine;
#TITLETRANSLIT:;
#SUBTITLETRANSLIT:;
#ARTISTTRANSLIT:;
#GENRE:Vocaloid;
#CREDIT:Ace Of Hearts;
#BANNER:I Can Take Off My Panties - bn.png;
#BACKGROUND:I Can Take Off My Panties - bg.jpg;
#LYRICSPATH:;
#CDTITLE:Ace Of Hearts.png;
#MUSIC:I Can Take Off My Panties.ogg;
#OFFSET:0.400;
#SAMPLESTART:52.600;
#SAMPLELENGTH:12.000;
#SELECTABLE:YES;
#BPMS:0.000=163.000;
#STOPS:;
#BGCHANGES:1.000=I Can Take Off My Panties Video.avi=1.000=0=0=1=====,
99999=-nosongbg-=1.000=0=0=0 // don't automatically add -songbackground-
;
#FGCHANGES:;
#KEYSOUNDS:;

//---------------dance-single - Hard----------------
#NOTES:
     dance-single:
     Ace Of Hearts (2011):
     Hard:
     8:
     0.469,0.000,0.174,0.433,0.004: // measure 1
0000
0000
0000
0000
,  // measure 2
0000
0000
0000
0000
,  // measure 3
0000
0000
0000
0000
,  // measure 4
0000
0000
0000
0000
,  // measure 5
0000
0000
0000
0000
,  // measure 6
0000
0000
0000
0000
,  // measure 7
0000
0000
0000
0000
,  // measure 8
0000
0000
0000
0000
,  // measure 9
0000
0000
0000
0000
,  // measure 10
0000
0001
0010
0001
1000
0010
0100
0002
,  // measure 11
0000
0000
0003
0000
1000
0100
0010
0200
,  // measure 12
0000
0000
1300
0002
0000
1003
0000
0400
,  // measure 13
0000
0000
0000
0300
0000
1000
0010
0100
,  // measure 14
0002
0000
2003
0000
3100
0010
0000
0200
,  // measure 15
0000
1300
0001
0100
0000
0010
1000
0001
,  // measure 16
0100
0000
0010
0100
0001
1000
0000
0200
,  // measure 17
0000
0310
0001
4000
0000
0000
0000
3000
,  // measure 18
0000
0001
0010
0001
1000
0010
0100
0004
,  // measure 19
0000
0000
0003
0000
0100
0010
1000
0002
,  // measure 20
0000
0000
0103
0020
0000
1030
0000
0400
,  // measure 21
0000
0000
0300
0000
0000
1000
0001
0100
,  // measure 22
0020
0000
2030
0000
3001
0010
0000
0200
,  // measure 23
0000
0310
0001
1000
0000
0010
0100
0001
,  // measure 24
1000
0020
0130
0002
,  // measure 25
1003
0010
0100
0002
0000
4003
0000
0000
,  // measure 26
3000
0000
0001
0000
0010
0200
0000
4300
,  // measure 27
0000
3000
0000
0000
0002
0000
0000
0000
0103
0000
0020
0000
0000
0000
2030
0000
,  // measure 28
0000
3001
0400
0000
0000
0300
0000
0001
,  // measure 29
1000
0010
1000
0002
0003
0000
0000
0000
,  // measure 30
0000
0020
0230
2300
,  // measure 31
3002
0203
0320
2030
,  // measure 32
3002
0000
0000
0013
0200
0000
0000
1300
,  // measure 33
0002
0003
0000
1000
0010
1000
0001
0010
,  // measure 34
0400
0000
0000
0000
0300
1000
0001
0020
,  // measure 35
0000
0000
0000
0030
,  // measure 36
0000
0000
0001
1000
0010
1000
0001
0000
,  // measure 37
0011
0000
0010
0100
1000
0001
0100
0000
,  // measure 38
0110
0000
0010
1000
0001
0010
0100
0000
,  // measure 39
1100
0000
1000
0001
0100
0010
1000
0000
,  // measure 40
0004
0000
0003
0000
,  // measure 41
0000
0010
0001
1000
0010
0100
0000
0010
,  // measure 42
1000
0001
0010
0100
0000
0000
0000
0000
,  // measure 43
0000
0010
0000
0001
1000
0010
0100
0002
,  // measure 44
0000
0000
1003
0010
1000
0001
0010
0000
,  // measure 45
0110
0000
0100
1000
0001
0100
0010
0000
,  // measure 46
1010
0000
1000
0001
0100
0010
1000
0000
,  // measure 47
1001
0000
0001
0010
0100
1000
0001
0000
,  // measure 48
2000
0000
0000
0200
0000
0000
3300
0000
,  // measure 49
0000
1000
0001
0100
0010
1000
0001
0010
,  // measure 50
0100
1000
0100
0010
0000
0000
0000
0000
,  // measure 51
0000
0100
1000
0001
0100
0010
1000
0001
,  // measure 52
0020
0000
0031
1000
0010
0100
0010
0000
,  // measure 53
1010
0000
0000
0101
0000
0000
1001
0000
,  // measure 54
0000
0000
0000
0000
1000
0100
0010
0100
,  // measure 55
1000
0000
0000
1001
0000
0001
0100
0000
,  // measure 56
0000
0000
0000
0000
0001
0010
0100
0010
,  // measure 57
0001
0000
0000
1001
0000
0000
0000
0000
,  // measure 58
0001
0000
0000
0101
0000
0000
0000
0001
,  // measure 59
2000
0000
0000
3100
0000
0010
0000
0002
,  // measure 60
0000
1003
0100
0000
1000
0000
0002
0000
,  // measure 61
0003
1000
0010
1000
0002
0000
1003
0040
,  // measure 62
0000
0000
0030
0000
1000
0010
0100
0002
,  // measure 63
0000
0000
1003
0010
0000
0100
0000
0002
,  // measure 64
0000
0000
0003
0000
0000
1000
0010
1000
,  // measure 65
0002
0000
0023
0000
0130
2000
0000
3002
,  // measure 66
0000
0013
0100
1000
0000
0001
0100
0001
,  // measure 67
2000
0000
3100
0010
0002
0000
2003
0000
,  // measure 68
3001
0100
0010
2000
0000
3040
0000
0030
,  // measure 69
0000
0000
1000
0000
0001
0020
0000
0430
,  // measure 70
0000
0300
0000
0000
0020
0000
0000
0000
0031
0000
1000
0000
0000
0000
0020
0000
,  // measure 71
0000
0130
0004
0000
0000
0003
0000
1000
,  // measure 72
0010
0000
0100
0000
0010
0000
4000
0000
0000
3000
0000
0000
0000
0000
0000
0000
,  // measure 73
0000
0002
0023
0230
,  // measure 74
2300
3002
0203
0320
,  // measure 75
2030
0000
0000
3001
0200
0000
0000
0310
,  // measure 76
2000
0000
3000
0001
0010
0001
1000
0001
,  // measure 77
0040
0000
0000
0000
0030
0100
1000
0004
,  // measure 78
0000
0000
0000
0003
,  // measure 79
4000
0004
0000
0000
0000
0000
0000
0000
0000
0000
0000
0000
3003
0000
0000
0000
,  // measure 80
1010
0000
0010
0100
0001
0001
1000
0000
,  // measure 81
1100
0000
0100
0010
0001
0001
1000
0000
,  // measure 82
1010
0000
0010
0100
0001
0001
1000
0000
,  // measure 83
0400
0000
0300
0000
,  // measure 84
0000
0010
0001
1000
0010
2000
0000
3001
,  // measure 85
0010
0100
1000
0001
0000
0000
0000
0000
,  // measure 86
0000
2000
0000
3010
0100
0001
0100
0020
,  // measure 87
0000
1030
0002
0000
1003
0100
0010
0000
,  // measure 88
0011
0000
0001
0010
0100
0100
1000
0000
,  // measure 89
1001
0000
1000
0010
1000
1000
0001
0000
,  // measure 90
0101
0000
0100
0010
1000
1000
0001
0000
,  // measure 91
0020
0000
0000
0200
0000
0000
0330
0000
,  // measure 92
0000
0010
0001
1000
0010
1000
0001
0010
,  // measure 93
0100
1000
0001
0100
0000
0000
0000
0000
,  // measure 94
0000
0010
0100
0001
1000
0100
0010
0002
,  // measure 95
0000
1003
0010
1000
0001
0010
0100
0000
,  // measure 96
2200
0000
0000
0000
,  // measure 97
0000
0000
0000
3300
,  // measure 98
1000
0000
0001
0001
0100
0000
0010
0000
,  // measure 99
1010
1000
0001
0100
,  // measure 100
0110
0000
0000
0101
0000
0000
0000
0000
,  // measure 101
0001
0010
0100
1000
0000
0000
0000
0000
,  // measure 102
1100
0000
0000
0011
0000
0000
0000
0002
,  // measure 103
0000
1003
0010
1000
0000
0001
0000
0000
,  // measure 104
0000
0000
0200
0000
0301
1000
0000
0400
,  // measure 105
0000
0000
0320
0000
0031
2000
0000
3010
,  // measure 106
1000
0001
4000
0000
0000
0000
3000
0001
,  // measure 107
0010
0100
0010
0002
0000
0003
0000
0000
,  // measure 108
0000
2000
3020
0230
,  // measure 109
0302
2003
3200
0320
,  // measure 110
0032
0000
0000
1003
0020
0000
0000
0130
,  // measure 111
0002
0000
0000
1003
0100
0010
0001
1000
,  // measure 112
0040
0000
0000
0000
0030
1000
0001
4000
,  // measure 113
0000
0000
0000
3000
,  // measure 114
0004
0400
0000
0000
0000
0000
0000
0000
0000
0000
0000
0000
0303
0000
0000
0000
,  // measure 115
0110
0000
0010
1000
0001
0001
0010
0000
,  // measure 116
1100
0000
1000
0001
0100
0100
0010
0000
,  // measure 117
1010
0000
1000
0001
0001
0010
0100
0000
,  // measure 118
0040
0000
0030
0000
,  // measure 119
0000
0001
1000
0010
0100
0020
0000
1030
,  // measure 120
0001
0010
0100
1000
0000
0000
0000
0000
,  // measure 121
0000
0010
0000
1000
0001
0010
0001
2000
,  // measure 122
0000
0000
3010
1000
0001
1000
0010
0000
,  // measure 123
0110
0000
0100
0001
1000
1000
0010
0000
,  // measure 124
1010
0000
1000
0100
0010
0010
0001
0000
,  // measure 125
0101
0000
0100
0010
1000
1000
0001
0000
,  // measure 126
0021
0000
0000
0200
0000
0000
0330
0000
,  // measure 127
0000
0010
0001
1000
0010
0100
0010
1000
,  // measure 128
0001
0010
0100
1000
0000
0000
0000
0000
,  // measure 129
0000
0001
0010
0001
1000
0010
0100
0010
,  // measure 130
2000
0000
3001
0010
0001
1000
0100
0000
,  // measure 131
0110
0000
0000
0010
0000
0000
0011
0000
,  // measure 132
0000
0000
0000
0000
0001
0010
0100
1000
,  // measure 133
1001
0000
0000
0002
0000
0103
0010
0000
,  // measure 134
0000
0000
0000
0000
1000
0010
0100
0001
,  // measure 135
1000
0000
0000
1100
0000
0000
0000
0000
,  // measure 136
0110
0000
0000
0010
0000
0000
0000
0000
,  // measure 137
0002
0000
0000
0103
0000
0010
0000
1000
,  // measure 138
0001
0100
0001
0000
1000
0000
0001
0100
,  // measure 139
0010
0000
1000
0001
0100
0000
0010
0000
,  // measure 140
1000
0000
0001
0010
0100
0000
1000
0000
,  // measure 141
0001
0000
0100
0010
1000
0000
0001
0000
,  // measure 142
0010
0100
1000
0001
,  // measure 143
0100
0000
0000
0010
0000
0000
0000
0000
,  // measure 144
1000
0010
0100
0001
0000
0000
0000
0000
,  // measure 145
0100
0000
0000
0010
0000
0000
0000
2000
,  // measure 146
0000
3001
0010
0100
0000
2000
3000
0000
,  // measure 147
1001
0000
0000
0110
0000
0000
2002
0000
,  // measure 148
0000
0000
0000
0000
,  // measure 149
3003
0000
0000
0000
;

//---------------dance-single - Expert----------------
#NOTES:
     dance-single:
     Ace Of Hearts (2011):
     Challenge:
     11:
     0.806,0.000,0.366,0.607,0.473: // measure 1
0000
0000
0000
0000
,  // measure 2
0000
0000
0000
0000
,  // measure 3
0000
0000
0000
0000
,  // measure 4
0000
0000
0000
0000
,  // measure 5
0000
0000
0000
0000
,  // measure 6
0000
0000
0000
0000
,  // measure 7
0000
0000
0000
0000
,  // measure 8
0000
0000
0000
0000
,  // measure 9
0000
0000
0000
0000
,  // measure 10
0002
0000
1003
0010
1000
0000
0001
0000
1000
0100
1000
0000
0001
0000
2000
0000
,  // measure 11
0000
0000
3001
0000
1000
0000
0010
0000
0100
0001
0100
0000
0010
0000
1000
0000
,  // measure 12
0001
0000
0010
0100
0010
0000
0001
0000
1000
0001
2000
0000
0000
0000
3400
0000
,  // measure 13
0000
0000
0310
0000
0001
0000
1000
0000
0010
0000
0100
0001
0100
0000
0010
0000
,  // measure 14
1000
0001
1000
0000
0001
0000
0010
0000
0001
1000
0001
0000
0100
0000
0020
0000
,  // measure 15
0000
0000
1030
0001
1000
0000
0100
0000
0010
0000
0001
1000
0001
0000
1000
0000
,  // measure 16
0010
0000
1000
0001
1000
0000
0100
0000
0010
0001
0010
0000
0100
0000
2000
0000
,  // measure 17
0000
0000
3001
0100
0001
0000
4000
0000
0000
0000
0000
0000
0000
0000
3000
0000
,  // measure 18
1020
0000
0130
0001
0100
0000
0010
0000
1000
0001
1000
0000
0100
0000
0040
0000
,  // measure 19
0000
0000
0130
0000
1000
0000
0001
0000
0100
0001
0100
0000
0010
0000
1000
0000
,  // measure 20
0001
0000
0010
0100
0010
0000
0001
0000
1000
0010
1000
0000
0001
0000
0400
0000
,  // measure 21
0000
0000
0301
0000
2000
0000
0000
0000
3020
0000
0130
0001
0100
0000
0010
0000
,  // measure 22
1000
0000
0001
0010
0001
0000
1000
0000
0100
1000
0100
0000
0010
0000
0002
0000
,  // measure 23
0000
0000
1003
0010
1000
0000
0001
0000
0000
0000
0010
0000
0100
0000
1000
0000
,  // measure 24
0001
0000
1000
0010
1000
0000
0001
0000
0010
0100
0010
0000
0001
0000
1000
0000
,  // measure 25
0010
1000
0010
0100
0001
0100
0010
1000
0001
0010
0100
1000
0100
0010
0001
1000
,  // measure 26
0002
0000
0000
0000
0203
0000
0000
0000
0310
0000
2000
0000
0000
3000
2400
0000
,  // measure 27
0000
0000
3000
0000
0320
0000
0000
0000
0031
0000
2000
0000
0000
3000
1020
0000
,  // measure 28
0000
0130
0004
0000
0000
0003
0000
0010
,  // measure 29
0110
0000
0100
0000
1000
0000
0001
0000
1000
0010
1000
0000
0001
0000
0010
0000
,  // measure 30
0210
0000
1300
0001
1000
0000
0010
1000
0010
0000
1000
0001
1000
0000
0001
0010
,  // measure 31
0001
0000
1000
0100
1000
0000
0100
0010
0100
0000
1000
0001
1000
0000
0010
1000
,  // measure 32
0010
0000
0100
0001
0100
0000
0010
0100
0010
0000
1000
0010
1000
0000
0001
1000
,  // measure 33
0001
0000
0010
0001
0010
0000
0100
0010
0100
0000
1000
0100
1000
0000
0001
1000
,  // measure 34
0001
0000
1000
0010
1000
0000
0001
0100
0001
0000
1000
0100
1000
0000
0001
1000
,  // measure 35
0010
1000
0001
0000
0010
0000
0001
1000
0100
1000
0001
0000
1000
0000
0010
1000
,  // measure 36
0010
0100
0010
1000
0001
0010
0001
1000
0010
1000
0001
0010
0100
0010
0001
0000
,  // measure 37
1002
0000
1003
0010
0110
0100
0001
0000
,  // measure 38
0012
0000
0013
0100
1100
1000
0001
0000
,  // measure 39
0102
0000
0103
0010
1010
1000
0001
0000
,  // measure 40
0402
0000
0303
0000
,  // measure 41
0000
0001
1000
0100
0010
0100
0000
1000
,  // measure 42
0001
0100
0010
1000
0002
0023
0230
2300
,  // measure 43
3001
0100
0000
0010
0100
0001
1000
2200
,  // measure 44
3000
0000
0310
0000
0001
1000
0010
1000
0001
0010
0100
1000
0100
0010
0001
0000
,  // measure 45
0102
0000
0103
0010
1010
1000
0001
0000
,  // measure 46
0012
0000
0013
0100
1100
1000
0001
0000
,  // measure 47
1002
0000
1003
0010
0110
0100
0001
0000
,  // measure 48
0021
0000
0000
0400
0000
0000
0330
0000
,  // measure 49
0000
0100
1000
0001
0100
0010
1000
0001
,  // measure 50
0010
0100
1000
0001
2000
3200
0320
0032
,  // measure 51
1003
0010
1000
0001
0010
0100
0010
0001
,  // measure 52
1000
0000
0000
0000
0010
1000
0001
1000
0010
0100
0010
1000
0001
0010
0100
1000
,  // measure 53
0002
0000
0003
0101
0000
0000
0110
0000
,  // measure 54
0000
0000
0000
0000
0000
0000
0000
0000
0020
0000
2030
0000
3002
0000
0023
0030
,  // measure 55
0110
0000
0000
2100
0000
3001
0101
0000
,  // measure 56
0000
0000
0000
0000
0000
0000
0000
0000
0020
0000
2030
0000
3002
0000
0203
0300
,  // measure 57
0110
0000
0000
1010
0000
0000
0000
0000
,  // measure 58
1001
0000
0000
0101
0000
0000
0000
0001
,  // measure 59
1000
0000
1000
0000
0010
0000
0100
0000
0000
0000
0010
0000
0000
0000
1000
0001
,  // measure 60
0010
0001
1000
0010
0100
0010
1000
0001
0010
0100
0010
0001
1000
0010
0100
0010
,  // measure 61
2000
0000
3001
0100
0001
0000
1000
0000
0100
0010
0100
0000
1000
0000
0004
0000
,  // measure 62
0000
0000
1003
0010
1000
0000
0001
0000
1000
0001
1000
0000
0100
0000
0010
0000
,  // measure 63
0001
0000
1000
0010
1000
0000
0001
0000
0010
0001
0010
0000
0100
0000
2000
0000
,  // measure 64
0000
0000
3001
0000
0200
0000
0000
0000
0320
0000
1030
0001
1000
0000
0100
0000
,  // measure 65
0010
0000
0100
1000
0100
0000
0010
0000
0001
1000
0001
0000
1000
0000
0010
0000
,  // measure 66
0100
0000
0001
0100
0001
0000
1000
0000
0100
0000
0010
0001
0010
0000
0100
0000
,  // measure 67
1000
0001
1000
0000
0010
0000
0100
0001
0100
0010
0100
0001
0100
0000
0010
0000
,  // measure 68
1000
0001
1000
0010
0100
0010
1000
0001
0010
0100
0010
0001
1000
0010
1000
0001
,  // measure 69
0020
0000
0000
0000
0032
0000
0000
0000
1003
0000
0020
0000
0000
0030
0410
0000
,  // measure 70
0000
0000
0300
0000
0002
0000
0000
0000
1003
0000
0020
0000
0000
0030
2010
0000
,  // measure 71
0000
3001
0400
0000
0000
0300
0000
0001
,  // measure 72
1000
0000
0100
0000
0010
0000
0100
0000
0000
0000
0010
0000
0001
1000
0001
0000
,  // measure 73
0201
0000
0310
1000
0010
0000
1000
0001
1000
0000
0001
0010
0001
0000
1000
0100
,  // measure 74
1000
0000
0100
0010
0100
0000
0010
0001
0010
0000
0001
1000
0001
0000
0100
0010
,  // measure 75
0100
0000
0001
0100
0001
0000
1000
0010
1000
0000
0001
0010
0001
0000
1000
0100
,  // measure 76
1000
0000
0001
1000
0001
0000
0100
0001
0100
0000
0010
0100
0010
0000
1000
0010
,  // measure 77
1000
0000
0001
1000
0001
0000
0010
0001
0010
0000
0100
0010
0100
0000
0010
0001
,  // measure 78
1000
0001
0010
0000
0001
0000
1000
0010
0100
0010
1000
0000
0001
0100
0001
1000
,  // measure 79
0001
0100
0010
1000
0001
0010
0100
1000
0001
0100
0010
2000
0002
0000
0000
0000
,  // measure 80
0010
3003
0001
0100
0110
0200
0002
0000
,  // measure 81
0010
0303
0100
0010
1010
2000
0200
0000
,  // measure 82
0001
3300
0100
0010
0011
0001
1000
0000
,  // measure 83
2040
0000
3030
0000
,  // measure 84
0000
0001
1000
0100
0010
0200
0000
0310
,  // measure 85
0001
1000
0010
1000
0002
0023
0230
2300
,  // measure 86
3001
0100
0000
0010
0100
0001
1000
1020
,  // measure 87
0000
0000
0130
0000
0001
1000
0100
0010
0100
1000
0001
2000
0200
0000
0000
0000
,  // measure 88
0010
3300
0100
0010
0011
0002
2000
0000
,  // measure 89
0010
3003
1000
0010
0110
0200
0002
0000
,  // measure 90
1000
0303
0001
1000
0010
0100
0001
0000
,  // measure 91
0022
0000
0000
2000
0000
0000
3033
0000
,  // measure 92
0000
0001
0100
0010
0100
0001
1000
0100
,  // measure 93
0010
0100
1000
0001
2000
3020
0230
0302
,  // measure 94
1003
0010
1000
0001
0010
0100
0010
0012
,  // measure 95
0000
0000
1003
0010
0100
0001
0100
0010
1000
0001
0010
0100
1000
0001
0100
0000
,  // measure 96
0110
0000
0010
1000
0001
0000
0010
0000
,  // measure 97
0011
0000
0001
1000
0010
0000
1000
0000
,  // measure 98
1100
0000
0100
0010
0001
0000
0100
0000
,  // measure 99
0110
0010
1000
0001
,  // measure 100
0101
0000
0000
0110
0000
0000
0000
0000
,  // measure 101
0020
1030
0001
0100
0000
0000
0000
0000
,  // measure 102
0110
0000
0000
1001
0000
0000
0000
1020
,  // measure 103
0000
0000
0130
0000
0001
1000
0100
0010
0100
1000
0001
0100
0010
1000
0001
0010
,  // measure 104
0200
0000
0000
0000
2300
0000
0000
0000
3001
0000
0020
0000
0000
0030
0410
0000
,  // measure 105
0000
0300
2000
0000
3001
0020
0000
0031
,  // measure 106
1001
1000
0040
0000
0000
0030
0000
1000
,  // measure 107
1001
0000
0001
0000
0100
0000
0010
0000
1000
0001
1000
0000
0100
0000
0010
0000
,  // measure 108
0012
0000
1003
0010
1000
0000
0001
0010
0001
0000
1000
0100
1000
0000
0001
1000
,  // measure 109
0001
0000
0100
0001
0100
0000
0010
0100
0010
0000
1000
0010
1000
0000
0001
0010
,  // measure 110
0001
0000
1000
0001
1000
0000
0100
0010
0100
0000
1000
0100
1000
0000
0001
0010
,  // measure 111
0001
0000
1000
0010
1000
0000
0001
1000
0001
0000
0010
0001
0010
0000
0100
0010
,  // measure 112
0100
0000
1000
0100
1000
0000
0001
1000
0001
0000
1000
0010
1000
0000
0001
0010
,  // measure 113
0100
0010
0001
0000
1000
0000
0010
0100
0001
0100
0010
0000
1000
0000
0001
0010
,  // measure 114
0100
1000
0100
0010
0001
1000
0001
0100
0010
0100
0001
2000
0002
0000
0000
0000
,  // measure 115
0010
3003
0001
1000
1010
0020
0200
0000
,  // measure 116
1000
0330
0100
0001
1001
2000
0200
0000
,  // measure 117
0001
3300
0100
0010
0011
0001
1000
0000
,  // measure 118
2040
0000
3030
0000
,  // measure 119
0000
0010
0100
0001
1000
0200
0000
1300
,  // measure 120
0001
0100
0010
0100
0002
2003
3020
0230
,  // measure 121
0301
1000
0000
0100
1000
0001
0100
0120
,  // measure 122
0000
0000
1030
0000
0001
0010
0001
1000
0010
0100
0010
0200
0002
0000
0000
0000
,  // measure 123
1000
0303
0001
1000
1100
0200
0020
0000
,  // measure 124
0001
0330
0010
0001
1001
2000
0020
0000
,  // measure 125
0001
3030
0010
1000
1001
0001
0100
0000
,  // measure 126
0220
0000
0000
0002
0000
0000
0333
0000
,  // measure 127
0000
0010
0100
0010
1000
0001
0010
0001
,  // measure 128
1000
0010
0100
0001
2000
3200
0320
0032
,  // measure 129
1003
0010
1000
0001
0010
0100
1000
1002
,  // measure 130
0103
0000
0010
1000
0010
0100
0010
1000
0001
0010
0001
1000
0001
0010
0100
1000
,  // measure 131
0002
0000
0000
0103
0000
0000
0110
0000
,  // measure 132
0000
0000
0000
0000
0000
0000
0000
0000
0020
0000
2030
0000
3002
0000
0023
0030
,  // measure 133
0110
0000
0000
0200
0000
1300
1001
0000
,  // measure 134
0000
0000
0000
0000
0000
0000
0000
0000
0002
0000
0203
0000
0320
0000
2030
3000
,  // measure 135
1001
0000
0000
0101
0000
0000
0000
0000
,  // measure 136
0110
0000
0000
0000
0000
0000
1001
0000
0000
0000
2000
0000
3200
0300
0120
0000
,  // measure 137
0031
1000
0001
0100
0000
0010
0000
1000
,  // measure 138
0001
1000
0100
1000
0001
0100
0010
1000
0001
0010
0001
1000
0010
0100
0001
1000
,  // measure 139
0002
0000
0013
0100
1000
0000
0001
0000
,  // measure 140
0101
0000
0100
0010
1000
0000
0100
0000
,  // measure 141
0110
0000
0010
0001
1000
0000
0010
0000
,  // measure 142
0110
0100
0001
1000
,  // measure 143
1100
0000
0000
0110
0000
0000
0000
0000
,  // measure 144
0020
0130
1000
0001
0000
0000
0000
0000
,  // measure 145
0101
0000
0000
0110
0000
0000
0000
2010
,  // measure 146
0000
0000
3001
0010
0100
0010
0001
1000
0001
0010
0100
1000
0001
1000
0100
0010
,  // measure 147
0001
0000
0000
0101
0000
0000
2020
0000
,  // measure 148
0000
0000
0000
0000
,  // measure 149
3030
0000
0000
0000
;

//---------------dance-single - Medium----------------
#NOTES:
     dance-single:
     Ace Of Hearts (2011):
     Medium:
     6:
     0.377,0.000,0.031,0.460,0.000:
0000
0000
0000
0000
,
0000
0000
0000
0000
,
0000
0000
0000
0000
,
0000
0000
0000
0000
,
0000
0000
0000
0000
,
0000
0000
0000
0000
,
0000
0000
0000
0000
,
0000
0000
0000
0000
,
0000
0000
0000
0000
,
0000
0001
0010
0000
0001
0000
1000
0200
,
0000
0000
0300
0000
0010
0000
0001
2000
,
0000
0000
3001
0100
0000
0010
0000
0200
,
0000
0000
0000
0300
0000
0001
0100
0000
,
0010
0000
1000
0000
0001
0010
0000
0002
,
0000
0000
1003
0010
0000
1000
0001
0000
,
2000
0000
3010
0000
1000
0001
0000
0020
,
0000
0000
0031
2000
0000
0000
0000
3000
,
0000
0001
0010
0000
0002
0000
1003
0200
,
0000
0300
0000
0000
1000
0000
0001
0020
,
0000
0000
0031
2000
0000
3010
0000
2000
,
0000
0000
3000
0000
0000
0001
0010
0000
,
0002
0000
1003
0000
0001
0100
0000
0002
,
0000
0000
1003
0010
0000
1000
0001
0000
,
0020
0032
2003
3200
,
0320
0000
0031
2000
0000
3002
0000
0000
,
0003
0000
2000
0000
3001
0100
0000
0001
,
0000
0000
0020
0000
0031
1000
0000
0020
,
0000
1030
0002
0000
0003
0000
0000
1000
,
0100
0000
1000
0001
0000
0000
0000
0000
,
0000
2000
3020
0230
,
0302
2003
3200
0320
,
0032
0000
0000
1003
0020
0000
0000
1030
,
0002
0000
0003
0010
0001
0000
1000
0000
,
0020
0000
0000
0000
0000
1030
0001
2000
,
0000
0000
0000
0000
,
3000
0001
0010
0001
,
1000
0000
0001
0010
0001
0000
1000
0000
,
0010
0000
1000
0001
1000
0000
0010
0000
,
1000
0000
0001
0100
0001
0000
1000
0000
,
0020
0000
0030
0000
,
0000
1000
0010
0000
1000
0000
0000
0001
,
0010
0000
0001
1000
0000
0000
0000
0000
,
0000
0010
0000
1000
0001
0000
0010
0000
,
0100
1000
0001
1000
,
0010
0000
1000
0001
1000
0000
0010
0000
,
0100
0000
0001
0100
0001
0000
1000
0000
,
0001
0000
0010
0001
0010
0000
0100
0000
,
2000
0000
0000
3000
,
0000
0001
0100
0000
0001
0000
0000
1000
,
0001
0000
1000
0100
0000
0000
0000
0000
,
0000
0010
0001
0000
1000
0000
0001
0100
,
0001
0000
1000
0000
0100
1000
0100
0000
,
0010
0000
0000
0001
0000
0000
0101
0000
,
0000
0000
0000
0000
,
0100
0000
0000
0010
0000
0000
1010
0000
,
0000
0000
0000
0000
,
1000
0000
0000
0001
0000
0000
0000
0000
,
0010
0000
0000
0100
0000
0000
0000
0000
,
0020
0000
0031
1000
0000
0001
0000
0020
,
0000
0031
1000
0000
0001
0000
0200
0000
,
0300
0001
1000
0000
0020
0000
1030
0002
,
0000
0003
0000
0000
1000
0000
0001
0200
,
0000
0000
0301
1000
0000
0001
0000
0020
,
0000
0000
0030
0000
0000
0001
0010
0000
,
0200
0000
0310
0000
0001
2000
0000
3020
,
0000
0000
1030
0001
0000
0010
0001
0000
,
2000
3002
0023
0230
,
2300
0000
3001
0200
0000
0302
0000
0000
,
0003
0000
2000
0000
3001
0020
0000
0031
,
0000
0000
2000
0000
3001
0100
0000
0020
,
0000
1030
0002
0000
0000
0000
0003
1000
,
0010
0000
1000
0001
0000
0000
0000
0000
,
0000
0020
0032
2003
,
3002
0203
0320
2030
,
3002
0000
0000
1003
0020
0000
0000
0130
,
0002
0000
0000
1003
0001
0000
0010
0000
,
0200
0000
0000
0000
0000
0310
0001
0020
,
0000
0000
0000
0030
,
0000
0001
1000
0010
,
1000
0000
0001
0100
0001
0000
1000
0000
,
0001
0000
1000
0100
1000
0000
0001
0000
,
1000
0000
0010
1000
0010
0000
0100
0000
,
0002
0000
0003
0000
,
0000
1000
0100
0000
0010
0000
0000
0100
,
1000
0000
0001
0100
0000
0000
0000
0000
,
0000
0001
0000
1000
0010
0000
1000
0000
,
0001
0010
0001
1000
,
0010
0000
1000
0001
1000
0000
0010
0000
,
1000
0000
0001
0010
0001
0000
0010
0000
,
0100
0000
1000
0100
1000
0000
0001
0000
,
0200
0000
0000
0300
,
0000
0001
1000
0000
0010
0000
0000
1000
,
0001
0000
1000
0100
0000
0000
0000
0000
,
0000
0010
0001
0000
1000
0000
0001
0200
,
0000
0301
1000
0000
0001
0000
1000
0000
,
0020
0000
0000
0000
,
0000
0000
0000
0030
,
1000
0000
0001
0010
0001
0000
1000
0000
,
0010
1000
0001
1000
,
0100
0000
0000
0010
0000
0000
0000
0000
,
0001
0000
0000
1000
0000
0000
0000
0000
,
0010
0000
0000
1000
0000
0000
0000
0002
,
0000
0000
1003
0100
0000
1000
0000
0000
,
0000
0000
0002
0000
1003
0010
0000
0200
,
0000
0000
0310
0000
1000
0002
0000
1003
,
0010
0000
0200
0000
0000
0000
0300
0001
,
1000
0000
0001
0010
0000
0000
0000
0000
,
0000
0002
2003
3020
,
0230
0302
2003
3200
,
0320
0000
0000
0031
2000
0000
0000
3001
,
0200
0000
0000
0301
1000
0000
0001
0000
,
0020
0000
0000
0000
0000
0031
1000
0002
,
0000
0000
0000
0000
,
0003
1000
0010
0100
,
0001
0000
1000
0010
1000
0000
0001
0000
,
0010
0000
0100
1000
0100
0000
0010
0000
,
0001
0000
1000
0010
1000
0000
0001
0000
,
0020
0000
0030
0000
,
0000
0001
1000
0000
0010
0000
0000
1000
,
0001
0000
1000
0100
0000
0000
0000
0000
,
0000
1000
0000
0001
0100
0000
0010
2000
,
0000
3001
0100
0010
,
1000
0000
0001
0010
0001
0000
1000
0000
,
0100
0000
0010
0001
0010
0000
0100
0000
,
1000
0000
0001
0100
0001
0000
1000
0000
,
0020
0000
0000
0030
,
0000
1000
0010
0000
1000
0000
0000
0001
,
0010
0000
0001
1000
0000
0000
0000
0000
,
0000
0010
0000
1000
0001
0000
0010
0000
,
0001
0000
1000
0000
0010
1000
0010
0000
,
1000
0000
0000
0001
0000
0000
0011
0000
,
0000
0000
0000
0000
,
0010
0000
0000
0100
0000
0000
1100
0000
,
0000
0000
0000
0000
,
1000
0000
0000
1001
0000
0000
0000
0000
,
0001
0000
0000
0101
0000
0000
0000
0200
,
0000
0000
0301
1000
0000
0001
0000
2000
,
0000
0000
3001
0000
0010
0000
0001
1000
,
0001
0000
1000
0010
1000
0000
0001
0000
,
1000
0000
0010
1000
0010
0000
1000
0000
,
0001
0000
0100
0001
0100
0000
0010
0000
,
1000
0010
0100
0001
,
1000
0000
0000
0010
0000
0000
0000
0000
,
2000
0000
3001
0100
0000
0000
0000
0000
,
0001
0000
0000
1000
0000
0000
0000
0020
,
0000
0000
1030
0001
0000
0010
0000
0000
,
0100
0000
0000
1000
0000
0000
2002
0000
,
0000
0000
0000
0000
,
3003
0000
0000
0000
;

//---------------dance-single - Easy----------------
#NOTES:
     dance-single:
     Ace Of Hearts (2011):
     Easy:
     3:
     0.199,0.000,0.054,0.147,0.000:
0000
0000
0000
0000
,
0000
0000
0000
0000
,
0000
0000
0000
0000
,
0000
0000
0000
0000
,
0000
0000
0000
0000
,
0000
0000
0000
0000
,
0000
0000
0000
0000
,
0000
0000
0000
0000
,
0000
0000
0000
0000
,
0000
0001
0001
0000
,
0001
0000
1000
0000
,
1000
0000
1000
1000
,
1000
0000
0000
0010
,
0010
0000
0010
0000
,
0010
0010
0010
0000
,
0100
0000
0100
0000
,
0001
0001
0001
0000
,
0000
1000
1000
0000
,
1000
0000
0001
0000
,
0001
0000
0001
0001
,
0001
0000
0000
0000
,
0010
0000
0010
0000
,
0100
0100
0100
0000
,
1000
0000
1000
0000
,
1000
1000
1000
0000
,
0000
0001
0001
0000
,
0001
0000
0010
0000
,
0020
0000
0030
0000
,
0001
0000
0001
0000
,
0000
1000
1000
0000
,
1000
0000
1000
0000
,
0100
0000
0100
0000
,
0100
0000
0010
0000
,
0020
0000
0030
0000
,
0002
0000
0000
0000
,
0003
0000
0000
0000
,
1000
1000
1000
0000
,
0010
0010
0010
0000
,
0100
0100
0100
0000
,
0002
0000
0003
0000
,
0000
1000
1000
0000
,
0001
0001
0000
0000
,
0000
0010
0010
0000
,
0100
0000
0100
0000
,
0010
0010
0010
0000
,
0001
0001
0001
0000
,
1000
1000
1000
0000
,
0200
0000
0300
0000
,
0000
0010
0010
0000
,
0001
0001
0000
0000
,
0000
0010
0010
0000
,
0001
0000
0001
0000
,
2002
0000
0000
3003
,
0000
0000
0000
0000
,
0220
0000
0000
0330
,
0000
0000
0000
0000
,
1001
0000
0000
0000
,
0110
0000
0000
0000
,
2002
0000
3003
0000
,
0001
0001
0001
0000
,
0000
0010
0010
0000
,
0010
0000
0100
0000
,
1000
1000
1000
0000
,
1000
0000
0000
0001
,
0001
0000
0001
0000
,
0100
0100
0100
0000
,
0010
0000
0010
0000
,
1000
1000
1000
0000
,
0000
0001
0001
0000
,
0001
0000
0010
0000
,
0020
0000
0030
0000
,
0001
0001
0001
0000
,
0000
1000
1000
0000
,
0010
0000
0010
0000
,
0100
0000
0100
0000
,
0100
0000
0001
0001
,
0002
0000
0003
0000
,
2000
0000
0000
0000
,
3000
0000
0000
0000
,
0010
0010
0010
0000
,
1000
1000
1000
0000
,
0001
0001
0001
0000
,
0020
0000
0030
0000
,
0000
0001
0001
0000
,
1000
1000
0000
0000
,
0000
0010
0010
0000
,
1000
0000
1000
0000
,
0001
0001
0001
0000
,
1000
1000
1000
0000
,
0010
0010
0010
0000
,
0200
0000
0300
0000
,
0000
0001
0001
0000
,
0010
0010
0000
0000
,
0000
0001
0001
0000
,
1000
0000
1000
0000
,
2002
0000
0000
0000
,
0000
0000
3003
0000
,
1000
0000
1000
0000
,
0010
0000
0010
0000
,
0100
0000
0100
0000
,
0002
0000
0003
0000
,
1000
0000
1000
0000
,
0020
0000
0030
0000
,
0000
1000
1000
0000
,
1000
0000
0001
0000
,
0002
0000
0003
0000
,
0100
0100
0100
0000
,
0000
0010
0010
0000
,
0010
0000
0010
0000
,
1000
0000
1000
0000
,
1000
0000
0001
0001
,
0002
0000
0003
0000
,
0020
0000
0000
0000
,
0030
0000
0000
0000
,
0001
0001
0001
0000
,
1000
1000
1000
0000
,
0010
0010
0010
0000
,
0200
0000
0300
0000
,
0000
0010
0010
0000
,
1000
1000
0000
0000
,
0000
0001
0001
0000
,
0002
0000
0003
0000
,
0010
0010
0010
0000
,
0100
0100
0100
0000
,
1000
1000
1000
0000
,
0002
0000
0003
0000
,
0000
1000
1000
0000
,
0010
0010
0000
0000
,
0000
1000
1000
0000
,
0010
0000
0010
0000
,
0220
0000
0000
0330
,
0000
0000
0000
0000
,
2002
0000
0000
3003
,
0000
0000
0000
0000
,
0110
0000
0000
0000
,
1001
0000
0000
0000
,
0002
0000
0003
0000
,
0100
0100
0100
0000
,
0010
0010
0010
0000
,
1000
1000
1000
0000
,
0001
0001
0001
0000
,
1000
0000
1000
0000
,
0010
0000
0010
0000
,
0100
0100
0100
0000
,
0001
0000
0001
0000
,
0100
0000
0100
0000
,
0110
0000
0000
2002
,
0000
0000
0000
0000
,
3003
0000
0000
0000
;

//---------------dance-single - Novice----------------
#NOTES:
     dance-single:
     Ace Of Hearts (2011):
     Beginner:
     2:
     0.142,0.000,0.009,0.219,0.000: // measure 1
0000
0000
0000
0000
,  // measure 2
0000
0000
0000
0000
,  // measure 3
0000
0000
0000
0000
,  // measure 4
0000
0000
0000
0000
,  // measure 5
0000
0000
0000
0000
,  // measure 6
0000
0000
0000
0000
,  // measure 7
0000
0000
0000
0000
,  // measure 8
0000
0000
0000
0000
,  // measure 9
0000
0000
0000
0000
,  // measure 10
0001
0000
0001
0000
,  // measure 11
0001
0000
0000
0000
,  // measure 12
1000
0000
1000
0000
,  // measure 13
1000
0000
0000
0000
,  // measure 14
0100
0000
0100
0000
,  // measure 15
0100
0000
0000
0000
,  // measure 16
0010
0000
0010
0000
,  // measure 17
0010
0000
0000
0000
,  // measure 18
0001
0000
0001
0000
,  // measure 19
0001
0000
0000
0000
,  // measure 20
1000
0000
1000
0000
,  // measure 21
1000
0000
0000
0000
,  // measure 22
0010
0000
0010
0000
,  // measure 23
0010
0000
0000
0000
,  // measure 24
1000
0000
1000
0000
,  // measure 25
1000
0000
0000
0000
,  // measure 26
0002
0000
0003
0000
,  // measure 27
2000
0000
3000
0000
,  // measure 28
0002
0000
0003
0000
,  // measure 29
2000
0000
3000
0000
,  // measure 30
0020
0000
0030
0000
,  // measure 31
0200
0000
0300
0000
,  // measure 32
0020
0000
0000
0000
,  // measure 33
0030
0000
0000
0000
,  // measure 34
0200
0000
0300
0000
,  // measure 35
0200
0000
0000
0000
,  // measure 36
0300
0000
0000
0000
,  // measure 37
0001
0000
0001
0000
,  // measure 38
1000
0000
1000
0000
,  // measure 39
0010
0000
0010
0000
,  // measure 40
0020
0000
0030
0000
,  // measure 41
2000
0000
0000
0000
,  // measure 42
3000
0000
0000
0000
,  // measure 43
0002
0000
0000
0000
,  // measure 44
0003
0000
0000
0000
,  // measure 45
0100
0000
0100
0000
,  // measure 46
0001
0000
0001
0000
,  // measure 47
1000
0000
1000
0000
,  // measure 48
2000
0000
3000
0000
,  // measure 49
0001
0000
0001
0000
,  // measure 50
0001
0000
0000
0000
,  // measure 51
0010
0000
0010
0000
,  // measure 52
0010
0000
0000
0000
,  // measure 53
0002
0000
0000
0003
,  // measure 54
0000
0000
0000
0000
,  // measure 55
2000
0000
0000
3000
,  // measure 56
0000
0000
0000
0000
,  // measure 57
0010
0000
0000
0000
,  // measure 58
0010
0000
0000
0000
,  // measure 59
2000
0000
0000
0000
,  // measure 60
3000
0000
0000
0000
,  // measure 61
0001
0000
0001
0000
,  // measure 62
0001
0000
0000
0000
,  // measure 63
0010
0000
0010
0000
,  // measure 64
0010
0000
0000
0000
,  // measure 65
0001
0000
0001
0000
,  // measure 66
0001
0000
0000
0000
,  // measure 67
1000
0000
1000
0000
,  // measure 68
1000
0000
0000
0000
,  // measure 69
0020
0000
0030
0000
,  // measure 70
0200
0000
0300
0000
,  // measure 71
0020
0000
0030
0000
,  // measure 72
0200
0000
0300
0000
,  // measure 73
0002
0000
0003
0000
,  // measure 74
2000
0000
3000
0000
,  // measure 75
0002
0000
0000
0000
,  // measure 76
0003
0000
0000
0000
,  // measure 77
0020
0000
0030
0000
,  // measure 78
0020
0000
0000
0000
,  // measure 79
0030
0000
0000
0000
,  // measure 80
0100
0000
0100
0000
,  // measure 81
1000
0000
1000
0000
,  // measure 82
0001
0000
0001
0000
,  // measure 83
0002
0000
0003
0000
,  // measure 84
1000
0000
1000
0000
,  // measure 85
1000
0000
0000
0000
,  // measure 86
0010
0000
0010
0000
,  // measure 87
0010
0000
0000
0000
,  // measure 88
0100
0000
0100
0000
,  // measure 89
0001
0000
0001
0000
,  // measure 90
1000
0000
1000
0000
,  // measure 91
2000
0000
3000
0000
,  // measure 92
0010
0000
0010
0000
,  // measure 93
0010
0000
0000
0000
,  // measure 94
1000
0000
1000
0000
,  // measure 95
1000
0000
0000
0000
,  // measure 96
2002
0000
0000
0000
,  // measure 97
0000
0000
3003
0000
,  // measure 98
0001
0000
0001
0000
,  // measure 99
0001
0000
0000
0000
,  // measure 100
0100
0000
0000
0000
,  // measure 101
0200
0000
0300
0000
,  // measure 102
0010
0000
0000
0000
,  // measure 103
0020
0000
0030
0000
,  // measure 104
0002
0000
0003
0000
,  // measure 105
2000
0000
3000
0000
,  // measure 106
0002
0000
0003
0000
,  // measure 107
2000
0000
3000
0000
,  // measure 108
0020
0000
0030
0000
,  // measure 109
0200
0000
0300
0000
,  // measure 110
0020
0000
0030
0000
,  // measure 111
0200
0000
0300
0000
,  // measure 112
0002
0000
0003
0000
,  // measure 113
0002
0000
0000
0000
,  // measure 114
0003
0000
0000
0000
,  // measure 115
1000
0000
1000
0000
,  // measure 116
0010
0000
0010
0000
,  // measure 117
0100
0000
0100
0000
,  // measure 118
0200
0000
0300
0000
,  // measure 119
0001
0000
0001
0000
,  // measure 120
0001
0000
0000
0000
,  // measure 121
1000
0000
1000
0000
,  // measure 122
2000
0000
3000
0000
,  // measure 123
0010
0000
0010
0000
,  // measure 124
0100
0000
0100
0000
,  // measure 125
0001
0000
0001
0000
,  // measure 126
0002
0000
0003
0000
,  // measure 127
0100
0000
0100
0000
,  // measure 128
0100
0000
0000
0000
,  // measure 129
0010
0000
0010
0000
,  // measure 130
0010
0000
0000
0000
,  // measure 131
2000
0000
0000
3000
,  // measure 132
0000
0000
0000
0000
,  // measure 133
0002
0000
0000
0003
,  // measure 134
0000
0000
0000
0000
,  // measure 135
1000
0000
0000
0000
,  // measure 136
1000
0000
0000
0000
,  // measure 137
0010
0000
0000
0000
,  // measure 138
0010
0000
0000
0000
,  // measure 139
0100
0000
0100
0000
,  // measure 140
0001
0000
0001
0000
,  // measure 141
1000
0000
1000
0000
,  // measure 142
0001
0000
0001
0000
,  // measure 143
0001
0000
0000
0000
,  // measure 144
0020
0000
0030
0000
,  // measure 145
0001
0000
0000
0000
,  // measure 146
0001
0000
0000
0000
,  // measure 147
1000
0000
0000
2002
,  // measure 148
0000
0000
0000
0000
,  // measure 149
3003
0000
0000
0000
;
