#TITLE:Hajimari no Toki;
#SUBTITLE:;
#ARTIST:Rita;
#TITLETRANSLIT:;
#SUBTITLETRANSLIT:;
#ARTISTTRANSLIT:;
#GENRE:Fusion;
#CREDIT:Ace Of Hearts;
#BANNER:Hajimari no Toki - bn.png;
#BACKGROUND:Hajimari no Toki - bg.png;
#LYRICSPATH:;
#CDTITLE:Ace Of Hearts.png;
#MUSIC:Hajimari no Toki.ogg;
#OFFSET:2.360;
#SAMPLESTART:99.700;
#SAMPLELENGTH:12.000;
#SELECTABLE:YES;
#BPMS:0.000=75.500,29.000=151.000,93.000=75.500,129.000=151.000,224.000=75.500,228.000=151.000;
#STOPS:158.000=0.397
;
#BGCHANGES:2.875=Hajimari no Toki Video.avi=1.000=0=0=1=====,
99999=-nosongbg-=1.000=0=0=0 // don't automatically add -songbackground-
;
#KEYSOUNDS:;

//---------------dance-single - Hard----------------
#NOTES:
     dance-single:
     Ace Of Hearts (2011):
     Hard:
     9:
     0.501,0.000,0.007,0.613,0.221:
0000
0000
0000
0000
,
0000
0000
0000
0000
,
0000
0000
0000
0000
,
2000
0000
0000
0000
0000
0000
0000
3200
,
0000
0000
0000
0000
0000
0000
0000
0000
0300
0000
0010
0001
1000
0000
0010
0000
,
0200
0000
0000
0301
2000
0000
0000
0000
0000
3002
0000
0000
0000
0103
0020
0000
,
0000
0000
0000
0000
0000
0000
0000
0000
0000
0000
0000
0000
0030
0000
0000
0000
0000
0000
0000
0000
0000
4000
0004
0000
0000
0000
0000
0000
0000
0000
0000
0000
0000
0000
0000
0000
3003
0000
0000
0000
0000
0000
0000
0000
0000
0000
0000
0000
,
0000
0000
1000
0010
1000
0010
1000
0010
2000
0000
0000
0000
0000
0000
3002
0000
0000
0000
0000
0000
0013
0000
0000
0000
0200
0000
0000
0000
0000
0000
0000
0000
,
1300
0001
0100
0010
0100
0001
1000
0000
,
0100
0010
0100
1000
0001
0100
0001
0000
,
1000
0010
1000
0000
0002
0000
0103
0010
,
1000
0000
0001
0000
0020
0000
0031
1000
0001
1000
0001
1000
0002
0000
0000
0000
,
0103
0010
1000
0001
0100
0010
1000
0000
,
0001
0100
0010
1000
0001
0010
0100
0000
,
1000
0100
0020
0000
0032
0000
1003
0010
,
0100
0001
2000
0000
0000
0000
0000
0000
,
0000
0000
3000
0010
1000
0001
0010
0100
,
1000
0001
1000
0001
0010
0100
0010
0001
,
1000
0000
0001
0000
1000
0000
0010
0000
0100
0000
0010
0000
1000
0000
0001
0010
,
0001
0010
0001
0000
1000
0000
0010
0000
0100
0000
0001
0000
1000
0000
0010
0000
,
0100
0001
1000
0100
0010
0001
0010
0100
,
1000
0001
0100
0010
1000
0001
0010
0100
,
1000
0000
0001
0000
0010
0000
0001
1000
0001
0000
1000
0000
0010
1000
0010
1000
,
0010
0100
0002
0000
0000
0000
0003
0000
,
2000
0000
3002
0000
0023
0000
0130
1000
0100
0020
0000
0430
0000
0000
0300
0000
,
2000
0000
3002
0000
0023
0000
0031
1000
0010
1000
0001
0400
0000
0300
0000
0000
,
0020
0000
2030
0000
3002
0000
0013
0100
1000
0001
0000
0400
0000
0300
0010
0000
,
2000
0000
3001
0000
0020
0000
0031
1000
0010
0100
0010
4000
0000
0000
3000
0000
,
0002
0000
0023
0000
0032
0000
1003
0010
0100
0010
0000
2000
0000
0000
3000
0000
,
0002
0000
0203
0000
0320
0000
1030
0001
1000
0010
1000
0002
0000
0000
0003
0000
,
2000
0000
3200
0000
0320
0000
0130
2000
0000
3002
0000
0403
0000
0000
0302
0000
,
2003
0000
3020
0000
0230
0000
0000
0000
0000
0000
0000
0300
0000
0000
0000
0000
,
0001
1000
0200
0000
0310
0002
0000
2003
,
0000
3020
0000
0000
0000
0000
0030
0000
,
1000
0001
0020
0000
0230
0000
1300
0001
,
1000
0040
0000
0000
0000
0000
0030
0000
,
1000
0000
0001
0000
0010
0000
0001
0000
1000
0000
0040
0000
0000
0030
0000
0000
,
0100
0000
0001
0000
1000
0000
0100
0000
0010
0000
0004
0000
0000
0003
0000
0000
,
1000
0010
0200
0000
0301
1000
0100
0010
,
0001
2000
0000
3001
0101
0000
0100
0010
,
1000
0001
0010
0100
1000
0000
0001
0010
,
0001
1000
0010
0100
0001
0000
1000
0100
,
0020
0000
0032
0000
1003
0010
0100
0001
,
2000
0000
3001
0100
0001
0100
0001
0100
0002
0000
0000
0000
1003
0000
0010
0000
,
0100
0001
1000
0100
0010
0000
0001
1000
,
0010
0100
0001
1000
0100
0000
0010
0001
,
2000
0000
3020
0000
0130
0001
1000
0001
,
0010
0001
0010
0000
0100
0000
1000
0001
1000
0001
1000
0000
0010
0000
0100
0000
,
0001
1000
0100
0010
0001
0000
1000
0010
,
0100
0001
1000
0100
0010
0000
0100
1000
,
0002
0000
0023
0000
0031
1000
0010
0100
,
0002
0000
1003
0100
1000
0100
1000
0100
2000
0000
0000
0000
3010
0000
0100
0000
,
0001
0010
0100
0010
0001
0000
1000
0010
,
0100
0001
0100
0010
1000
0000
0001
0010
,
0100
0000
0020
0000
0031
1000
0010
0100
,
0001
1000
0001
0000
0100
0000
0010
0100
0010
0100
0010
0000
1000
0000
0001
0000
,
0020
0000
0032
0000
2003
3020
0230
0302
,
2003
0000
0000
0000
,
0000
0000
3002
0023
,
0032
0000
0000
0000
0000
0000
0000
0000
0000
0000
0000
0000
0000
0000
1003
0100
,
2000
0000
0000
3002
0000
0000
0203
0000
,
0320
0000
0000
0000
0000
2030
0000
3001
,
0200
0000
0000
0320
0000
0000
1030
0000
0004
0000
0000
0000
0000
0000
0003
0000
,
2000
0000
0000
3020
0000
0000
0130
0000
0002
0000
0000
2003
0000
0000
3010
0000
,
0100
0001
0100
0000
0010
0100
0010
0000
1000
0001
1000
0000
0010
1000
0010
1000
,
0002
0000
0000
0000
,
0000
0000
0000
0000
,
0000
0000
0000
0000
,
0000
0000
0000
0000
,
0003
0000
0000
0000
;

//---------------dance-single - Expert----------------
#NOTES:
     dance-single:
     Ace Of Hearts (2011):
     Challenge:
     11:
     0.798,0.295,0.093,0.342,0.963:
0000
0000
0000
0000
,
0000
0001
0000
0010
0000
0100
0000
1000
0000
0100
0000
0010
0000
0002
0000
0000
0000
2003
0000
0000
0000
3020
0000
0000
0000
0000
0000
0000
0000
0000
0000
0000
,
0200
0000
0000
0000
0000
0000
0000
0000
0000
0000
0000
0330
0102
0000
0000
0000
,
2003
0000
0000
0000
0000
0000
0000
0000
0000
0000
0000
0000
0000
0000
0000
0000
0000
0000
0000
0000
0000
0000
0000
0000
3000
0000
0000
0000
0000
0001
0010
0200
,
0000
0000
0000
0000
0000
0000
0000
0000
0000
0000
1300
0001
0100
0000
0002
0000
,
0013
0000
0000
0100
2000
0000
0000
0000
0000
3002
0000
0000
0000
1003
0020
0000
,
0000
0000
0000
0000
0000
0000
0000
0000
0000
0000
0000
0000
0000
0000
0000
0000
0000
0000
0000
0000
0000
4030
0004
0000
0000
0000
0000
0000
0000
0000
0000
0000
0000
0000
0000
0000
3003
0000
0000
0000
0000
0000
0000
0000
0000
0000
0000
0000
,
0000
0000
0001
0010
0100
1000
0100
0010
0002
0000
0000
0000
0000
0000
0203
0000
0000
0000
0000
0000
0310
0000
0000
0000
2000
0000
0000
0000
3001
0000
0000
0000
,
1000
0010
0100
0010
1000
0000
0001
0010
0001
0000
1000
0010
1000
0000
0010
0100
,
0010
0000
1000
0001
1000
0000
0001
0010
0001
0000
1000
0001
1000
0000
0010
1000
,
0010
0000
0100
0001
0100
0000
0010
0100
0010
0000
1000
0010
1000
0000
0001
0010
,
0001
0000
1000
0001
1000
0000
0010
1000
0010
0100
0010
1000
0020
0000
1030
0001
,
0010
0100
1000
0000
0001
0000
1000
0100
1000
0000
0001
1000
0001
0000
0100
0001
,
0100
0000
0010
1000
0010
0000
0100
0010
0100
0000
0001
0100
0001
0000
1000
0100
,
1000
0000
0001
0010
0001
0000
0010
0100
0010
0000
0001
1000
0001
0000
1000
0010
,
0100
0001
0100
0010
1000
0000
0001
0010
0001
0000
1000
0001
1000
0000
0001
0100
,
0001
0000
0100
0010
0100
0000
0001
0100
0001
0000
1000
0100
1000
0000
0001
0010
,
0001
0000
1000
0010
1000
0000
0001
0100
0001
0000
1000
0001
1000
0000
0100
1000
,
0100
0000
0010
0100
0010
0000
0001
0010
0001
0000
1000
0001
1000
0000
0010
1000
,
0010
0100
0001
0000
1000
0000
0001
0010
0100
0000
0010
0001
1000
0000
0010
0100
,
0001
0000
1000
0100
0010
0000
0100
1000
0001
0000
1000
0010
0100
0000
0001
1000
,
0010
0000
1000
0001
0010
0000
0100
1000
0001
0000
1000
0010
0100
0000
0001
1000
,
0100
0000
1000
0001
0100
0000
0010
1000
0001
0000
0010
0000
0001
0010
0100
1000
,
0001
0010
0001
1000
0020
0000
0000
0000
0000
0000
0000
0000
0030
0000
0000
0000
,
0020
0000
2030
0000
3020
0000
0130
0001
1000
0200
0000
1300
0002
0000
0003
0000
,
2000
0000
3010
0100
0002
0000
1003
0100
0010
0100
1000
0001
0200
0000
0300
0000
,
0020
0000
1030
0001
0200
0000
0310
1000
0001
0020
0000
0031
2000
0000
3010
0000
,
0200
0000
0301
1000
0020
0000
1030
0001
0010
0100
1000
0001
0200
0000
0301
1000
,
0001
0000
1000
0100
1000
0000
0001
0000
0100
0000
0010
0000
0100
0000
0001
0000
1000
0000
0001
0000
0010
0000
0001
0000
1000
0000
0010
0000
0100
0000
0001
0000
,
1000
0100
0010
0001
0010
0100
1000
0001
0100
0010
1000
0001
0010
0100
0010
0001
,
1000
0001
0100
0010
0100
0001
1000
0100
0010
0001
0010
0100
1000
0001
0100
0010
,
1000
0000
0001
0010
0001
0000
1000
0000
0100
0000
1000
0000
0001
0000
1000
0000
0100
0000
0010
0001
0010
0001
2000
0000
0000
3001
0010
0000
0100
0000
1000
0100
,
1000
0000
0001
0100
0001
0000
1000
0000
0002
0000
0000
0000
0000
0000
1003
0000
0010
0000
0000
0000
0200
0000
0000
0000
0000
0000
0000
0000
0301
0000
0000
0000
,
1000
0000
0100
0000
0120
0000
0031
0000
1001
0000
1000
0010
0100
0000
0001
0000
,
1001
0000
1000
0000
0200
0000
0000
1300
0001
0000
0100
0000
0010
0000
1000
0000
,
1100
0000
0100
0000
0020
0000
0031
0000
0101
0000
0100
0010
1000
0000
0001
1000
,
0010
0000
0100
0000
0001
0000
1000
0000
1010
0000
0000
0010
0100
0001
1000
0000
,
1010
0000
0010
0000
1000
0000
0001
0000
0011
0000
0000
0010
0100
1000
0001
0000
,
0101
0000
0100
0000
0010
0000
1000
0000
1100
0000
0000
0100
0010
0001
1000
0001
,
0100
0000
0120
0000
0000
0000
1030
0000
1100
0000
0100
0000
0010
0001
1000
0001
,
0100
0000
0010
0100
0001
0000
0100
0010
1000
0000
0001
0010
0100
0000
0010
0001
,
1000
0000
0001
0100
0010
0000
1000
0001
0010
0000
0100
1000
0001
0000
1000
0010
,
0100
0000
0001
1000
0100
0000
1000
0100
0010
0000
0100
0010
0001
0000
1000
0001
,
0100
0000
0001
1000
0001
0100
0001
1000
0002
0000
0013
0100
1000
0001
0100
0001
,
1000
0000
0001
0010
0100
0000
0010
0001
1000
0000
0010
0100
0001
0000
1000
0100
,
0010
0000
0100
1000
0001
0000
0100
0010
1000
0000
0010
0100
0001
0000
1000
0100
,
0010
0000
0001
0010
0100
0000
1000
0001
0100
0000
0010
1000
0001
0000
0010
0100
,
1000
0001
0100
0000
0010
0000
0100
0001
1000
0100
0010
0001
0010
0100
1000
0001
,
0200
0000
0310
1000
0001
0000
0010
0100
1000
0000
0100
0010
0001
0000
1000
0010
,
0100
0000
0010
1000
0001
0000
0010
0100
1000
0000
0100
0010
0001
0000
1000
0001
,
0100
0000
0010
0100
0001
0000
1000
0001
0010
0000
0100
1000
0001
0000
0100
0010
,
1000
0000
0010
0100
0010
1000
0010
0100
0020
0000
1030
0001
0100
0010
0100
0001
,
2000
0000
3001
0010
0100
0000
0010
0001
1000
0000
0010
0100
0001
0000
1000
0100
,
0010
0000
0100
1000
0001
0000
0100
0010
1000
0000
0001
0100
0010
0000
1000
0001
,
0010
0000
0100
1000
0001
0000
0100
0010
1000
0000
0001
0010
0100
0000
0010
0001
,
1000
0001
0010
0000
0100
0000
1000
0001
0100
0010
1000
0001
0010
0100
1000
0001
,
0200
0000
0000
0000
0000
0000
0000
0000
0320
0000
0000
0000
0000
0000
0000
0000
2030
0000
0000
0000
3002
0000
0000
0000
0013
0000
0001
0010
0100
1000
0100
0010
,
0001
0000
1000
0010
0100
0000
0001
0010
0100
0000
0010
0100
1000
0000
0001
0100
,
0010
0000
0100
0001
1000
0000
0100
0010
0001
0000
0010
0100
1000
0000
0001
0100
,
0010
0000
1000
0001
0010
0000
0001
1000
0100
0000
1000
0001
0100
0000
0010
1000
,
0001
0000
0010
0100
1000
0000
0100
0010
0001
0000
1000
0010
0100
0001
0100
0010
,
1000
0000
0001
0100
0010
0000
1000
0001
0010
0000
0100
1000
0001
0000
0100
0010
,
1000
0000
0001
0100
0010
0000
1000
0001
0010
0000
0001
1000
0100
0000
0010
0001
,
1000
0000
0001
0100
0010
0000
0100
0001
1000
0000
0100
0010
0001
0000
1000
0000
,
0010
0100
0001
0000
1000
0100
0010
0000
0100
1000
0001
0000
0100
0001
1000
0002
,
0200
0000
0000
0000
,
0000
0000
0000
0000
,
0003
0000
0000
0000
,
0000
0000
0000
0000
,
0300
0000
0000
0000
;

//---------------dance-single - Medium----------------
#NOTES:
     dance-single:
     Ace Of Hearts (2011):
     Medium:
     7:
     0.410,0.000,0.000,0.820,0.071:
0000
0000
0000
0000
,
0000
0000
0000
0000
,
0000
0000
0000
0000
,
0002
0000
0000
0000
0000
0000
0000
0003
,
0000
0000
0000
0000
0000
0000
0000
1000
,
0001
0000
0000
0000
0020
0000
0000
0000
0000
0030
0000
0000
0000
0000
0002
0000
,
0000
0000
0000
0000
0000
0000
0000
0003
0000
0000
0000
0000
0000
0000
0000
0000
,
0000
4000
0000
0000
3002
0000
0000
0000
0000
0000
0000
0000
0003
0000
0000
0000
,
1000
0010
2000
0000
3001
0100
0001
0000
,
1000
0100
2000
0000
3001
0010
0001
0000
,
1000
0001
2000
0000
3020
0000
1030
0001
,
1000
0200
0000
0300
,
0010
0001
0020
0000
0031
1000
0001
0000
,
1000
0010
2000
0000
3010
0100
0010
0000
,
1000
0010
2000
0000
3002
0000
1003
0100
,
1000
0002
0000
0000
,
0000
0000
1003
0000
0100
0000
1000
0001
,
1000
0010
1000
0001
,
1000
0000
0100
0000
0010
0000
0001
1000
,
0001
1000
0010
0100
,
0010
0000
1000
0000
0001
0000
0010
0001
,
0010
0100
1000
0001
,
1000
0000
0010
1000
0010
0000
1000
0001
,
1000
0020
0000
0030
,
2000
0000
3002
0000
0023
0000
0031
0000
1000
0010
0000
2000
0000
0000
3000
0000
,
0002
0000
0203
0000
0320
0000
2030
0000
3001
0010
0000
0002
0000
0000
0003
0000
,
0020
0000
0032
0000
2003
0000
3020
0000
1030
0001
0000
0200
0000
0000
0302
0000
,
2003
0000
3200
0000
0320
0000
0031
1000
0002
0000
0000
0023
0000
0000
0030
0000
,
0002
0000
2003
0000
3020
0000
2030
0000
3001
0100
0000
0020
0000
0000
0030
0000
,
2000
0000
3002
0000
0023
0000
0032
0000
1003
0100
0000
2000
0000
0000
3000
0000
,
0002
0000
0203
0000
0320
0000
1030
0002
0000
0013
0000
0200
0000
0000
2300
0000
,
3002
0000
2003
0000
3020
0000
0000
0000
0000
0000
0000
0030
0000
0000
0000
0000
,
2000
3002
0023
0000
0031
2000
0000
3200
,
0000
0320
0000
0000
0000
0000
0030
0000
,
0001
1000
0002
0000
2003
0000
3001
0100
,
0000
0020
0000
0000
0000
0000
0030
0000
,
1000
0010
2000
0000
3001
0020
0000
0030
,
0001
1000
0002
0000
1003
0020
0000
0030
,
1000
0001
2000
0000
3002
0000
1003
0100
,
0000
0020
0000
0000
0030
0000
0001
1000
,
0002
0000
1003
0010
2000
0000
3001
0010
,
0001
0000
1000
0001
2000
0000
3010
1000
,
0010
0000
2000
0000
3001
0010
0001
0000
,
2000
0000
0000
0000
3000
0000
0001
0010
,
0002
0000
1003
0001
1000
0000
0001
0010
,
0002
0000
1003
0100
1000
0000
0001
1000
,
0002
0000
0203
0000
0310
1000
0010
0000
,
0200
0000
0000
0000
0300
0000
0001
0100
,
0001
1000
0001
0100
0001
0000
1000
0100
,
1000
0001
1000
0100
1000
0000
0001
1000
,
0002
0000
0023
0000
0031
0010
0100
0010
,
0002
0000
0000
0000
0003
0000
1000
0100
,
0010
0001
0010
0100
1000
0000
0001
0010
,
0100
1000
0100
0010
0001
0000
1000
0001
,
2000
0000
3020
0000
1030
0010
0100
0010
,
2000
0000
0000
0000
3000
0000
0001
1000
,
0002
0000
2003
0000
3020
1030
0001
1000
,
0020
0000
0000
0000
,
0000
0000
2030
3002
,
0203
0000
0000
0000
0000
0000
0000
0301
,
2000
0000
0000
3002
0000
0000
0023
0000
,
0230
0000
0000
0000
0000
2300
0000
3002
,
0203
0000
0000
0302
2003
0000
0000
0000
,
3200
0000
0000
0320
0000
0000
0032
0000
2003
0000
0000
3002
0000
0000
0023
0000
,
0230
0000
0000
2300
0000
0000
3002
0000
0203
0000
0000
0302
0000
0000
2003
0000
,
3200
0000
0000
0000
,
0000
0000
0000
0000
,
0300
0000
0000
0000
;

//---------------dance-single - Easy----------------
#NOTES:
     dance-single:
     Ace Of Hearts (2011):
     Easy:
     4:
     0.173,0.000,0.007,0.157,0.000:
0000
0000
0000
0000
,
0000
0000
0000
0000
,
0000
0000
0000
0000
,
2000
0000
0000
0000
0000
0000
0000
3000
,
0000
0000
0000
0000
,
0001
0000
0000
0000
0002
0000
0000
0000
0000
0000
0000
0000
0000
0003
0000
0000
,
0000
0000
0000
0000
,
0000
2000
0000
3000
,
0000
0001
0001
0001
,
0000
0010
0010
0010
,
0000
0001
0001
1000
,
1000
2000
0000
3000
,
0000
0010
0010
0010
,
0000
1000
1000
1000
,
0000
0001
0001
0100
,
0100
0200
0000
0000
,
0000
0300
0000
0000
,
0000
0001
0001
0001
,
0000
1000
1000
1000
,
0000
0100
0100
0100
,
0000
0010
0010
0010
,
0000
0001
0001
0001
,
0000
1000
1000
0010
,
0010
0020
0000
0030
,
0000
1000
1000
1000
,
0000
0100
0100
0100
,
0000
1000
1000
1000
,
0000
0001
0001
0001
,
0000
0100
0100
0100
,
0000
0010
0010
0010
,
0000
1000
1000
0001
,
0001
0000
0000
0000
0002
0000
0000
0000
0000
0000
0000
0003
0000
0000
0000
0000
,
0000
1000
0000
1000
,
0000
2000
0000
3000
,
0000
0100
0000
0100
,
0000
0200
0000
0300
,
0000
0020
0000
0030
,
0000
0002
0000
0003
,
0000
1000
0000
1000
,
0000
1000
0000
0000
,
0010
0010
0010
0000
,
1000
1000
1000
0000
,
0001
0001
0100
0100
,
0200
0000
0300
0000
,
0010
0010
0010
0000
,
1000
1000
1000
0000
,
0001
0001
0010
0010
,
0020
0000
0030
0001
,
0001
0001
0001
1000
,
1000
1000
1000
0010
,
0010
0010
0100
0100
,
0200
0000
0300
0001
,
0001
0001
0001
1000
,
1000
1000
1000
0100
,
0100
0100
0010
0010
,
0020
0000
0030
0001
,
0001
0000
0001
0000
1000
1000
1000
0000
,
2000
0000
0000
0000
,
3000
0000
0001
0000
,
0002
0000
0003
0000
,
0200
0000
0300
0000
,
0002
0000
0003
0000
,
2000
0000
3000
0000
,
0010
0000
0010
0000
,
1000
0000
1000
0000
,
2002
0000
0000
0000
,
0000
0000
0000
0000
,
3003
0000
0000
0000
;

//---------------dance-single - Novice----------------
#NOTES:
     dance-single:
     Ace Of Hearts (2011):
     Beginner:
     2:
     0.125,0.000,0.007,0.193,0.000:
0000
0000
0000
0000
,
0000
0000
0000
0000
,
0000
0000
0000
0000
,
0002
0000
0000
0000
0000
0000
0000
0003
,
0000
0000
0000
0000
,
2000
0000
0000
0000
0000
0000
0000
3000
,
0000
0000
0000
0000
,
0000
0001
0000
0000
,
0000
1000
0000
1000
,
0000
0010
0000
0010
,
0000
1000
0000
1000
,
0000
2000
0000
3000
,
0000
0001
0000
0001
,
0000
0010
0000
0010
,
0000
0001
0000
0001
,
0000
0002
0000
0000
,
0000
0003
0000
0000
,
0000
2000
0000
3000
,
0000
0020
0000
0030
,
0000
2000
0000
3000
,
0000
0002
0000
0003
,
0000
0020
0000
0030
,
0000
0002
0000
0003
,
0000
2000
0000
3000
,
0000
0001
0000
0001
,
0000
1000
0000
1000
,
0000
0100
0000
0100
,
0000
0010
0000
0010
,
0000
0001
0000
0001
,
0000
1000
0000
1000
,
0000
0010
0000
0010
,
0000
0000
0000
0000
0020
0000
0000
0000
0000
0000
0000
0030
0000
0000
0000
0000
,
0000
1000
0000
1000
,
0000
2000
0000
3000
,
0000
0001
0000
0001
,
0000
0002
0000
0003
,
0000
0100
0000
0100
,
0000
0001
0000
0001
,
0000
1000
0000
1000
,
0000
2000
3000
0000
,
0001
0000
0001
0000
,
0100
0000
0100
0000
,
0010
0000
0010
0000
,
0020
0000
0030
0000
,
1000
0000
1000
0000
,
0001
0000
0001
0000
,
0010
0000
0010
0000
,
0020
0000
0030
0000
,
0001
0001
0001
0000
,
1000
1000
1000
0000
,
0010
0000
0010
0000
,
0020
0000
0030
0000
,
1000
1000
1000
0000
,
0100
0100
0100
0000
,
0010
0000
0010
0000
,
0020
0000
0030
0000
,
0001
0000
0001
0000
,
0002
0000
0000
0000
,
0003
0000
0000
0000
,
2000
0000
3000
0000
,
0200
0000
0300
0000
,
2000
0000
3000
0000
,
0002
0000
0003
0000
,
0200
0000
0300
0000
,
0001
0000
0001
0000
,
2002
0000
0000
0000
,
0000
0000
0000
0000
,
3003
0000
0000
0000
;

//---------------dance-double - Hard----------------
#NOTES:
     dance-double:
     Ace Of Hearts (2011):
     Hard:
     9:
     0.483,0.000,0.014,0.642,0.146: // measure 1
00000000
00000000
00000000
00000000
,  // measure 2
00000000
00000000
00000000
00000000
,  // measure 3
00000000
00000000
00000000
00000000
,  // measure 4
20000000
00000000
00000000
00000000
00000000
00000000
00000000
32000000
,  // measure 5
00000000
00000000
00000000
00000000
00000000
00000000
00000000
00000000
03000000
00000000
00100000
00010000
00100000
00000000
00010000
00000000
,  // measure 6
10000000
00000000
00000000
00010000
00020000
00000000
00000000
00000000
00030000
02000000
00000000
00000000
03000000
00001000
00020000
00000000
,  // measure 7
00000000
00000000
00000000
00000000
00000000
00000000
00030000
00000400
00000000
00000000
00000000
00000000
00000300
00000000
00000000
00000000
,  // measure 8
00000000
00004000
00000000
00000000
00003002
00000000
00000000
00000023
00000000
00000000
00000130
00000000
00002000
00000000
00000000
00000000
,  // measure 9
00003010
00010000
00000100
00010000
00001000
00100000
00001000
00000000
,  // measure 10
00100000
00001000
00010000
00000010
00000100
00000001
00001000
00000000
,  // measure 11
00000100
00010000
00002000
00000000
02003000
00000000
03010000
10000000
,  // measure 12
01000000
00000000
00100000
00000000
00010000
00000000
10000000
00100000
10000000
00000000
00010000
00000000
02000000
00000000
00000000
00000000
,  // measure 13
03001000
00010000
00000100
00001000
00000001
00000100
00000010
00000000
,  // measure 14
00001000
00000100
00010000
01000000
10000000
00010000
01000000
00000000
,  // measure 15
00100000
10000000
00020000
00000000
00230000
00000000
00301000
00010000
,  // measure 16
00000100
00000010
00000002
00000000
00000000
00000000
00000000
00000000
,  // measure 17
00000003
00000000
00001000
00000010
00000100
00000010
00010000
00001000
,  // measure 18
00100000
00010000
10000000
00100000
01000000
00010000
10000000
01000000
,  // measure 19
00100000
00000000
00001000
00000000
00010000
00000000
00000100
00000000
00001000
00000000
00000001
00000000
00000100
00000000
00000001
00001000
,  // measure 20
00000001
00001000
00000100
00010000
00001000
01000000
00100000
01000000
,  // measure 21
00010000
10000000
01000000
00100000
00001000
00010000
00000100
00010000
,  // measure 22
00000010
00001000
00000001
00000100
00000010
00001000
00000001
00000010
,  // measure 23
00000100
00000000
00010000
00000000
00001000
00000000
00010000
00001000
00010000
00000000
00000100
00000000
00010000
00000000
00001000
00000000
,  // measure 24
01000000
00010000
20000000
00000000
00000000
00000000
30000000
00000000
,  // measure 25
00200000
00000000
20300000
00000000
30020000
00000000
00130000
01000000
10000000
00010000
00000000
02000000
00000000
00000000
03000000
00000000
,  // measure 26
00002000
00000000
00023000
00000000
00030200
00000000
00001300
00000001
00000100
00000010
00000100
00000002
00000000
00000003
00000000
00000000
,  // measure 27
00002000
00000000
00003200
00000000
00020300
00000000
00031000
00100000
00001000
00010000
00000000
00004000
00000000
00000000
00103000
00000000
,  // measure 28
01000000
00000000
10000000
00000000
00020000
00000000
01030000
00010000
10000000
01000000
00100000
00020000
00000000
00000000
00030000
00000000
,  // measure 29
02000000
00000000
03002000
00000000
00023000
00000000
00030010
00001000
00000010
00000100
00000000
00000002
00000000
00000003
00000000
00000000
,  // measure 30
00002000
00000000
00003200
00000000
00020300
00000000
00031000
00100000
00001000
00100000
01000000
20000000
00000000
00000000
30000000
00000000
,  // measure 31
00200000
00000000
20300000
00000000
30020000
00000000
00130000
00002000
00000000
00023000
00000000
00030200
00000000
00000000
00000310
00000000
,  // measure 32
00000001
00000000
00001000
00000000
00000020
00000000
00000000
00000000
00000000
00000000
00000000
00000030
00000000
00000000
00000000
00000000
,  // measure 33
00020000
00032000
00203000
00000000
00310000
20000000
00000000
32000000
,  // measure 34
00000000
03400000
00000000
00000000
00000000
00000000
00300000
00000000
,  // measure 35
00010000
10000000
00200000
00000000
02300000
00000000
03001000
00010000
,  // measure 36
00000100
00004000
00000000
00000000
00000000
00000000
00003000
00000000
,  // measure 37
00000010
00001000
00000001
00000100
00000010
00020000
00000000
00030000
,  // measure 38
00001000
00100000
00010000
10000000
01000000
00200000
00000000
00300000
,  // measure 39
01000000
10000000
00020000
00000000
01030000
00001000
00010000
00001000
,  // measure 40
00100000
00002000
00000000
00103000
01100000
00000000
01000000
10000000
,  // measure 41
00010000
00100000
00001000
00010000
00000100
00000000
00000010
00000001
,  // measure 42
00001000
00000100
00010000
00001000
01000000
00000000
00100000
10000000
,  // measure 43
00020000
00000000
00230000
00000000
00301000
00010000
00000100
00001000
,  // measure 44
00000002
00000000
00001003
00000010
00001000
00000000
00000001
00000000
00000200
00000000
00000000
00000000
00000310
00000000
00010000
00000000
,  // measure 45
00000100
00100000
00001000
01000000
00100000
00000000
10000000
00010000
,  // measure 46
00100000
00001000
01000000
00001000
00010000
00000000
00001000
00100000
,  // measure 47
00001000
00000000
00020000
00000000
00030010
00001000
00000001
00000100
,  // measure 48
00000040
00004000
00000000
00000000
00000000
00000000
00000000
00000000
00003030
00000000
00000000
00000000
00000010
00000000
00010000
00000000
,  // measure 49
00001000
00100000
01000000
10000000
00010000
00000000
01000000
00001000
,  // measure 50
00010000
00000100
00001000
00000001
00000100
00000000
00000010
00001000
,  // measure 51
00000200
00000000
00020300
00000000
00031000
00100000
00010000
10000000
,  // measure 52
00200000
00000000
01300000
00010000
01000000
00000000
00100000
00000000
20000000
00000000
00000000
00000000
30010000
00000000
00100000
00000000
,  // measure 53
00001000
00010000
00000100
00000010
00000001
00000000
00001000
00000010
,  // measure 54
00010000
00001000
00100000
01000000
10000000
00000000
00100000
01000000
,  // measure 55
00020000
00000000
20030000
00000000
31000000
00100000
00001000
01000000
,  // measure 56
00040000
04000000
00000000
00000000
00000000
00000000
00000000
00000000
03030000
00000000
00000000
00000000
00010000
00000000
10000000
00000000
,  // measure 57
01000000
00000000
00200000
00000000
00302000
00023000
00030020
00002030
,  // measure 58
00003001
00000010
00000100
00000010
00000001
00001000
00000010
00000100
,  // measure 59
00000010
00010000
00001000
00100000
00020000
00000000
20030000
00000000
,  // measure 60
32000000
00000000
00000000
00000000
00000000
00000000
00000000
00000000
00000000
00000000
00000000
00000000
03000000
00000000
10000000
00010000
,  // measure 61
20000000
00000000
00000000
32000000
00000000
00000000
03200000
00000000
,  // measure 62
00302000
00000000
00000000
00000000
00003000
00020000
00000000
00030010
,  // measure 63
00002000
00000000
00000000
00003002
00000000
00000000
00000013
00000000
00000400
00000000
00000000
00000000
00000000
00000000
00000300
00000000
,  // measure 64
00000020
00000000
00000000
00000032
00000000
00000000
00001003
00000000
00000020
00000000
00000000
00020030
00000000
00000000
00031000
00000000
,  // measure 65
00200000
00000000
00000000
02300000
00000000
00000000
13000000
00000000
00020000
00000000
00000000
02030000
00000000
00000000
03001000
00000000
,  // measure 66
02002000
00000000
00000000
00000000
,  // measure 67
00000000
00000000
00000000
00000000
,  // measure 68
00000000
00000000
00000000
00000000
,  // measure 69
00000000
00000000
00000000
00003000
,  // measure 70
03100000
00000000
00000000
00000000
;
