#TITLE:Dangerous;
#SUBTITLE:(Nightcore Mix);
#ARTIST:Cascada;
#TITLETRANSLIT:;
#SUBTITLETRANSLIT:;
#ARTISTTRANSLIT:;
#GENRE:Techno;
#CREDIT:Ace Of Hearts;
#BANNER:Dangerous - bn.png;
#BACKGROUND:Dangerous - bg.png;
#LYRICSPATH:;
#CDTITLE:Ace Of Hearts.png;
#MUSIC:Dangerous (Nightcore Mix).ogg;
#OFFSET:-0.020;
#SAMPLESTART:28.800;
#SAMPLELENGTH:12.000;
#SELECTABLE:YES;
#BPMS:0.000=181.300;
#STOPS:295.000=0.675
;
#BGCHANGES:;
#FGCHANGES:;
#KEYSOUNDS:;

//---------------dance-single - Footswitch----------------
#NOTES:
     dance-single:
     Ace Of Hearts (2011):
     Hard:
     10:
     0.559,0.333,0.321,0.398,0.028:
0000
0000
0000
0000
,
0000
0000
0000
0000
,
0000
0000
0001
0011
,
0000
0000
0010
0100
1000
0001
0020
0000
,
0430
0300
1000
1001
,
0000
0000
0001
0100
0000
0010
0000
1000
,
0001
0000
0100
0000
0000
0000
0000
0000
0010
0000
0000
0000
0410
0000
0000
0300
,
0000
0000
0100
0001
1000
0100
0020
0000
,
0430
0000
0300
0000
,
0000
2002
0000
0000
,
0000
3003
1000
1010
,
0000
0000
0010
0100
0001
1000
0200
0000
,
0020
0000
0000
0000
0330
0000
0000
0000
0010
0000
0000
0000
0014
0000
0000
0003
,
0000
0000
0001
0100
0000
0010
0000
2000
,
0000
0000
3010
0100
0001
0400
0000
0300
,
M0MM
0000
0100
1000
0010
0100
0001
1000
,
0100
0010
0100
1000
0001
0100
0040
0000
,
0030
MM0M
0010
0100
1000
0001
0100
0010
,
1000
0100
0010
0001
0010
0400
0000
0300
,
M0MM
0000
0100
0001
1000
0100
0010
0100
,
1000
0000
0010
0000
1000
0000
0001
0000
0400
0040
0000
0000
0000
0000
0000
0000
,
0000
0000
0330
0000
0000
0000
0010
0100
,
0001
0100
M0MM
0100
1000
0100
0010
0001
,
1000
0010
MM0M
0010
0001
0000
200M
0000
,
3M01
0000
02M1
0000
031M
2M00
00M0
000M
,
0M00
000M
30M0
0M00
M000
0001
0100
0010
,
1000
0200
0000
0000
0010
0000
1300
0001
,
0100
0020
0000
1030
1000
0001
0010
0100
,
1000
0002
0000
0000
1000
0000
0003
1000
,
0010
1000
0000
0001
0010
0100
1000
1000
,
0010
0100
M0MM
0100
0010
0100
1000
0001
,
0100
0010
MM0M
0010
0001
0000
0M20
0000
,
M031
0000
2001
000M
3100
M020
000M
0000
,
M000
0000
M030
0M00
00M0
0001
0010
0100
,
1000
0200
0000
0000
0310
0000
0010
0001
,
1000
0000
0001
0000
0400
0040
0000
0000
0000
0000
0000
0000
0000
0000
0000
0000
,
0000
0000
0000
0000
,
0000
0000
0330
M00M
00MM
MM00
1000
1000
,
0001
0010
0100
0000
1100
0000
1001
0000
,
0100
0010
1000
0000
2010
00M0
3010
0010
,
1000
0001
0010
0000
0110
0000
1100
0000
,
1000
0001
0100
0000
0010
0010
1000
0001
,
0100
0010
1000
0000
1100
0000
0110
0000
,
0010
0001
1000
0000
2100
0M00
3100
0100
,
0010
0001
1000
0000
1200
0000
00M0
0000
,
M000
000M
M300
00M0
0M00
0010
0001
0001
,
1000
0010
0100
0000
0101
0000
1001
0000
,
1000
0100
0010
0000
0021
000M
0031
0001
,
1000
0010
0100
0000
0101
0000
0110
0000
,
0010
1000
0001
0000
0100
0100
0010
1000
,
0001
0010
0100
0000
1100
0000
1001
0000
,
0001
0100
0010
0000
1020
M000
1030
1000
,
0001
0000
0010
0000
0004
4000
0000
0000
0000
0000
0000
0000
0000
0000
0000
0000
,
0000
0000
3003
M0M0
00MM
M00M
0MM0
M00M
,
MM00
0000
1000
2020
,
3030
0000
0010
0100
0001
1000
0200
0000
,
0020
0000
0330
0010
0001
0000
0202
0000
,
0303
0100
0010
1000
0000
0002
0000
1003
,
0010
0100
0000
0000
0001
0000
2002
0000
,
3003
1000
0010
0100
0001
1000
0002
0000
,
0020
0000
M000
0M00
M033
000M
0M00
0000
,
00M0
0000
M000
000M
0M00
00M0
M000
0000
,
000M
0000
0001
2002
,
3003
0000
1000
0010
0200
0000
0002
0000
,
0010
0303
1000
2002
,
3003
0000
0001
0100
0000
0020
0000
0130
,
0000
0000
0010
1000
0001
0040
0000
0030
,
MM0M
0000
0010
0100
0001
1000
0100
0010
,
0001
1000
0010
0100
0001
0400
0000
0300
,
M0MM
0000
0100
1000
0001
0010
0001
1000
,
0010
0100
0010
1000
0001
0040
0000
0030
,
MM0M
0000
0010
0100
0001
1000
0100
0010
,
0100
0000
1000
0001
1000
0000
000M
0000
M000
0000
0010
0100
0010
0000
1000
0010
,
1000
0000
0000
0000
0001
0000
0000
0000
0010
0000
0000
0000
000M
0000
0000
0000
00M0
0000
0000
0000
0M00
0000
0000
0000
M002
0003
0000
0000
0000
0000
0000
0000
,
1001
0001
0100
0001
1000
0100
M0MM
0100
,
0010
0000
02M0
0000
M301
0000
0M21
000M
,
M031
02M0
000M
M000
00M0
000M
03M0
0M00
,
M000
0010
1000
0100
1000
0010
MM0M
0000
,
0010
0001
1000
0001
1000
0020
0000
0130
,
0001
1000
0100
0010
0001
2000
0000
0000
,
0001
0000
3000
0001
0100
0001
0000
1000
,
0100
0010
0001
1000
0010
0100
M0MM
0100
,
0010
0100
1000
0001
0100
0010
MM0M
0010
,
0001
0000
20M0
0000
301M
0000
M102
0M00
,
10M3
002M
0M00
M000
000M
M000
0M30
00M0
,
000M
1000
0010
0100
0001
0020
0000
0130
,
0100
0000
1000
0000
0001
0000
0100
0000
0001
0000
1000
0000
0040
0400
0000
0000
,
0000
0000
0000
0000
,
0000
0000
0000
0000
0000
0000
0330
0MM0
,
M00M
00MM
MM00
0MM0
00MM
0000
1001
0000
,
0110
0000
1010
0000
1000
0001
0010
0000
,
0120
0M00
0130
0100
1000
0001
0100
0000
,
0110
0000
0101
0000
0001
1000
0100
0000
,
0010
0010
0100
1000
0001
1000
0010
0000
,
0110
0000
0101
0000
0001
1000
0100
0000
,
0210
00M0
0310
0010
0001
1000
0010
0000
,
1010
0000
0101
0000
0001
0010
0100
0000
,
0000
0010
0001
1000
0010
0100
M0MM
0000
,
0000
0100
0010
0100
1000
0010
MM0M
0000
,
0000
002M
0130
2100
,
3010
02M0
000M
M000
00M0
M000
030M
00M0
,
M000
0001
0100
0010
1000
0010
MM0M
0000
,
0000
0000
0000
0010
000M
1000
0M00
0010
,
M000
0000
0001
0000
00M0
0000
1000
0000
0000
0000
0MM0
0000
004M
0400
M000
0000
,
000M
M000
000M
M000
000M
M330
2MM2
0000
,
0000
00M0
0M00
3003
,
M00M
0000
0000
0000
;

//---------------dance-single - Bracketing----------------
#NOTES:
     dance-single:
     Ace Of Hearts (2011):
     Challenge:
     12:
     0.872,0.370,0.984,0.649,0.314: // measure 1
0000
0000
0000
0000
,  // measure 2
0000
0000
0000
0000
,  // measure 3
0000
0000
2000
0011
,  // measure 4
3000
0000
1000
0100
0010
0001
2000
0000
,  // measure 5
3004
0003
0002
1100
,  // measure 6
0003
0000
0001
0020
0000
0101
0000
0031
,  // measure 7
2000
3001
0000
0000
0200
0000
0011
0000
,  // measure 8
0300
0000
0100
0001
0010
0100
2000
0000
,  // measure 9
3040
0000
0030
0000
,  // measure 10
0000
0220
0000
0000
,  // measure 11
0000
0330
0020
1100
,  // measure 12
0030
0000
0010
1000
0100
0010
0002
0000
,  // measure 13
1100
0003
2000
0011
,  // measure 14
3000
0000
0001
0020
0000
0230
0000
2300
,  // measure 15
0000
3010
1010
1000
1001
0001
0010
0001
,  // measure 16
1000
0010
0110
0100
0101
0001
1000
0100
,  // measure 17
0010
0001
1001
1000
1010
0010
0100
0001
,  // measure 18
1000
0001
0011
0010
0110
0100
1000
0001
,  // measure 19
0100
0000
0001
0000
1000
0010
1000
0001
0010
0100
0010
0001
1000
0010
0100
0001
,  // measure 20
1000
0100
1000
0001
0100
0010
1000
0001
0010
0100
0010
0001
1000
0001
0100
0010
,  // measure 21
1000
0001
0100
0001
1000
0100
0010
0001
1000
0100
1000
0100
1000
0001
1000
0001
,  // measure 22
0100
0010
0100
0010
1000
0000
0000
0000
MMMM
0000
0000
0000
0002
0000
0013
0000
,  // measure 23
0100
1000
1001
0001
0101
0100
0010
1000
,  // measure 24
0001
0100
0110
0010
1010
1000
M200
031M
,  // measure 25
0M02
10M3
1M20
013M
0M01
002M
0M00
M000
,  // measure 26
000M
M000
0M30
00M0
000M
0100
1000
0001
,  // measure 27
0100
0010
1010
1000
1001
0001
0010
0001
,  // measure 28
0100
0010
0000
0010
0100
0001
0000
0001
,  // measure 29
1000
0010
1000
0001
0010
0001
1000
0010
,  // measure 30
0100
0001
1000
0100
1000
0001
0100
0010
,  // measure 31
1000
0001
0011
0010
0110
0100
1000
0001
,  // measure 32
0100
0010
0110
0100
0101
0100
0M10
10M0
,  // measure 33
M001
100M
12M0
M310
00M1
020M
M000
00M0
,  // measure 34
000M
M000
03M0
0M00
M000
0001
0010
0001
,  // measure 35
1000
0010
0110
0100
0101
0001
1000
0100
,  // measure 36
0010
0000
0001
0000
1000
0010
1000
0001
0010
0001
1000
0010
0100
0001
1000
0100
,  // measure 37
1000
0001
0100
0001
1000
0100
0010
0001
0010
0100
1000
0001
0100
0010
0100
0001
,  // measure 38
1000
0001
0100
0010
2M0M
0000
0MM0
0000
00MM
0000
0MM0
3000
1001
0000
0001
0000
,  // measure 39
0101
0000
0100
0000
0220
0000
0000
0330
2020
0000
0000
3030
0202
0000
0000
0303
,  // measure 40
0110
0000
0010
0000
2020
0000
0000
3030
2200
0000
0000
3300
0110
0000
0010
0000
,  // measure 41
0011
0000
0001
0000
2002
0000
0000
3003
2020
0000
0000
3030
2002
0000
0000
3003
,  // measure 42
0011
0000
0010
0000
0220
0000
0000
0330
1100
0000
1000
0000
1001
0000
0001
0000
,  // measure 43
0101
0000
0100
0000
2020
0000
0000
3030
0202
0000
0000
0303
2002
0000
0000
3003
,  // measure 44
1100
0000
0100
0000
0220
0000
0000
0330
0022
0000
0000
0033
1001
0000
1000
0000
,  // measure 45
1001
0001
1002
00M0
0M00
M000
00M0
0M00
,  // measure 46
M000
00M0
0M03
M00M
0000
1000
1001
0001
,  // measure 47
0101
0100
0120
0000
1100
0030
0110
0000
,  // measure 48
1010
1000
1002
0000
1100
0003
4001
0000
,  // measure 49
0011
0000
3102
0000
1100
0003
1001
0000
,  // measure 50
0011
0010
0110
0000
0014
0000
1100
0000
,  // measure 51
1010
0000
2103
0000
0011
3000
1001
0000
,  // measure 52
0201
0310
2010
0000
0101
3000
1001
0001
,  // measure 53
0101
0000
0100
0000
0010
0100
0001
1000
0100
0010
0100
1000
0001
0100
0010
1000
,  // measure 54
0001
0010
0001
1000
04M0
0000
000M
0000
M000
0000
00M0
0000
M300
0000
0M00
0000
,  // measure 55
000M
0000
2000
0011
,  // measure 56
3000
0000
1000
0001
0100
0010
2000
0000
,  // measure 57
0200
0000
3300
1000
0020
0000
1100
0000
,  // measure 58
0030
0010
1000
0001
0000
0010
0000
0001
,  // measure 59
1000
0100
0000
0000
2000
0000
0101
0000
,  // measure 60
3000
1000
0001
0100
0010
1000
0002
0000
,  // measure 61
0200
0000
0303
M000
0M00
00M0
0M00
00M0
,  // measure 62
000M
M000
000M
0M00
00M0
M000
000M
00M0
,  // measure 63
0M00
M000
00M0
0000
0002
0000
1100
0000
,  // measure 64
0003
0000
0001
1000
0002
0000
1010
0000
,  // measure 65
1100
0003
2000
0101
,  // measure 66
3000
0000
0001
0010
0000
0200
0000
2300
,  // measure 67
0000
0000
3020
0000
1030
0004
0000
0000
,  // measure 68
0003
0000
1000
0010
0100
0002
0000
1003
,  // measure 69
0200
0000
0320
0000
0130
4000
0000
0000
,  // measure 70
3000
0000
0001
0100
0000
0020
0000
1030
,  // measure 71
0000
0000
0000
0000
0001
1000
0010
0100
0010
1000
0001
0010
0001
1000
0010
0100
,  // measure 72
0001
1000
0100
0010
0001
1000
0010
0100
0001
0100
0010
1000
0001
0010
0100
1000
,  // measure 73
0001
0000
0100
0001
1000
0000
0010
0000
0010
0000
1000
0001
0010
0000
0100
1000
,  // measure 74
0100
1000
0001
0000
0201
0000
0000
0000
0300
0000
0010
0000
100M
0000
0MM0
0000
,  // measure 75
1001
0001
0100
0010
1000
0010
1010
1000
,  // measure 76
1001
0001
010M
0M10
10M0
M100
012M
0M31
,  // measure 77
10M0
0M20
M000
000M
0M00
000M
M030
00M0
,  // measure 78
0M00
0100
0001
0010
0100
1000
1001
0001
,  // measure 79
0101
0100
0010
1000
0100
0110
0000
0010
,  // measure 80
0100
1100
0000
1000
0001
0101
0100
0010
,  // measure 81
1000
0001
0010
0100
1000
0001
0100
0010
,  // measure 82
1000
0001
0010
0001
0100
M14M
0M00
003M
,  // measure 83
00M0
1000
0001
0010
0100
41MM
0M00
30M0
,  // measure 84
M000
0000
1M1M
M010
M11M
0M00
1MM1
M010
,  // measure 85
100M
02M0
M000
00M0
000M
M300
0M00
000M
,  // measure 86
00M0
0100
0010
0001
1000
0001
0101
0100
,  // measure 87
0110
0000
0010
0000
1000
0000
1000
0000
0100
0000
0010
0000
0001
1000
0001
0100
,  // measure 88
0001
1000
0100
0010
0001
0010
0100
1000
0001
0100
0010
0100
0001
1000
0100
1000
,  // measure 89
0001
0100
0010
1000
0001
0010
0100
1000
0100
0010
0001
1000
0M20
0000
000M
0000
,  // measure 90
M000
0M00
003M
00M0
M00M
00M0
1M10
00M0
,  // measure 91
M101
0M00
0110
00M0
M101
0M01
10M1
0M00
,  // measure 92
2200
0000
0000
3300
1001
0000
0001
0000
0101
0000
0100
0000
0120
0000
0000
0000
,  // measure 93
1100
0000
0000
0030
0110
0000
0000
0000
0101
0000
0001
0000
1001
0000
M00M
0000
,  // measure 94
4100
0000
0011
0000
0101
3000
1001
0000
,  // measure 95
0102
0000
1010
0003
0011
0010
0210
0000
,  // measure 96
1010
0300
0140
0000
0101
0030
0210
0000
,  // measure 97
1010
0300
1001
0000
0101
0100
M010
0M00
,  // measure 98
00M0
100M
0010
0100
0001
1000
1100
0100
,  // measure 99
0110
0010
0100
1000
0001
0100
0110
0010
,  // measure 100
1010
1000
0M01
M010
00M1
010M
M120
1M30
,  // measure 101
00M1
002M
M000
0M00
000M
M030
00M0
000M
,  // measure 102
0M00
0001
1000
0010
0100
0002
0000
0003
,  // measure 103
0000
0000
0000
1000
0010
0210
0000
0301
,  // measure 104
0000
0000
2000
0000
3100
0000
0010
0000
0001
0000
1000
0000
0010
1000
0001
0010
,  // measure 105
0100
0010
0001
1000
0010
0100
0010
1000
0001
0010
0100
1000
00M2
0000
1M03
0000
,  // measure 106
M02M
0M00
M03M
00M0
MM0M
00M0
MM0M
0000
,  // measure 107
0MM0
0000
0000
0000
;

//---------------dance-single - Medium----------------
#NOTES:
     dance-single:
     Ace Of Hearts (2011):
     Medium:
     8:
     0.467,0.296,0.014,0.565,0.007:
0000
0000
0000
0000
,
0000
0000
0000
0000
,
0000
0000
1000
0100
,
0000
0000
1000
0001
1000
0010
2000
0000
,
3001
0000
0010
0001
,
0000
0000
1000
0020
0000
1030
0000
0010
,
0100
0000
0001
1000
,
0000
0000
0001
0010
0001
0010
0200
0000
,
2000
0000
3300
0000
,
0000
2002
0000
0000
,
0000
3003
0001
0100
,
0000
0000
0001
1000
0010
1000
0002
0000
,
0200
0303
0001
1000
,
0000
0000
0001
0010
0000
0002
0000
2003
,
0000
0000
3020
0000
1030
0002
0000
0000
,
0003
0000
1000
0010
1000
0010
0000
1000
,
0001
0000
0020
0000
0031
2000
0000
0000
,
3000
0000
0010
1000
0000
0010
0000
0200
,
0000
0000
0302
0000
1003
0020
0000
0030
,
0000
0000
1000
0002
0000
0013
0000
0001
,
2000
0000
0000
0000
0000
0000
0000
0000
3004
4000
0000
0000
0000
0000
0000
0000
,
0000
0000
3003
0000
0000
0000
0001
0100
,
0001
0200
0000
0300
0000
0010
1000
0001
,
1000
0010
0000
0000
0000
0000
2000
0000
,
3001
0000
0M20
0000
M031
2000
00M0
0000
,
000M
0000
3000
0000
0000
0001
0010
0100
,
0010
0002
0000
0003
0000
0000
0000
1000
,
0010
2000
0000
3001
0000
0010
0000
0001
,
0000
2000
0000
0000
0000
0000
0000
0000
,
0000
3000
0000
0000
0000
0001
0100
0010
,
0100
0001
0000
0000
0000
1000
0010
0100
,
0010
1000
0000
0000
0000
0000
0002
0000
,
1003
0000
0M20
0000
103M
0002
M000
0000
,
00M0
0000
0003
0000
0000
1000
0001
0010
,
0001
2000
0000
3000
0000
0000
0000
0001
,
0000
0020
0000
0031
0000
1000
0000
0020
,
0000
0000
2030
0000
,
0000
0000
300M
00M0
0M00
M000
0001
0100
,
0010
0100
0001
0000
1000
0000
0100
0000
,
0010
0001
0010
0000
0002
0000
1003
0010
,
0100
0010
1000
0000
0001
0000
0010
0000
,
0001
1000
0001
0000
1000
0010
1000
0001
,
0100
0001
1000
0000
0001
0000
0010
0000
,
0100
1000
0100
0000
0020
0000
0031
1000
,
0010
1000
0001
0000
0200
0000
0000
0000
,
M00M
0000
0300
0000
0000
0001
0100
0010
,
0100
0001
1000
0000
0010
0000
1000
0000
,
0001
0010
0001
0000
2000
0000
3001
0010
,
0100
0010
0001
0000
1000
0000
0010
0000
,
0100
0001
0100
0000
0010
1000
0001
1000
,
0001
1000
0010
0000
0100
0000
0001
0000
,
1000
0100
1000
0000
0002
0000
1003
0010
,
0100
0000
0010
0000
4000
0004
0000
0000
0000
0000
0000
0000
0000
0000
0000
0000
,
0000
3003
0MM0
M00M
,
0MM0
0000
1000
0010
,
0000
0000
1000
0010
1000
0001
0020
0000
,
0230
0000
0300
0010
0001
0000
1000
0000
,
0000
0010
1000
0010
0000
2000
0000
3001
,
0020
0030
0001
1000
,
0000
0010
1000
0010
0100
0001
2000
0000
,
0200
0000
330M
00M0
,
0M00
M00M
00M0
0M00
,
M000
0000
0010
1000
,
0000
0000
0001
0010
0002
0000
2003
0000
,
0020
3030
1000
0001
,
0000
0000
0010
0001
0000
2000
0000
3010
,
0000
0000
0200
0000
0301
2000
0000
0000
,
3000
0000
0001
0100
0001
0100
0000
0001
,
2000
0000
3010
0000
1000
0002
0000
0000
,
0003
0000
1000
0100
0000
0010
0000
0100
,
0000
0000
2000
0000
3001
0200
0000
0000
,
0300
0001
1000
0001
0000
0020
0000
0031
,
2000
3001
0100
0000
0000
0010
0100
0001
,
1000
0000
0000
0000
0001
0000
0000
0000
0100
0000
0000
0000
0000
0000
0000
0000
0000
0000
0000
0000
0000
0000
0000
0000
0020
0030
0000
0000
0000
0000
0000
0000
,
0000
0100
0001
1000
0001
1000
0000
0000
,
0000
0002
0013
0M02
,
10M3
0020
000M
0000
M000
0000
0030
0000
,
0000
1000
0001
0100
0001
2000
0000
3000
,
0000
0000
0000
0001
0010
0002
0000
1003
,
0000
0010
0000
0100
0000
0002
0000
0000
,
0000
0000
0000
0003
,
0000
0010
0100
1000
0100
0010
0000
0000
,
0000
0001
0010
0100
0010
0001
0000
0000
,
0000
2000
3010
020M
,
M301
2000
0M00
0000
000M
0000
3000
0000
,
0000
0010
1000
0001
1000
0020
0000
0030
,
0000
0000
0000
1000
0000
0002
0000
0103
,
0000
0010
0000
2000
0000
0000
0000
0000
,
3002
0000
0000
M003
,
0M00
00M0
000M
1000
,
0010
0000
1000
0000
0001
0010
0001
0000
,
2000
0000
3010
0100
0001
1000
0001
0000
,
0010
0000
0001
0000
1000
0010
1000
0000
,
0001
0010
0100
1000
0100
0010
0001
0000
,
1000
0000
0010
0000
1000
0001
1000
0000
,
0020
0000
1030
0001
0100
0001
1000
0000
,
0100
0000
0010
0000
0001
0010
0001
0000
,
0000
1000
0010
0100
0001
1000
0000
0000
,
0000
0001
0100
0010
1000
0001
0000
0000
,
0000
0020
0130
200M
,
3M01
0200
M000
0000
00M0
0000
0300
0000
,
0000
0001
1000
0100
0010
0200
0000
0300
,
0000
0000
0000
1000
0000
0002
0000
0103
,
0000
0010
0000
2000
0000
0000
0000
0000
,
3020
0000
0030
2002
,
0MM0
0000
0MM0
3003
,
M00M
0000
0000
0000
;

//---------------dance-single - Easy----------------
#NOTES:
     dance-single:
     Ace Of Hearts (2011):
     Easy:
     5:
     0.234,0.184,0.007,0.112,0.000: // measure 1
0000
0000
0000
0000
,  // measure 2
0000
0000
0000
0000
,  // measure 3
0000
0000
0001
0001
,  // measure 4
0000
1000
0001
1000
,  // measure 5
0000
0000
0010
0010
,  // measure 6
0000
0100
0000
0001
,  // measure 7
0001
0000
1000
1000
,  // measure 8
0000
0010
1000
0020
,  // measure 9
0000
0000
0000
0000
,  // measure 10
0030
2000
0000
0000
,  // measure 11
0000
3000
0001
0001
,  // measure 12
0000
0010
0001
0010
,  // measure 13
0000
0000
0001
0001
,  // measure 14
0000
1000
0000
0010
,  // measure 15
1000
0020
0000
0030
,  // measure 16
0000
1000
0001
1000
,  // measure 17
0000
0001
0100
0001
,  // measure 18
0000
1000
0001
1000
,  // measure 19
0000
0001
0010
0001
,  // measure 20
0000
1000
0000
0010
,  // measure 21
0000
4000
0000
0000
,  // measure 22
0000
3000
0000
0001
,  // measure 23
0100
0001
0000
1000
,  // measure 24
0010
1000
0000
0001
,  // measure 25
0010
0200
M000
000M
,  // measure 26
03M0
0000
0000
1000
,  // measure 27
0001
1000
0000
0000
,  // measure 28
0010
0010
0000
1000
,  // measure 29
0000
0002
0000
0000
,  // measure 30
0000
0003
0000
1000
,  // measure 31
0010
1000
0000
0001
,  // measure 32
1000
0001
0000
1000
,  // measure 33
0100
0020
000M
M000
,  // measure 34
0M30
0000
0000
0001
,  // measure 35
1000
0001
0000
0000
,  // measure 36
1000
1000
0000
0001
,  // measure 37
0000
0000
0020
0000
,  // measure 38
0000
0030
0000
0001
,  // measure 39
0000
1000
0010
1000
,  // measure 40
0000
0001
0000
0010
,  // measure 41
0000
0001
1000
0001
,  // measure 42
0000
1000
0000
0010
,  // measure 43
0000
1000
0010
1000
,  // measure 44
0000
0001
0000
0010
,  // measure 45
0000
0002
0000
0000
,  // measure 46
MM00
0003
0000
1000
,  // measure 47
0000
0010
1000
0010
,  // measure 48
0000
1000
0000
0001
,  // measure 49
0000
0010
0001
0010
,  // measure 50
0000
0001
0000
1000
,  // measure 51
0000
0010
0100
0010
,  // measure 52
0000
1000
0000
0001
,  // measure 53
0000
0040
0000
0000
,  // measure 54
0000
M030
0M00
000M
,  // measure 55
0000
0000
0001
0001
,  // measure 56
0000
1000
0100
1000
,  // measure 57
0000
0000
0001
0001
,  // measure 58
0000
1000
0000
0010
,  // measure 59
0010
0000
0100
0100
,  // measure 60
0000
0001
1000
0002
,  // measure 61
0000
00M3
0M00
00M0
,  // measure 62
0000
0M00
000M
0M00
,  // measure 63
0000
0000
1000
1000
,  // measure 64
0000
0001
0001
0010
,  // measure 65
0010
0000
0001
0001
,  // measure 66
0000
1000
0010
1000
,  // measure 67
0000
0001
1000
0001
,  // measure 68
0000
0010
0001
0010
,  // measure 69
0000
0001
1000
0001
,  // measure 70
0000
1000
0010
1000
,  // measure 71
0000
0001
0100
0001
,  // measure 72
0000
1000
0000
0010
,  // measure 73
0020
0000
0000
0000
,  // measure 74
0000
0030
0000
1000
,  // measure 75
0000
0001
0010
0001
,  // measure 76
0000
1000
0001
0200
,  // measure 77
00M0
M000
030M
0000
,  // measure 78
0000
0001
1000
0001
,  // measure 79
0000
0000
1000
1000
,  // measure 80
0000
0010
0000
0200
,  // measure 81
0000
0000
0000
0300
,  // measure 82
0000
0001
1000
0001
,  // measure 83
0000
1000
0100
1000
,  // measure 84
0000
0001
0100
0020
,  // measure 85
M000
000M
0M30
0000
,  // measure 86
0000
1000
0010
1000
,  // measure 87
0000
0000
0001
0001
,  // measure 88
0000
1000
0000
0000
,  // measure 89
0200
0000
0000
00MM
,  // measure 90
0300
0000
0000
1000
,  // measure 91
0001
1000
0000
0010
,  // measure 92
0000
1000
0000
0001
,  // measure 93
0010
0001
0000
1000
,  // measure 94
0000
0100
0010
0100
,  // measure 95
0000
1000
0000
0001
,  // measure 96
0000
1000
0010
1000
,  // measure 97
0000
0001
0000
0010
,  // measure 98
0000
0100
1000
0100
,  // measure 99
0000
0010
0001
0010
,  // measure 100
0000
0001
1000
0020
,  // measure 101
0M00
000M
M030
0000
,  // measure 102
0000
1000
0001
1000
,  // measure 103
0000
0000
0001
0001
,  // measure 104
0000
0100
0000
0000
,  // measure 105
0002
0000
0003
1001
,  // measure 106
0MM0
M00M
0000
0000
;

//---------------dance-single - Novice----------------
#NOTES:
     dance-single:
     Ace Of Hearts (2011):
     Beginner:
     2:
     0.158,0.110,0.000,0.140,0.000: // measure 1
0000
0000
0000
0000
,  // measure 2
0000
0000
0000
0000
,  // measure 3
0000
0000
0000
0001
,  // measure 4
0000
0001
0000
0001
,  // measure 5
0000
0000
0000
0010
,  // measure 6
0000
0010
0000
0010
,  // measure 7
0000
0000
0000
0001
,  // measure 8
0000
0001
0000
0002
,  // measure 9
0000
0000
0000
0000
,  // measure 10
0003
0000
0000
0000
,  // measure 11
0000
0000
0000
1000
,  // measure 12
0000
1000
0000
1000
,  // measure 13
0000
0000
0000
0010
,  // measure 14
0000
0010
0000
0010
,  // measure 15
0000
0020
0000
0030
,  // measure 16
0000
0100
0000
0100
,  // measure 17
0000
0200
0000
0300
,  // measure 18
0000
0001
0000
0001
,  // measure 19
0000
0002
0000
0003
,  // measure 20
0000
1000
0000
1000
,  // measure 21
0000
4000
0000
0000
,  // measure 22
0000
3000
0000
0001
,  // measure 23
0000
0001
0000
0010
,  // measure 24
0000
0010
0000
0001
,  // measure 25
0000
0002
0000
0003
,  // measure 26
0000
0000
0000
1000
,  // measure 27
0000
1000
0000
0000
,  // measure 28
0000
0010
0000
0010
,  // measure 29
0000
0020
0000
0000
,  // measure 30
0000
0030
0000
1000
,  // measure 31
0000
1000
0000
0001
,  // measure 32
0000
0001
0000
0010
,  // measure 33
0000
0020
0000
0030
,  // measure 34
0000
0000
0000
0001
,  // measure 35
0000
0001
0000
0000
,  // measure 36
0000
1000
0000
1000
,  // measure 37
0000
0000
0020
0000
,  // measure 38
0000
0030
0000
0000
,  // measure 39
0000
1000
0000
1000
,  // measure 40
0000
1000
0000
0000
,  // measure 41
0000
0001
0000
0001
,  // measure 42
0000
0001
0000
0000
,  // measure 43
0000
0100
0000
0100
,  // measure 44
0000
0100
0000
0000
,  // measure 45
0000
0020
0000
0000
,  // measure 46
0000
0030
0000
0000
,  // measure 47
0000
1000
0000
1000
,  // measure 48
0000
1000
0000
0000
,  // measure 49
0000
0001
0000
0001
,  // measure 50
0000
0001
0000
0000
,  // measure 51
0000
0010
0000
0010
,  // measure 52
0000
0010
0000
0000
,  // measure 53
0000
0100
0000
0100
,  // measure 54
0000
0100
0000
0000
,  // measure 55
0000
0000
0000
1000
,  // measure 56
0000
1000
0000
1000
,  // measure 57
0000
0000
0000
0001
,  // measure 58
0000
0001
0000
0001
,  // measure 59
0000
0000
0000
0100
,  // measure 60
0000
0100
0000
0200
,  // measure 61
0000
0000
0000
0300
,  // measure 62
0000
0000
0000
0000
,  // measure 63
0000
0000
0000
0001
,  // measure 64
0000
0001
0000
0001
,  // measure 65
0000
0000
0000
1000
,  // measure 66
0000
1000
0000
1000
,  // measure 67
0000
2000
0000
3000
,  // measure 68
0000
0100
0000
0100
,  // measure 69
0000
0200
0000
0300
,  // measure 70
0000
0010
0000
0010
,  // measure 71
0000
0020
0000
0030
,  // measure 72
0000
0001
0000
0001
,  // measure 73
0000
0002
0000
0000
,  // measure 74
0000
0003
0000
0000
,  // measure 75
0000
0010
0000
0010
,  // measure 76
0000
0100
0000
0200
,  // measure 77
0000
0300
0000
0000
,  // measure 78
0000
1000
0000
1000
,  // measure 79
0000
0000
0000
0001
,  // measure 80
0000
0001
0000
0002
,  // measure 81
0000
0003
0000
0000
,  // measure 82
0000
1000
0000
1000
,  // measure 83
0000
0010
0000
0010
,  // measure 84
0000
0100
0000
0200
,  // measure 85
0000
0300
0000
0000
,  // measure 86
0000
0001
0000
0001
,  // measure 87
0000
0000
0000
1000
,  // measure 88
0000
1000
0000
0000
,  // measure 89
2000
0000
0000
3000
,  // measure 90
0000
0000
0000
0001
,  // measure 91
0000
0001
0000
0001
,  // measure 92
0000
0000
0000
0100
,  // measure 93
0000
0100
0000
0100
,  // measure 94
0000
0000
0000
0010
,  // measure 95
0000
0010
0000
0010
,  // measure 96
0000
0000
0000
1000
,  // measure 97
0000
1000
0000
1000
,  // measure 98
0000
0001
0000
0001
,  // measure 99
0000
0100
0000
0100
,  // measure 100
0000
0010
0000
0020
,  // measure 101
0000
0030
0000
0000
,  // measure 102
0000
1000
0000
1000
,  // measure 103
0000
0000
0000
0001
,  // measure 104
0000
0001
0000
0000
,  // measure 105
0002
0000
0000
0103
;
