#TITLE:Cheer!;
#SUBTITLE:~Makkana Kimochi~;
#ARTIST:Sakai Kanako;
#TITLETRANSLIT:;
#SUBTITLETRANSLIT:;
#ARTISTTRANSLIT:;
#GENRE:J-Pop;
#CREDIT:Ace Of Hearts;
#BANNER:Cheer - bn.png;
#BACKGROUND:Cheer - bg.png;
#LYRICSPATH:;
#CDTITLE:Ace Of Hearts.png;
#MUSIC:Cheer! ~Makkana Kimochi~.ogg;
#OFFSET:0.380;
#SAMPLESTART:47.560;
#SAMPLELENGTH:24.880;
#SELECTABLE:YES;
#BPMS:0.000=200.200,452.000=100.100,468.000=200.200,684.000=100.100,692.000=200.200;
#STOPS:;
#BGCHANGES:;
#KEYSOUNDS:;

//---------------dance-single - Hard----------------
#NOTES:
     dance-single:
     Ace Of Hearts (2011):
     Hard:
     8:
     0.903,0.000,0.038,1.000,0.038: // measure 1
0000
0000
0000
0000
,  // measure 2
0000
0000
0000
0000
,  // measure 3
0000
0000
0000
0000
,  // measure 4
0000
0000
0000
0000
,  // measure 5
0004
4000
0000
0000
0000
0000
0000
0000
0000
3003
0000
0000
,  // measure 6
0001
0020
0000
0031
,  // measure 7
1000
0010
0000
0200
0000
0000
0300
0000
,  // measure 8
0001
1000
0100
0010
,  // measure 9
0200
0000
2300
0000
,  // measure 10
3001
0020
0000
0000
,  // measure 11
0000
0000
0032
0000
,  // measure 12
2003
0000
3020
0000
,  // measure 13
0230
0000
0302
0000
,  // measure 14
4003
0000
0000
3000
,  // measure 15
0001
0010
0001
1000
,  // measure 16
0001
0100
0000
0020
0000
0000
0030
0000
,  // measure 17
1000
0001
0010
0100
,  // measure 18
1000
0000
0000
0000
,  // measure 19
0010
1000
0001
0010
,  // measure 20
0100
1000
0000
0002
0000
0000
0003
0000
,  // measure 21
1000
0010
0100
0001
,  // measure 22
1000
0000
0000
0000
,  // measure 23
0200
0000
0000
0000
0310
0001
0000
1000
,  // measure 24
0000
0010
0000
0100
0000
0002
0000
0003
,  // measure 25
1000
0100
0010
0001
,  // measure 26
1000
0000
0010
0000
0100
0001
0000
0000
,  // measure 27
1000
0010
1000
0001
,  // measure 28
0010
0100
0000
2000
0000
3000
0000
0000
,  // measure 29
0001
0100
0001
1000
,  // measure 30
0100
0000
0000
0000
,  // measure 31
0010
0001
1000
0010
,  // measure 32
1000
0001
0000
0020
0000
0030
0000
0000
,  // measure 33
0001
1000
0010
1000
,  // measure 34
0001
0020
0000
0000
0130
0000
1000
0000
,  // measure 35
0002
0000
0000
0000
1003
0020
0000
0230
,  // measure 36
0000
0301
0000
1000
0000
0200
0000
0000
,  // measure 37
0320
0031
1000
0010
,  // measure 38
0200
0300
0002
0000
,  // measure 39
1003
0000
0000
0100
0000
0000
0010
0000
0000
0400
4000
0000
,  // measure 40
0000
0000
3300
0000
,  // measure 41
2000
0000
3020
0000
,  // measure 42
0130
0001
1000
0100
,  // measure 43
0020
0000
0000
0030
,  // measure 44
0100
1000
0001
0100
,  // measure 45
0020
0000
0230
0000
,  // measure 46
0301
1000
0100
0010
,  // measure 47
0200
0000
0320
0000
,  // measure 48
0032
1003
0010
0100
,  // measure 49
0002
2003
0000
0000
,  // measure 50
3000
0001
0010
0001
,  // measure 51
2000
0000
3020
0000
,  // measure 52
0230
0000
0301
1000
,  // measure 53
0020
0000
2030
0000
,  // measure 54
3002
0000
0203
0000
,  // measure 55
0320
0000
0000
0000
,  // measure 56
0230
0300
0001
1000
,  // measure 57
0020
0000
0230
0000
,  // measure 58
0300
0000
0001
1000
,  // measure 59
0200
0000
0320
0000
,  // measure 60
0031
1000
0010
0100
,  // measure 61
0001
2000
0000
3100
,  // measure 62
0010
0100
1000
0001
,  // measure 63
0000
2000
0000
3010
,  // measure 64
1000
0001
0000
0200
0000
0000
0000
0000
,  // measure 65
0310
0010
1000
1000
,  // measure 66
0001
0001
0100
0100
,  // measure 67
0000
0020
0000
1030
,  // measure 68
0001
0010
0000
0200
0000
0000
0000
0000
,  // measure 69
1300
1000
0001
0001
,  // measure 70
0100
0001
1000
0100
,  // measure 71
0040
0004
0000
0000
0000
0000
0000
0000
0000
0033
0000
0000
,  // measure 72
0001
1000
0010
1000
,  // measure 73
0001
0010
0000
0200
0000
0300
0000
0000
,  // measure 74
0010
0001
1000
0010
,  // measure 75
0100
0000
0000
0000
,  // measure 76
0001
1000
0100
0010
,  // measure 77
0001
0010
0000
0200
0000
0300
0000
0000
,  // measure 78
1000
0001
0100
0010
,  // measure 79
1000
0002
0000
0000
0103
0000
0010
0000
,  // measure 80
2000
0000
0000
0000
3001
0010
0000
0200
,  // measure 81
0000
0310
0000
0001
0000
2000
0000
0000
,  // measure 82
3020
0130
0001
1000
,  // measure 83
0004
0400
0000
0000
0000
0000
0000
0000
0000
0303
0000
0000
,  // measure 84
0002
0000
2003
0000
,  // measure 85
3100
0010
0001
1000
,  // measure 86
0020
0000
0000
0030
,  // measure 87
0100
0001
1000
0100
,  // measure 88
0020
0000
0230
0000
,  // measure 89
1300
0001
0100
0010
,  // measure 90
0400
0000
0302
0000
,  // measure 91
1003
0010
1000
0100
,  // measure 92
0010
0002
0000
0000
,  // measure 93
0003
1000
0010
0100
,  // measure 94
0002
0000
2003
0000
,  // measure 95
3200
0000
0310
0100
,  // measure 96
2000
0000
3002
0000
,  // measure 97
0203
0000
0320
0000
,  // measure 98
2030
0000
0000
0000
,  // measure 99
3002
0003
0010
0001
,  // measure 100
2000
0000
3020
0000
,  // measure 101
0030
0000
1000
0010
,  // measure 102
0200
0000
0302
0000
,  // measure 103
1003
0100
0010
0001
,  // measure 104
1000
0020
0000
0130
,  // measure 105
0010
1000
0001
0010
,  // measure 106
0100
2000
0000
3001
,  // measure 107
0100
0010
0000
0200
0000
0000
0000
0000
,  // measure 108
0301
0001
0100
0100
,  // measure 109
0010
0010
1000
1000
,  // measure 110
0000
0002
0000
0013
,  // measure 111
0001
1000
0000
0200
0000
0000
0000
0000
,  // measure 112
0310
0010
0001
0001
,  // measure 113
1000
0010
1000
0001
,  // measure 114
0010
0001
1000
0010
0100
0010
1000
0001
,  // measure 115
0020
0032
2003
3020
,  // measure 116
0130
0001
0100
0010
1000
0001
0010
0100
,  // measure 117
2000
0000
3001
0100
0020
0000
2030
3000
,  // measure 118
1001
0000
0000
0000
0000
0002
0000
0003
,  // measure 119
0101
0000
0000
0000
0000
0200
0000
0300
,  // measure 120
0110
0000
0000
0000
0000
0020
0000
0000
,  // measure 121
2030
3002
0023
0230
,  // measure 122
2300
0000
0000
3004
0000
0000
0003
0000
,  // measure 123
0000
0000
1000
0000
0010
1000
0000
0020
,  // measure 124
0000
0000
0400
0000
,  // measure 125
0000
0000
0030
0300
,  // measure 126
0004
0000
0000
0003
,  // measure 127
4000
0040
0000
0000
0000
0000
0000
0000
0000
3030
0000
0000
,  // measure 128
2000
0000
3002
0000
,  // measure 129
0013
0001
1000
0001
,  // measure 130
0020
0000
0000
0030
,  // measure 131
0001
1000
0010
0100
,  // measure 132
0020
0000
2030
0000
,  // measure 133
3001
0010
0100
1000
,  // measure 134
0002
0000
2003
0000
,  // measure 135
3020
0130
0001
1000
,  // measure 136
0100
0020
0000
0000
,  // measure 137
0030
0001
1000
0010
,  // measure 138
0200
0000
0302
0000
,  // measure 139
2003
0000
3100
0010
,  // measure 140
0002
0000
2003
0000
,  // measure 141
3020
0000
0230
0000
,  // measure 142
0302
0000
0000
0000
,  // measure 143
4003
0400
0000
0000
0000
0000
0000
0000
0000
3300
0000
0000
,  // measure 144
0200
0000
0320
0000
,  // measure 145
0031
1000
0010
0100
,  // measure 146
0002
0000
0000
0003
,  // measure 147
0100
0010
1000
0001
,  // measure 148
0020
0000
0230
0000
,  // measure 149
1300
0001
0100
0010
,  // measure 150
4000
0000
3002
0000
,  // measure 151
0023
0130
1000
0001
,  // measure 152
0200
0320
0000
0000
,  // measure 153
0000
1030
0001
0010
,  // measure 154
0200
0000
2300
0000
,  // measure 155
3002
0000
0103
0010
,  // measure 156
2000
0000
3002
0000
,  // measure 157
0023
0000
0230
0000
,  // measure 158
2300
0000
0000
0000
,  // measure 159
3002
0003
1000
0010
,  // measure 160
0200
0000
0302
0000
,  // measure 161
0003
0000
1000
0100
,  // measure 162
0020
0000
0230
0000
,  // measure 163
1300
0001
0100
0010
,  // measure 164
1000
0002
0000
0013
,  // measure 165
0100
0010
0001
1000
,  // measure 166
0000
0000
0200
0000
,  // measure 167
2300
0000
3002
0000
,  // measure 168
0203
0000
0000
0000
,  // measure 169
0320
0000
1030
0001
,  // measure 170
0020
0000
0130
1000
,  // measure 171
0001
0100
0010
0100
,  // measure 172
0000
0001
0000
1000
0000
0100
0000
0010
,  // measure 173
0001
0000
0000
1000
0000
0000
0001
0000
0000
0100
0000
0000
0040
0400
0000
0000
0000
0000
0000
0000
0000
0330
0000
0000
,  // measure 174
0100
0002
0000
1003
,  // measure 175
0100
0010
0000
0200
0000
0000
0000
0000
,  // measure 176
1300
0001
0100
0010
,  // measure 177
2000
0000
3002
0000
,  // measure 178
0103
0020
0000
0000
,  // measure 179
0000
0000
2030
0000
,  // measure 180
3002
0000
0023
0000
,  // measure 181
0034
4000
0000
0000
0000
0000
0000
0000
0000
3003
0000
0000
,  // measure 182
2002
0000
0000
0000
,  // measure 183
0000
0000
0000
0000
,  // measure 184
0000
0000
0000
0000
,  // measure 185
0000
0000
0000
0000
,  // measure 186
0000
0000
0000
0000
,  // measure 187
0000
3003
0000
0000
;

//---------------dance-single - Expert----------------
#NOTES:
     dance-single:
     Ace Of Hearts (2011):
     Challenge:
     10:
     1.000,0.887,0.686,1.000,1.000: // measure 1
0000
0000
0000
0000
,  // measure 2
0002
0013
0001
1000
,  // measure 3
0020
0130
0001
1000
,  // measure 4
0200
0310
0100
1000
,  // measure 5
0001
0100
0001
1000
0010
1000
0001
0010
0001
1000
0100
1000
,  // measure 6
0001
0000
0000
0021
0000
0000
0130
0000
0000
1000
0000
0001
,  // measure 7
0100
0000
0001
1000
0000
0001
0100
0000
0000
0020
0000
0000
,  // measure 8
1030
0000
0000
0002
0000
0000
0013
0000
0000
0100
0000
1000
,  // measure 9
0001
0000
0100
0010
0000
0100
0001
0000
0000
1000
0000
0000
,  // measure 10
0002
0000
0000
0103
0000
0000
0010
0000
0000
1000
0000
0010
,  // measure 11
0100
0000
0010
1000
0000
0010
0100
0000
0000
0001
0000
0000
,  // measure 12
2000
3100
0020
0031
,  // measure 13
1000
0000
0010
1000
0000
0000
0002
0000
0013
0100
0000
1000
,  // measure 14
0400
0000
0000
0000
,  // measure 15
0310
0000
0001
1000
0000
0001
1000
0010
1000
0010
0000
0100
,  // measure 16
0001
0000
1000
0100
0000
0010
0001
0010
0001
1000
0000
0001
,  // measure 17
0100
0000
0010
0100
0000
0001
1000
0001
1000
0100
0000
0010
,  // measure 18
0001
1000
0001
1000
0000
0100
0020
0000
0031
0010
0000
0001
,  // measure 19
1000
0000
0010
1000
0000
0001
0010
0001
0010
0100
0000
1000
,  // measure 20
0001
0000
1000
0010
0000
1000
0001
1000
0001
0010
0000
0100
,  // measure 21
1000
0000
0001
0100
0000
0010
0100
0010
0100
0001
0000
1000
,  // measure 22
0100
0010
0001
1000
0000
0010
1000
0000
0001
0010
0000
0001
,  // measure 23
2000
0000
3002
0000
0103
0020
0030
1010
,  // measure 24
0000
1000
0000
0100
0000
0020
0000
0030
,  // measure 25
0011
0001
1000
0010
,  // measure 26
0100
0000
0000
0001
0000
0000
1000
0100
0010
0001
0000
1000
,  // measure 27
0010
0000
0010
0100
0000
0100
0001
0000
0001
1000
0000
1000
,  // measure 28
0100
0000
0100
0010
0000
0010
0001
0000
0001
1000
0000
1000
,  // measure 29
0010
0000
0010
1000
0000
1000
0001
0000
0001
0010
0000
0010
,  // measure 30
0100
0000
0100
1000
0000
1000
0010
0000
0010
0100
0000
0100
,  // measure 31
0001
0000
0001
0100
0000
0100
0010
0000
0010
1000
0000
1000
,  // measure 32
0100
0000
0100
0010
0000
0010
0100
0000
0100
1000
0000
1000
,  // measure 33
0001
0000
0001
0100
0000
0100
0010
0000
0010
1000
0000
1000
,  // measure 34
0001
0020
0000
0000
0130
0000
1000
0000
,  // measure 35
1002
0000
0000
0000
0103
0010
0000
2000
,  // measure 36
3002
0023
0000
0230
0000
2300
0000
3000
,  // measure 37
1020
0130
0002
1003
,  // measure 38
0200
0000
0310
0001
0000
0000
1000
0010
1000
0001
0100
0001
,  // measure 39
1000
0000
0000
0001
0000
0000
0011
0000
0000
0010
0100
0010
,  // measure 40
0001
1000
0001
1000
0000
0000
0010
0000
0000
0110
0000
0000
,  // measure 41
0102
1003
2100
3001
,  // measure 42
0201
0320
2030
3001
,  // measure 43
0021
0130
1000
0001
,  // measure 44
0200
0310
1000
0001
,  // measure 45
0021
0130
2000
3001
,  // measure 46
0201
0310
1000
0001
,  // measure 47
0100
0010
2020
3030
,  // measure 48
0102
1003
0100
0010
,  // measure 49
0001
0201
0020
0000
,  // measure 50
0300
1030
0010
1000
,  // measure 51
2100
0000
3002
0000
,  // measure 52
0203
0000
0310
1000
,  // measure 53
0002
0013
0002
1003
,  // measure 54
0002
0103
0002
1003
,  // measure 55
0200
0310
0001
1000
,  // measure 56
0010
0000
0000
0100
0000
0000
0001
1000
0001
1000
0100
0010
,  // measure 57
0002
1003
0020
0130
,  // measure 58
0010
1000
0001
0010
,  // measure 59
0200
1300
0002
0103
,  // measure 60
0010
0000
0000
1000
0000
0000
0001
0000
0010
0100
0000
0000
,  // measure 61
1000
0000
0000
2200
0000
0000
0300
0000
0000
3001
0000
0010
,  // measure 62
0100
0000
0000
1000
0000
0000
0001
0100
0001
1000
0010
1000
,  // measure 63
0001
0000
0000
0100
0000
0001
1000
0000
0000
0010
0000
1000
,  // measure 64
0001
0000
0010
0001
0000
1000
0001
0000
0000
0101
0000
0000
,  // measure 65
0100
0000
0000
0020
0000
0000
1030
0000
0000
0002
0000
0013
,  // measure 66
0100
0000
1000
0001
0000
0100
0001
0000
0000
1001
0000
0000
,  // measure 67
1000
0000
0000
1020
0000
0130
0001
0000
0000
1000
0000
0001
,  // measure 68
0010
0000
0001
1000
0000
0001
0100
0000
0001
2000
0000
0000
,  // measure 69
3001
0000
0000
0002
0000
0000
0013
0000
0000
0100
0000
1000
,  // measure 70
0001
0000
1000
0010
0000
1000
0001
1000
0100
0010
0001
1000
,  // measure 71
0004
4000
0000
0000
0000
0000
0000
0000
0000
3003
0000
0000
,  // measure 72
1000
0000
0100
0010
0000
0001
0010
0100
0010
0001
0000
1000
,  // measure 73
0010
0000
1000
0001
0000
1000
0010
0100
0010
1000
0000
0001
,  // measure 74
0010
0000
0100
1000
0000
0001
0010
0100
0010
0001
0000
1000
,  // measure 75
0010
0100
0010
1000
0000
0001
0010
0000
0001
1000
0000
0001
,  // measure 76
0010
0000
0100
1000
0000
0001
0100
0010
0100
0001
0000
1000
,  // measure 77
0100
0000
1000
0001
0000
1000
0001
0100
0001
1000
0000
0100
,  // measure 78
0010
0000
0001
1000
0000
0010
0100
0001
0100
0010
0000
1000
,  // measure 79
0001
0200
0000
0000
0310
0000
1000
0000
,  // measure 80
0200
0000
0310
0000
0001
1000
0000
0020
,  // measure 81
0230
0302
0000
2003
0000
3200
0000
0000
,  // measure 82
0320
0130
1000
0001
,  // measure 83
1000
0010
1000
0001
0010
0001
1000
0100
1000
0001
0100
0001
,  // measure 84
2000
3001
0201
0310
,  // measure 85
1000
0001
0010
0100
,  // measure 86
2100
3001
0100
0010
,  // measure 87
0100
0001
1000
0100
,  // measure 88
0120
0031
2000
3010
,  // measure 89
0110
0100
0001
1000
,  // measure 90
0200
0310
0022
0033
,  // measure 91
2100
3001
0100
0010
,  // measure 92
1000
1002
0200
0000
,  // measure 93
0003
0310
1000
0010
,  // measure 94
0210
0000
0302
0000
,  // measure 95
2003
0000
3001
0100
,  // measure 96
0120
1030
0002
1003
,  // measure 97
0200
0310
0002
1003
,  // measure 98
1200
0310
0001
1000
,  // measure 99
0020
0000
0000
0130
0000
0000
0010
1000
0001
0010
0100
1000
,  // measure 100
0002
0103
0020
1030
,  // measure 101
0001
0010
0100
0010
,  // measure 102
0002
1003
0020
0130
,  // measure 103
0001
1000
0100
0010
,  // measure 104
0001
0000
0000
2001
0000
0000
0000
0000
0000
3010
0000
0100
,  // measure 105
0001
0000
0000
1000
0000
0000
0100
0010
0001
0010
0100
1000
,  // measure 106
0001
0202
0003
0310
,  // measure 107
2010
3001
0000
0020
0000
0000
0030
0000
,  // measure 108
0110
0000
0200
0000
1300
0000
2000
3000
,  // measure 109
1001
0002
0103
0200
,  // measure 110
0300
0220
0300
1030
,  // measure 111
2100
3001
0000
0200
0000
0000
0300
0000
,  // measure 112
0110
0020
1030
2000
,  // measure 113
3001
0000
0100
0010
0100
0000
0001
0000
1000
0100
1000
0000
,  // measure 114
0001
0000
0000
0000
0000
0000
2000
0000
0000
0000
0000
3010
0200
0000
0000
0000
0000
0000
0302
0000
0000
0000
0000
0000
,  // measure 115
0003
0000
0000
0000
0000
0000
2000
0000
0000
0000
0000
3001
0200
0000
0000
0000
0000
0000
0320
0000
0000
0000
0000
0000
,  // measure 116
2030
0000
0000
0000
0000
0000
3001
0000
0000
0000
0000
0010
0100
0000
0000
0000
0000
0000
2000
0000
0000
0000
0000
0000
,  // measure 117
3002
0000
0000
0000
0000
0000
0203
0000
0000
0000
0300
0001
2000
0000
0000
0000
0000
0000
3010
0200
0000
0000
0300
0000
,  // measure 118
0111
0000
0000
0000
0000
2002
0000
3003
,  // measure 119
1101
0000
0000
0000
0000
2002
0000
3003
,  // measure 120
1011
0000
0000
0000
0000
0002
0000
0003
,  // measure 121
0021
0230
2300
3002
,  // measure 122
2003
0000
0000
0400
0000
0000
0000
3300
,  // measure 123
0000
0000
1000
0000
0001
0010
0000
0002
,  // measure 124
0000
0000
0400
0000
,  // measure 125
0000
0000
0000
0003
0000
0000
0310
1000
0010
1000
0000
0001
,  // measure 126
0040
0000
0000
0000
,  // measure 127
0031
1000
0001
0010
0100
1000
0001
0100
0001
1000
0100
1000
,  // measure 128
0002
0103
0120
1030
,  // measure 129
0100
0010
0001
1000
,  // measure 130
0020
0130
0010
1000
,  // measure 131
0001
0010
0100
1000
,  // measure 132
1002
0103
0010
1000
,  // measure 133
2100
3001
0100
0010
,  // measure 134
2000
3000
2002
3003
,  // measure 135
0201
0310
1000
0001
,  // measure 136
0010
0210
2000
0000
,  // measure 137
0300
3001
0200
0310
,  // measure 138
2000
3100
0020
0130
,  // measure 139
2000
3001
0100
0010
,  // measure 140
2010
3001
0200
0310
,  // measure 141
2000
3001
0020
0130
,  // measure 142
2100
3001
0100
0010
,  // measure 143
1000
0001
0010
0001
1000
0010
0100
0010
1000
0001
0010
0100
,  // measure 144
2000
3001
0201
0310
,  // measure 145
1000
0001
0010
0001
,  // measure 146
0201
0310
1000
0001
,  // measure 147
0010
0100
0010
0001
,  // measure 148
2001
3010
0100
0001
,  // measure 149
1000
0100
0010
0100
,  // measure 150
2100
3001
0202
0303
,  // measure 151
0120
1030
0001
0100
,  // measure 152
0001
0021
0200
0000
,  // measure 153
0030
1300
0001
0100
,  // measure 154
0120
1030
0002
0013
,  // measure 155
0200
1300
0001
0100
,  // measure 156
0120
1030
0002
0013
,  // measure 157
0200
1300
0002
1003
,  // measure 158
1020
0130
0010
1000
,  // measure 159
0002
0000
0000
0013
0000
0000
0001
0010
0001
1000
0010
1000
,  // measure 160
0001
0000
0001
1000
0000
1000
0001
0000
0001
0010
0000
0010
,  // measure 161
0001
0000
0001
1000
0000
1000
0010
0000
0010
0100
0000
0100
,  // measure 162
0001
0000
0001
1000
0000
1000
0100
0000
0100
0010
0000
0010
,  // measure 163
0001
0000
0001
1000
0000
1000
0010
0000
0010
0100
0000
0100
,  // measure 164
0010
0000
0010
1000
0000
1000
0001
0000
0001
0010
0000
0010
,  // measure 165
0100
0000
0100
0010
0000
0010
0001
1000
0010
1000
0001
0010
,  // measure 166
0200
0310
0002
1003
,  // measure 167
0020
0130
0002
1003
,  // measure 168
0200
0310
0100
1000
,  // measure 169
0002
1003
0010
0100
,  // measure 170
0002
0000
0000
1003
0000
0000
0100
0000
0000
0010
0000
0100
,  // measure 171
1000
0000
0000
0001
0000
0000
1000
0001
0100
0001
1000
0100
,  // measure 172
1000
0000
0000
2001
0000
0000
3001
0000
0000
0201
0000
0310
1000
0000
0000
1002
0000
0103
0000
0000
0010
2000
0000
0000
,  // measure 173
3001
0000
0000
0012
0000
0000
0013
0000
0000
0120
0000
0000
0031
1000
0001
0010
0100
1000
0001
0010
0100
0010
0001
1000
,  // measure 174
0010
0000
0000
2010
0000
0000
3001
0000
0000
0100
0000
0010
,  // measure 175
1000
0000
0010
0100
0000
0010
2000
0000
0000
3001
0000
0000
,  // measure 176
0101
0000
0000
0100
0000
0000
0010
0000
0000
1000
0000
0001
,  // measure 177
0100
0000
0001
1000
0000
0001
0010
0000
0000
0100
0000
0000
,  // measure 178
1000
0000
0000
1002
0000
0000
0103
0000
0000
0010
0000
0100
,  // measure 179
0001
0000
0100
0010
0000
0100
0002
0000
0000
1003
0000
0000
,  // measure 180
0200
0000
0000
0310
0000
0000
0002
0000
0000
1003
0000
0010
,  // measure 181
1000
0001
0010
0100
1000
0100
0010
0001
1000
0010
1000
0001
,  // measure 182
2002
0000
0000
0000
,  // measure 183
0000
0000
0000
0000
,  // measure 184
0000
0000
0000
0000
,  // measure 185
0000
0000
0000
0000
,  // measure 186
0000
0000
0000
0000
,  // measure 187
0000
3003
0000
0000
;

//---------------dance-single - Medium----------------
#NOTES:
     dance-single:
     Ace Of Hearts (2011):
     Medium:
     6:
     0.765,0.000,0.010,1.000,0.000: // measure 1
0000
0000
0000
0000
,  // measure 2
0000
0000
0000
0000
,  // measure 3
0000
0000
0000
0000
,  // measure 4
0000
0000
0000
0000
,  // measure 5
0000
0000
0000
0000
,  // measure 6
0000
2000
0000
3001
,  // measure 7
0010
0000
0000
0200
0000
0000
0300
0000
,  // measure 8
1000
0100
1000
0000
,  // measure 9
0002
0000
0023
0000
,  // measure 10
0230
0000
0000
0000
,  // measure 11
0300
0000
2000
0000
,  // measure 12
3002
0000
0203
0000
,  // measure 13
0320
0000
2030
0000
,  // measure 14
3002
0000
0003
0000
,  // measure 15
1000
0100
0010
0100
,  // measure 16
1000
0000
0000
0001
0000
0000
0000
0000
,  // measure 17
1000
0010
0100
0010
,  // measure 18
1000
0000
0000
0000
,  // measure 19
0001
0010
0100
0010
,  // measure 20
0001
0000
0000
1000
0000
0000
0000
0000
,  // measure 21
0001
0100
0010
0100
,  // measure 22
0001
0000
0000
0000
,  // measure 23
2000
0000
0000
0000
3001
0000
0000
1000
,  // measure 24
0000
0100
0000
1000
0000
0000
0000
0000
,  // measure 25
0001
1000
0001
0000
,  // measure 26
1000
0100
1000
0000
,  // measure 27
0001
0010
0100
0010
,  // measure 28
0001
0000
0000
1000
0000
0000
0000
0000
,  // measure 29
0001
0100
0010
0100
,  // measure 30
0001
0000
0000
0000
,  // measure 31
1000
0100
0010
0100
,  // measure 32
1000
0000
0000
0001
0000
0000
0000
0000
,  // measure 33
1000
0010
0100
0010
,  // measure 34
2000
0000
3001
1000
,  // measure 35
0002
0000
0000
0000
0203
0000
0000
0301
,  // measure 36
0000
1000
0000
0001
0000
0000
0000
0000
,  // measure 37
1000
0010
1000
0000
,  // measure 38
0001
0000
2000
0000
,  // measure 39
3100
1000
0100
0000
,  // measure 40
0020
0000
0030
0000
,  // measure 41
0002
0000
2003
0000
,  // measure 42
3001
0010
0100
0010
,  // measure 43
0002
0000
0003
0000
,  // measure 44
1000
0100
0010
0100
,  // measure 45
2000
0000
3002
0000
,  // measure 46
0103
0001
0100
0001
,  // measure 47
2000
0000
3000
0000
,  // measure 48
0000
0001
0010
0100
,  // measure 49
2000
0000
3000
0000
,  // measure 50
0000
0001
1000
0001
,  // measure 51
0200
0000
0302
0000
,  // measure 52
0003
0000
1000
0100
,  // measure 53
0020
0000
0230
0000
,  // measure 54
2300
0000
3002
0000
,  // measure 55
0023
0000
0000
0000
,  // measure 56
0130
0000
1000
0001
,  // measure 57
2000
0000
3200
0000
,  // measure 58
0300
0000
1000
0001
,  // measure 59
2000
0000
3020
0000
,  // measure 60
1030
0001
1000
0010
,  // measure 61
1000
0000
0000
0001
,  // measure 62
0010
0001
0010
0001
,  // measure 63
0000
2000
0000
3010
,  // measure 64
1000
0000
0000
0002
0000
0000
0003
0000
,  // measure 65
1000
0100
1000
0000
,  // measure 66
0001
0010
0001
0000
,  // measure 67
0000
2000
0000
3001
,  // measure 68
0100
0000
0000
0020
0000
0000
0030
0000
,  // measure 69
1000
0010
1000
0000
,  // measure 70
0001
0100
0001
0000
,  // measure 71
0200
0000
0300
0000
,  // measure 72
0010
1000
0001
1000
,  // measure 73
0010
0000
0000
1000
0000
0000
0000
0000
,  // measure 74
0001
1000
0010
1000
,  // measure 75
0001
0000
0000
0000
,  // measure 76
0010
0001
1000
0001
,  // measure 77
0010
0000
0000
0001
0000
0000
0000
0000
,  // measure 78
1000
0001
0010
0001
,  // measure 79
2000
0000
3001
0010
,  // measure 80
0002
0000
0000
0000
1003
0000
0000
0001
,  // measure 81
0000
0100
0000
0001
0000
0000
0000
0000
,  // measure 82
1000
0100
1000
0000
,  // measure 83
0004
0000
0000
0003
,  // measure 84
2000
0000
3002
0000
,  // measure 85
1003
0010
0100
0010
,  // measure 86
2000
0000
3000
0000
,  // measure 87
0001
0010
0100
0010
,  // measure 88
0002
0000
2003
0000
,  // measure 89
3010
0100
0001
0100
,  // measure 90
0020
0000
0000
0030
,  // measure 91
0000
1000
0001
1000
,  // measure 92
0200
0000
0000
0300
,  // measure 93
0000
1000
0001
1000
,  // measure 94
0020
0000
2030
0000
,  // measure 95
3000
0000
0001
1000
,  // measure 96
0002
0000
0203
0000
,  // measure 97
0302
0000
2003
0000
,  // measure 98
3020
0000
0000
0000
,  // measure 99
0130
0000
0001
0100
,  // measure 100
0002
0000
2003
0000
,  // measure 101
3000
0000
0001
0010
,  // measure 102
0002
0000
2003
0000
,  // measure 103
3001
1000
0010
1000
,  // measure 104
0002
0000
0003
1000
,  // measure 105
0010
1000
0010
0100
,  // measure 106
0000
0002
0000
1003
,  // measure 107
0010
0000
0000
2000
0000
0000
3000
0000
,  // measure 108
0001
0010
0001
0000
,  // measure 109
1000
0100
1000
0000
,  // measure 110
0000
0020
0000
1030
,  // measure 111
0001
0000
0000
0200
0000
0000
0300
0000
,  // measure 112
0001
0100
0001
0000
,  // measure 113
1000
0100
1000
0000
,  // measure 114
0002
2003
3020
0230
,  // measure 115
0301
2000
3200
0320
,  // measure 116
0032
0000
0000
2003
,  // measure 117
3020
2030
3002
0203
,  // measure 118
0310
0000
0000
0000
0000
2000
0000
0000
,  // measure 119
3001
0000
0000
0000
0000
0200
0000
0000
,  // measure 120
0310
0000
0000
0000
0000
2000
0000
0000
,  // measure 121
3001
0010
0100
1000
,  // measure 122
0002
0000
0000
2003
0000
0000
3000
0000
,  // measure 123
0000
0000
0001
0000
0100
0000
0000
0020
,  // measure 124
0000
0000
0230
0000
,  // measure 125
0000
0000
0300
0000
,  // measure 126
0002
0000
0003
0000
,  // measure 127
4000
0000
0000
3000
,  // measure 128
0002
0000
2003
0000
,  // measure 129
3010
1000
0001
1000
,  // measure 130
0020
0000
0030
0000
,  // measure 131
1000
0001
0010
0001
,  // measure 132
2000
0000
3020
0000
,  // measure 133
0130
0001
1000
0001
,  // measure 134
0200
0000
0300
0000
,  // measure 135
0000
0001
0010
0100
,  // measure 136
2000
0000
0000
0000
,  // measure 137
3000
0001
0010
0001
,  // measure 138
2000
0000
3002
0000
,  // measure 139
0003
0000
1000
0010
,  // measure 140
2000
0000
3002
0000
,  // measure 141
0023
0000
0230
0000
,  // measure 142
2300
0000
0000
0000
,  // measure 143
3400
0000
0000
0300
,  // measure 144
0020
0000
0032
0000
,  // measure 145
1003
0010
1000
0001
,  // measure 146
0020
0000
0030
0000
,  // measure 147
0001
1000
0100
1000
,  // measure 148
0002
0000
2003
0000
,  // measure 149
3010
0100
0010
1000
,  // measure 150
0002
0000
0000
0003
,  // measure 151
0000
1000
0100
0010
,  // measure 152
0002
0000
0000
0000
,  // measure 153
0003
1000
0010
1000
,  // measure 154
0020
0000
0230
0000
,  // measure 155
0300
0000
0001
1000
,  // measure 156
0020
0000
2030
0000
,  // measure 157
3002
0000
0203
0000
,  // measure 158
0320
0000
0000
0000
,  // measure 159
1030
0000
0001
1000
,  // measure 160
0002
0000
0203
0000
,  // measure 161
0300
0000
0001
1000
,  // measure 162
0002
0000
0023
0000
,  // measure 163
0031
1000
0001
1000
,  // measure 164
0100
0000
0000
0010
,  // measure 165
0001
0010
0100
1000
,  // measure 166
0000
0000
0002
0000
,  // measure 167
0023
0000
0032
0000
,  // measure 168
2003
0000
0000
0000
,  // measure 169
3020
0000
1030
0001
,  // measure 170
2000
0000
3100
0010
,  // measure 171
0100
1000
0001
1000
,  // measure 172
0000
0001
0000
0001
0000
1000
0000
1000
,  // measure 173
0000
0010
0000
0010
0400
0000
0000
0300
,  // measure 174
0000
0002
0000
1003
,  // measure 175
0100
0000
0000
2000
0000
0000
3000
0000
,  // measure 176
0001
0010
0001
0000
,  // measure 177
2000
0000
3020
0000
,  // measure 178
1030
0002
0000
0000
,  // measure 179
0000
0000
2003
0000
,  // measure 180
3020
0000
0230
0000
,  // measure 181
0302
0000
0000
0000
2003
0000
0000
3000
,  // measure 182
2002
0000
0000
0000
,  // measure 183
0000
0000
0000
0000
,  // measure 184
0000
0000
0000
0000
,  // measure 185
0000
0000
0000
0000
,  // measure 186
0000
0000
0000
0000
,  // measure 187
0000
3003
0000
0000
;

//---------------dance-single - Easy----------------
#NOTES:
     dance-single:
     Ace Of Hearts (2011):
     Easy:
     3:
     0.438,0.000,0.038,0.400,0.000: // measure 1
0000
0000
0000
0000
,  // measure 2
0000
0000
0000
0000
,  // measure 3
0000
0000
0000
0000
,  // measure 4
0000
0000
0000
0000
,  // measure 5
0000
0000
0000
0000
,  // measure 6
0000
0002
0000
0003
,  // measure 7
1000
0000
1000
0000
,  // measure 8
0100
0000
0100
0000
,  // measure 9
0010
0000
0010
0000
,  // measure 10
0002
0000
0000
0000
,  // measure 11
0003
0000
1000
0000
,  // measure 12
0010
0000
0010
0000
,  // measure 13
0100
0000
0100
0000
,  // measure 14
0002
0000
0003
0000
,  // measure 15
1000
0000
1000
0000
,  // measure 16
0010
0000
0010
0000
,  // measure 17
0100
0000
0100
0000
,  // measure 18
0100
0000
0000
0000
,  // measure 19
0001
0000
0001
0000
,  // measure 20
1000
0000
1000
0000
,  // measure 21
0100
0000
0100
0000
,  // measure 22
0100
0000
0000
0000
,  // measure 23
0010
0000
0010
0000
,  // measure 24
0001
0000
0001
0000
,  // measure 25
1000
0000
1000
0000
,  // measure 26
0010
0000
0010
0000
,  // measure 27
1000
0000
1000
0000
,  // measure 28
0001
0000
0001
0000
,  // measure 29
0010
0000
0010
0000
,  // measure 30
0010
0000
0000
0000
,  // measure 31
0001
0000
0001
0000
,  // measure 32
1000
0000
1000
0000
,  // measure 33
0010
0000
0010
0000
,  // measure 34
0020
0000
0030
0000
,  // measure 35
1000
0000
1000
0000
,  // measure 36
0001
0000
0001
0000
,  // measure 37
0100
0000
0100
0000
,  // measure 38
0001
0000
0001
0000
,  // measure 39
2000
0000
0000
0000
,  // measure 40
3000
0000
0000
0000
,  // measure 41
0010
0000
0010
0000
,  // measure 42
1000
0000
1000
0000
,  // measure 43
2000
0000
3000
0000
,  // measure 44
0001
0000
0001
0000
,  // measure 45
0010
0000
0010
0000
,  // measure 46
0001
0000
0001
0000
,  // measure 47
0002
0000
0003
0000
,  // measure 48
0000
0000
1000
0000
,  // measure 49
2000
0000
3000
0000
,  // measure 50
0000
0000
0010
0000
,  // measure 51
0020
0000
0030
0000
,  // measure 52
0000
0000
1000
0000
,  // measure 53
0001
0000
0001
0000
,  // measure 54
1000
0000
1000
0000
,  // measure 55
0020
0000
0000
0000
,  // measure 56
0030
0000
1000
0000
,  // measure 57
1000
0000
1000
0000
,  // measure 58
0000
0000
0001
0000
,  // measure 59
0001
0000
0001
0000
,  // measure 60
0010
0000
0010
0000
,  // measure 61
0010
0000
0000
0000
,  // measure 62
0001
0000
0001
0000
,  // measure 63
2000
0000
3000
0000
,  // measure 64
0010
0000
0010
0000
,  // measure 65
0100
0000
0100
0000
,  // measure 66
0001
0000
0001
0000
,  // measure 67
2000
0000
3000
0000
,  // measure 68
0010
0000
0010
0000
,  // measure 69
1000
0000
1000
0000
,  // measure 70
0001
0000
0001
0000
,  // measure 71
0000
0000
0000
0000
,  // measure 72
0010
0000
0010
0000
,  // measure 73
0001
0000
0001
0000
,  // measure 74
1000
0000
1000
0000
,  // measure 75
1000
0000
0000
0000
,  // measure 76
0010
0000
0010
0000
,  // measure 77
1000
0000
1000
0000
,  // measure 78
0001
0000
0001
0000
,  // measure 79
0001
0000
0000
0000
,  // measure 80
1000
0000
1000
0000
,  // measure 81
0010
0000
0010
0000
,  // measure 82
0100
0000
0100
0000
,  // measure 83
0100
0000
0000
0000
,  // measure 84
0001
0000
0001
0000
,  // measure 85
1000
0000
1000
0000
,  // measure 86
2000
0000
3000
0000
,  // measure 87
0100
0000
0100
0000
,  // measure 88
0010
0000
0010
0000
,  // measure 89
0001
0000
0001
0000
,  // measure 90
0002
0000
0003
0000
,  // measure 91
0000
0000
1000
0000
,  // measure 92
2000
0000
3000
0000
,  // measure 93
0000
0000
0100
0000
,  // measure 94
0200
0000
0300
0000
,  // measure 95
0000
0000
0010
0000
,  // measure 96
0001
0000
0001
0000
,  // measure 97
1000
0000
1000
0000
,  // measure 98
0020
0000
0000
0000
,  // measure 99
0030
0000
1000
0000
,  // measure 100
1000
0000
1000
0000
,  // measure 101
0000
0000
0001
0000
,  // measure 102
0001
0000
0001
0000
,  // measure 103
0010
0000
0010
0000
,  // measure 104
0010
0000
0000
0000
,  // measure 105
0100
0000
0100
0000
,  // measure 106
2000
0000
3000
0000
,  // measure 107
0001
0000
0001
0000
,  // measure 108
0100
0000
0100
0000
,  // measure 109
0010
0000
0010
0000
,  // measure 110
2000
0000
3000
0000
,  // measure 111
0001
0000
0001
0000
,  // measure 112
0010
0000
0010
0000
,  // measure 113
0001
0000
0001
0000
,  // measure 114
1000
0000
0001
0000
,  // measure 115
1000
0001
0001
0001
,  // measure 116
2000
0000
0000
0000
,  // measure 117
3002
0000
0000
0003
,  // measure 118
1001
0000
0000
0000
,  // measure 119
0110
0000
0000
0000
,  // measure 120
1001
0000
0000
0000
,  // measure 121
0002
0000
0003
0000
,  // measure 122
2000
0000
0000
0000
,  // measure 123
3000
0000
0010
0000
,  // measure 124
0020
0000
0000
0000
,  // measure 125
0000
0000
0000
0000
,  // measure 126
0030
0000
0000
0000
,  // measure 127
2000
0000
3000
0000
,  // measure 128
0001
0000
0001
0000
,  // measure 129
0010
0000
0010
0000
,  // measure 130
0020
0000
0030
0000
,  // measure 131
0001
0000
0001
0000
,  // measure 132
1000
0000
1000
0000
,  // measure 133
0010
0000
0010
0000
,  // measure 134
0020
0000
0030
0000
,  // measure 135
0000
0000
1000
0000
,  // measure 136
2000
0000
3000
0000
,  // measure 137
0000
0000
0001
0000
,  // measure 138
0001
0000
0002
0000
,  // measure 139
0003
0000
1000
0000
,  // measure 140
0010
0000
0010
0000
,  // measure 141
0100
0000
0100
0000
,  // measure 142
0002
0000
0000
0000
,  // measure 143
0003
0000
0000
0000
,  // measure 144
1000
0000
1000
0000
,  // measure 145
0001
0000
0001
0000
,  // measure 146
0002
0000
0003
0000
,  // measure 147
1000
0000
1000
0000
,  // measure 148
0010
0000
0010
0000
,  // measure 149
0100
0000
0100
0000
,  // measure 150
0200
0000
0300
0000
,  // measure 151
0000
0000
0001
0000
,  // measure 152
0002
0000
0003
0000
,  // measure 153
0000
0000
1000
0000
,  // measure 154
2000
0000
3000
0000
,  // measure 155
0000
0000
0001
0000
,  // measure 156
0010
0000
0010
0000
,  // measure 157
0001
0000
0001
0000
,  // measure 158
2000
0000
0000
0000
,  // measure 159
3000
0000
0010
0000
,  // measure 160
0010
0000
0010
0000
,  // measure 161
0000
0000
0100
0000
,  // measure 162
0100
0000
0100
0000
,  // measure 163
0001
0000
0001
0000
,  // measure 164
0001
0000
0000
0000
,  // measure 165
1000
0000
1000
0000
,  // measure 166
0000
0000
0001
0000
,  // measure 167
0010
0000
0001
0000
,  // measure 168
2000
0000
3000
0000
,  // measure 169
0020
0000
1030
0000
,  // measure 170
1000
0000
1000
0000
,  // measure 171
0001
0000
0001
0000
,  // measure 172
1000
1000
1000
0000
,  // measure 173
0010
0010
0020
0030
,  // measure 174
2000
0000
3000
0000
,  // measure 175
0001
0000
0001
0000
,  // measure 176
0010
0000
0010
0000
,  // measure 177
0001
0000
0001
0000
,  // measure 178
2000
0000
3000
0000
,  // measure 179
0000
0000
0010
0000
,  // measure 180
1000
0000
0001
0000
,  // measure 181
0010
0000
0001
0000
,  // measure 182
2002
0000
0000
0000
,  // measure 183
0000
0000
0000
0000
,  // measure 184
0000
0000
0000
0000
,  // measure 185
0000
0000
0000
0000
,  // measure 186
0000
0000
0000
0000
,  // measure 187
0000
3003
0000
0000
;

//---------------dance-single - Novice----------------
#NOTES:
     dance-single:
     Ace Of Hearts (2011):
     Beginner:
     1:
     0.269,0.000,0.010,0.495,0.000: // measure 1
0000
0000
0000
0000
,  // measure 2
0000
0000
0000
0000
,  // measure 3
0000
0000
0000
0000
,  // measure 4
0000
0000
0000
0000
,  // measure 5
0000
0000
0000
0000
,  // measure 6
2000
0000
0000
0000
,  // measure 7
3000
0000
0000
0000
,  // measure 8
0001
0000
0000
0000
,  // measure 9
0001
0000
0000
0000
,  // measure 10
0002
0000
0000
0000
,  // measure 11
0003
0000
0000
0000
,  // measure 12
0010
0000
0000
0000
,  // measure 13
0010
0000
0000
0000
,  // measure 14
0020
0000
0030
0000
,  // measure 15
0001
0000
0000
0000
,  // measure 16
0001
0000
0000
0000
,  // measure 17
1000
0000
0000
0000
,  // measure 18
1000
0000
0000
0000
,  // measure 19
0010
0000
0000
0000
,  // measure 20
0010
0000
0000
0000
,  // measure 21
0100
0000
0000
0000
,  // measure 22
0100
0000
0000
0000
,  // measure 23
0001
0000
0000
0000
,  // measure 24
0001
0000
0000
0000
,  // measure 25
1000
0000
0000
0000
,  // measure 26
1000
0000
0000
0000
,  // measure 27
0001
0000
0000
0000
,  // measure 28
0001
0000
0000
0000
,  // measure 29
0010
0000
0000
0000
,  // measure 30
0010
0000
0000
0000
,  // measure 31
0001
0000
0000
0000
,  // measure 32
0001
0000
0000
0000
,  // measure 33
1000
0000
0000
0000
,  // measure 34
1000
0000
0000
0000
,  // measure 35
0020
0000
0030
0000
,  // measure 36
2000
0000
3000
0000
,  // measure 37
0002
0000
0003
0000
,  // measure 38
0020
0000
0030
0000
,  // measure 39
0002
0000
0000
0000
,  // measure 40
0003
0000
0000
0000
,  // measure 41
1000
0000
0000
0000
,  // measure 42
0010
0000
0000
0000
,  // measure 43
0010
0000
0000
0000
,  // measure 44
1000
0000
0000
0000
,  // measure 45
1000
0000
0000
0000
,  // measure 46
0001
0000
0000
0000
,  // measure 47
0002
0000
0003
0000
,  // measure 48
0000
0000
0000
0000
,  // measure 49
2000
0000
3000
0000
,  // measure 50
0000
0000
0000
0000
,  // measure 51
0200
0000
0300
0000
,  // measure 52
0000
0000
0000
0000
,  // measure 53
0010
0000
0000
0000
,  // measure 54
0010
0000
0000
0000
,  // measure 55
0020
0000
0000
0000
,  // measure 56
0030
0000
0000
0000
,  // measure 57
0002
0000
0003
0000
,  // measure 58
0000
0000
0000
0000
,  // measure 59
1000
0000
0000
0000
,  // measure 60
1000
0000
0000
0000
,  // measure 61
1000
0000
0000
0000
,  // measure 62
0010
0000
0000
0000
,  // measure 63
2000
0000
0000
0000
,  // measure 64
3000
0000
0000
0000
,  // measure 65
0010
0000
0000
0000
,  // measure 66
0010
0000
0000
0000
,  // measure 67
0200
0000
0000
0000
,  // measure 68
0300
0000
0000
0000
,  // measure 69
0001
0000
0000
0000
,  // measure 70
0001
0000
0000
0000
,  // measure 71
2000
0000
3000
0000
,  // measure 72
0010
0000
0000
0000
,  // measure 73
0010
0000
0000
0000
,  // measure 74
0100
0000
0000
0000
,  // measure 75
0100
0000
0000
0000
,  // measure 76
0001
0000
0000
0000
,  // measure 77
0001
0000
0000
0000
,  // measure 78
1000
0000
0000
0000
,  // measure 79
1000
0000
0000
0000
,  // measure 80
0020
0000
0030
0000
,  // measure 81
2000
0000
3000
0000
,  // measure 82
0002
0000
0003
0000
,  // measure 83
0020
0000
0030
0000
,  // measure 84
0001
0000
0000
0000
,  // measure 85
0001
0000
0000
0000
,  // measure 86
0001
0000
0000
0000
,  // measure 87
1000
0000
0000
0000
,  // measure 88
1000
0000
0000
0000
,  // measure 89
0010
0000
0000
0000
,  // measure 90
0020
0000
0030
0000
,  // measure 91
0000
0000
0000
0000
,  // measure 92
0200
0000
0300
0000
,  // measure 93
0000
0000
0000
0000
,  // measure 94
0002
0000
0003
0000
,  // measure 95
0000
0000
0000
0000
,  // measure 96
1000
0000
0000
0000
,  // measure 97
1000
0000
0000
0000
,  // measure 98
2000
0000
0000
0000
,  // measure 99
3000
0000
0000
0000
,  // measure 100
0020
0000
0030
0000
,  // measure 101
0000
0000
0000
0000
,  // measure 102
0200
0000
0300
0000
,  // measure 103
0001
0000
0000
0000
,  // measure 104
0001
0000
0000
0000
,  // measure 105
1000
0000
0000
0000
,  // measure 106
0020
0000
0000
0000
,  // measure 107
0030
0000
0000
0000
,  // measure 108
1000
0000
0000
0000
,  // measure 109
1000
0000
0000
0000
,  // measure 110
0002
0000
0000
0000
,  // measure 111
0003
0000
0000
0000
,  // measure 112
0010
0000
0000
0000
,  // measure 113
0010
0000
0000
0000
,  // measure 114
0001
0000
0001
0000
,  // measure 115
2000
0000
3000
0000
,  // measure 116
0002
0000
0003
0000
,  // measure 117
0200
0000
0300
0000
,  // measure 118
0010
0000
0000
0000
,  // measure 119
0100
0000
0000
0000
,  // measure 120
0001
0000
0000
0000
,  // measure 121
2000
0000
0000
0000
,  // measure 122
3000
0000
0000
0000
,  // measure 123
0000
0000
0000
0000
,  // measure 124
0002
0000
0000
0000
,  // measure 125
0000
0000
0000
0000
,  // measure 126
0003
0000
0000
0000
,  // measure 127
0200
0000
0300
0000
,  // measure 128
0010
0000
0000
0000
,  // measure 129
1000
0000
0000
0000
,  // measure 130
1000
0000
0000
0000
,  // measure 131
0001
0000
0000
0000
,  // measure 132
0001
0000
0000
0000
,  // measure 133
0100
0000
0000
0000
,  // measure 134
0200
0000
0300
0000
,  // measure 135
0000
0000
0000
0000
,  // measure 136
0020
0000
0030
0000
,  // measure 137
0000
0000
0000
0000
,  // measure 138
2000
0000
3000
0000
,  // measure 139
0000
0000
0000
0000
,  // measure 140
0001
0000
0000
0000
,  // measure 141
0001
0000
0000
0000
,  // measure 142
0020
0000
0000
0000
,  // measure 143
0030
0000
0000
0000
,  // measure 144
0001
0000
0000
0000
,  // measure 145
1000
0000
0000
0000
,  // measure 146
1000
0000
0000
0000
,  // measure 147
0010
0000
0000
0000
,  // measure 148
0010
0000
0000
0000
,  // measure 149
0100
0000
0000
0000
,  // measure 150
0200
0000
0300
0000
,  // measure 151
0000
0000
0000
0000
,  // measure 152
0002
0000
0003
0000
,  // measure 153
0000
0000
0000
0000
,  // measure 154
2000
0000
3000
0000
,  // measure 155
0000
0000
0000
0000
,  // measure 156
0001
0000
0000
0000
,  // measure 157
0001
0000
0000
0000
,  // measure 158
0200
0000
0000
0000
,  // measure 159
0300
0000
0000
0000
,  // measure 160
0020
0000
0030
0000
,  // measure 161
0000
0000
0000
0000
,  // measure 162
1000
0000
0000
0000
,  // measure 163
0001
0000
0000
0000
,  // measure 164
0001
0000
0000
0000
,  // measure 165
0010
0000
0000
0000
,  // measure 166
0002
0000
0003
0000
,  // measure 167
2000
0000
3000
0000
,  // measure 168
0020
0000
0000
0000
,  // measure 169
0030
0000
0000
0000
,  // measure 170
1000
0000
0000
0000
,  // measure 171
1000
0000
0000
0000
,  // measure 172
0002
0000
0003
0000
,  // measure 173
2000
0000
3000
0000
,  // measure 174
0020
0000
0000
0000
,  // measure 175
0030
0000
0000
0000
,  // measure 176
1000
0000
0000
0000
,  // measure 177
1000
0000
0000
0000
,  // measure 178
0002
0000
0000
0000
,  // measure 179
0003
0000
0000
0000
,  // measure 180
0010
0000
0000
0000
,  // measure 181
0001
0000
0000
0000
,  // measure 182
2002
0000
0000
0000
,  // measure 183
0000
0000
0000
0000
,  // measure 184
0000
0000
0000
0000
,  // measure 185
0000
0000
0000
0000
,  // measure 186
0000
0000
0000
0000
,  // measure 187
0000
3003
0000
0000
;
