#TITLE:Blue Blue Sky;
#SUBTITLE:;
#ARTIST:Shin;
#TITLETRANSLIT:;
#SUBTITLETRANSLIT:;
#ARTISTTRANSLIT:;
#GENRE:J-Pop;
#CREDIT:Ace Of Hearts;
#BANNER:Blue Blue Sky - bn.png;
#BACKGROUND:Blue Blue Sky - bg.png;
#LYRICSPATH:;
#CDTITLE:Ace Of Hearts.png;
#MUSIC:Blue Blue Sky.ogg;
#OFFSET:1.452;
#SAMPLESTART:90.700;
#SAMPLELENGTH:16.000;
#SELECTABLE:YES;
#BPMS:0.000=160.000,18.000=320.000,22.000=160.000,245.000=320.000,246.000=160.000;
#DISPLAYBPM:160.000;
#STOPS:18.000=0.094
,18.500=0.094
,19.000=0.094
,19.500=0.094
,20.000=0.094
,20.500=0.094
,21.000=0.094
,21.500=0.047
,21.750=0.047
,245.000=0.047
,245.250=0.047
,245.500=0.047
,245.750=0.047
;
#BGCHANGES:0.000=White Screen.JPG=1.000=0=0=0=StretchNoLoop====,
3.833=Blue Blue Sky.avi=1.000=0=0=0=StretchNoLoop====,
99999=-nosongbg-=1.000=0=0=0 // don't automatically add -songbackground-
;
#KEYSOUNDS:;

//---------------dance-single - Hard----------------
#NOTES:
     dance-single:
     Ace Of Hearts (2010):
     Hard:
     8:
     0.580,0.132,0.271,1.000,0.000: // measure 1
0000
0000
0000
0000
,  // measure 2
0000
0000
0000
0000
1001
0000
0001
0010
,  // measure 3
0000
0001
0000
0000
1000
0000
0001
0100
,  // measure 4
0000
0020
0000
0000
1030
0000
0001
0100
,  // measure 5
0000
0010
0000
1000
0001
0010
0001
1000
,  // measure 6
0010
0100
0001
4000
3020
0000
0000
0000
,  // measure 7
0000
0000
0000
0000
,  // measure 8
0000
2000
0030
0000
0002
3000
0000
0200
,  // measure 9
0003
0000
0000
0302
0000
2003
0000
3020
,  // measure 10
0000
0100
0000
0000
2000
0000
0000
0000
,  // measure 11
0030
0000
0002
3000
,  // measure 12
0200
0000
0300
0000
2000
0003
0000
3200
,  // measure 13
0000
0320
0000
0000
0031
1000
0010
2000
,  // measure 14
0000
3001
0100
0010
1010
0000
1000
0001
,  // measure 15
0020
0000
0031
2000
0000
3020
0000
0430
,  // measure 16
0000
0300
0000
0000
0001
0000
1000
0000
0200
0000
0000
0000
0310
0000
0001
0000
,  // measure 17
0000
2000
0000
3040
0000
0000
0030
1000
,  // measure 18
0000
0002
0000
0003
0011
0000
0010
0100
,  // measure 19
2000
0000
3001
0200
0000
0310
0000
1010
,  // measure 20
0000
0000
1000
0001
0020
0000
0031
2000
,  // measure 21
0000
3010
0000
0200
0000
0000
0000
0301
,  // measure 22
0000
2000
0000
3000
1100
0000
0100
0010
,  // measure 23
0002
0000
1003
0010
0000
1000
0000
0004
,  // measure 24
0000
0003
0000
0000
0010
0000
0001
0000
2000
0000
0000
0000
3010
0000
0200
0000
,  // measure 25
0000
0302
0000
2003
0000
0000
0000
3001
,  // measure 26
0000
0200
0000
0300
0110
0000
0010
1000
,  // measure 27
0002
0000
0013
0200
0000
1300
0000
0002
,  // measure 28
0000
0003
0100
0010
2000
0000
3001
0100
,  // measure 29
0000
0010
0000
2000
0000
0000
0000
3010
,  // measure 30
0000
0200
0000
0300
0102
0000
0000
0000
,  // measure 31
0000
1003
0100
0010
0200
0000
1300
0002
,  // measure 32
0000
0000
0403
0000
0000
0300
0000
0000
0120
0000
0000
0000
0000
0000
0000
0000
,  // measure 33
2030
0000
3004
0003
,  // measure 34
1000
0200
0000
0320
0000
0000
0130
2000
,  // measure 35
0000
0000
3002
0000
0000
0000
0403
0000
0000
0300
0000
0000
0020
0000
0000
0000
,  // measure 36
2030
0000
3001
0020
0000
0030
0000
0000
,  // measure 37
0000
0001
1000
0010
0200
0310
0000
1000
,  // measure 38
0000
0001
0010
0100
2100
0000
0000
0000
,  // measure 39
0000
3001
0100
0010
0200
0000
0301
2000
,  // measure 40
0000
3100
0000
0000
0120
0000
0000
0000
,  // measure 41
0032
0000
4003
3000
,  // measure 42
0001
0010
0000
0210
0000
0000
1300
0001
,  // measure 43
0000
0200
0000
0320
0000
0000
2030
0000
,  // measure 44
3002
0000
0013
0020
0000
0000
0000
0030
,  // measure 45
0000
0001
0100
0020
0000
1030
0001
2000
,  // measure 46
0000
3001
0200
0000
0310
1000
0001
0010
,  // measure 47
0001
1000
0000
1020
0000
0130
0001
1000
,  // measure 48
0100
0010
0000
0012
0000
1003
0010
0100
,  // measure 49
0010
1000
0000
1200
0000
0310
0000
0002
,  // measure 50
0000
1003
0000
0100
0010
0100
1000
0001
,  // measure 51
0100
0010
0000
2010
0000
3001
0010
0001
,  // measure 52
1000
0010
0000
0210
0000
0301
0010
0100
,  // measure 53
1000
0001
0000
0021
0000
0130
0000
2000
,  // measure 54
0000
3001
0000
0000
1000
0100
0010
0001
,  // measure 55
1000
0010
0000
0210
0000
0301
1000
0010
,  // measure 56
0100
0001
0000
0201
0000
0310
1000
0001
,  // measure 57
0010
0100
0000
2100
0000
3001
0000
0200
,  // measure 58
0000
0310
1000
0001
0200
0000
0000
0300
,  // measure 59
0000
0001
1000
0020
0000
0030
0100
0002
,  // measure 60
0000
2003
0000
3001
0020
0000
0000
0000
,  // measure 61
0000
0000
0031
2000
0000
0000
0000
0000
,  // measure 62
0000
0000
3002
0003
0021
0000
0130
2000
,  // measure 63
0000
0000
3002
0000
0000
0003
0201
0000
0000
0000
0310
0000
0000
0000
2010
0000
,  // measure 64
0000
3002
0000
1003
0010
0200
0000
0301
,  // measure 65
0000
2000
0000
3200
0000
0340
0000
0032
,  // measure 66
0000
1003
0200
0300
0120
0000
0031
2000
,  // measure 67
0000
3001
0000
0201
0000
0310
0000
2000
,  // measure 68
0000
3002
0000
0003
2000
0000
3100
0020
,  // measure 69
0000
0032
0000
0203
0000
0000
0302
0000
,  // measure 70
1003
0020
0000
0030
0210
0000
0301
2000
,  // measure 71
0000
3001
0000
0021
0000
0130
0000
2100
,  // measure 72
0000
3001
0000
1000
0010
0100
0000
0002
,  // measure 73
0000
2003
0000
3100
0000
0020
0000
0032
,  // measure 74
0000
1003
0020
0030
0210
0000
0301
2000
,  // measure 75
0000
3100
0000
0120
0000
0032
0003
2001
,  // measure 76
0000
3010
0100
0002
0000
0000
0000
0000
,  // measure 77
0003
0000
1000
0200
0000
0320
0000
0230
,  // measure 78
0000
1300
0002
0000
0023
0000
0000
0000
,  // measure 79
0030
0001
1000
0020
0000
0230
0000
0302
,  // measure 80
0000
1003
0100
0000
2000
0000
0000
0000
,  // measure 81
3000
0000
0001
0200
0000
0320
0000
2030
,  // measure 82
0000
3001
0010
0000
0002
0000
0000
0000
,  // measure 83
0003
0000
1000
0020
0000
0130
0000
0002
,  // measure 84
0000
0103
0010
0000
1010
0000
1000
0001
,  // measure 85
0000
0000
0020
0000
0000
0030
0011
0000
0000
0000
0001
0000
0000
0000
2000
0000
,  // measure 86
0000
0000
3001
0000
0200
0000
0000
0300
0110
0000
0000
0000
0010
0000
1000
0000
,  // measure 87
0000
0001
0100
0000
0120
0000
0030
1000
,  // measure 88
2002
3003
0000
0000
;

//---------------dance-single - Expert----------------
#NOTES:
     dance-single:
     Ace Of Hearts (2010):
     Challenge:
     10:
     0.881,0.263,0.271,0.935,0.400: // measure 1
0000
0000
0000
0000
,  // measure 2
0001
0000
1000
1000
1020
0000
0130
0001
,  // measure 3
1000
0000
0100
0000
0010
0000
0100
1000
0002
0000
0103
0000
0010
0000
1000
0000
,  // measure 4
0001
0000
0010
0000
0001
0000
1000
0001
0020
0000
0031
0000
1000
0000
0010
0000
,  // measure 5
0100
0000
0001
0000
1000
0000
0100
0010
0001
0000
0001
0000
1000
0000
1000
0000
,  // measure 6
0010
0000
0010
0000
1000
0000
1000
0020
2000
0000
0000
0000
0000
0000
0000
0000
,  // measure 7
0000
0000
0000
3000
0200
0000
0000
0030
,  // measure 8
0002
0000
0000
0300
0020
0000
0003
2000
,  // measure 9
0030
0002
3000
0200
0003
0020
0300
0002
,  // measure 10
0030
0200
0000
0003
2000
0000
0000
0000
,  // measure 11
0000
0300
0002
3000
2000
0000
0000
0003
,  // measure 12
0200
0000
0000
0000
0000
0000
3000
0000
0020
0000
0000
0000
0300
0000
2000
0030
,  // measure 13
0000
3200
0320
2030
3020
0032
2003
3020
,  // measure 14
0130
0001
1000
0000
0100
0000
1000
0000
2002
0000
3003
0000
0001
0000
1000
0000
,  // measure 15
0020
0130
0001
0020
0031
1000
0010
0400
,  // measure 16
0000
0000
0301
0000
1000
0000
0100
0010
0002
0000
1003
0000
0010
0000
0100
0000
,  // measure 17
0001
1000
0100
0010
0400
0000
0310
0011
,  // measure 18
0000
0001
1000
1000
2020
3030
0010
0100
,  // measure 19
0020
0000
1030
0000
0001
0000
0010
0000
0100
0000
1000
0000
0001
0000
0010
0001
,  // measure 20
1000
0010
0100
0001
2000
3100
0010
0002
,  // measure 21
0000
0000
1003
0000
0100
0000
0010
0100
2000
0000
3001
0000
0100
0000
0010
0000
,  // measure 22
0000
1000
0001
0001
0022
0033
0010
0100
,  // measure 23
1000
0001
0100
0010
0100
0001
1000
0040
,  // measure 24
0000
0000
1030
0000
0001
0000
1000
0100
0020
0000
0130
0000
1000
0000
0001
0000
,  // measure 25
0100
0000
0010
0000
0100
0000
0001
1000
0100
0000
0010
0000
0001
0000
0101
0000
,  // measure 26
0000
0000
0100
0000
0010
0000
1000
0001
0020
0000
0000
0000
0130
0000
0010
0000
,  // measure 27
0001
1000
0010
0100
0001
1000
0010
0200
,  // measure 28
0000
0000
0301
0000
1000
0000
0100
0010
0002
0000
1003
0000
0010
0000
0100
0000
,  // measure 29
0000
0010
1000
0002
0000
1003
0100
0010
,  // measure 30
0000
0000
0100
0000
1000
0000
0001
0010
0200
0000
1000
0000
0010
0000
2300
0000
,  // measure 31
0000
0000
3010
0000
1000
0000
0001
0010
0200
0000
1300
0000
0001
0000
0010
0001
,  // measure 32
1000
0000
0010
0000
0100
0000
0001
1000
0020
0000
0130
0000
0001
0000
0010
0000
,  // measure 33
0200
0000
1300
0000
0001
0000
1000
0010
0200
0000
0310
0000
1000
0000
0001
1000
,  // measure 34
0010
0000
0100
0000
0001
0000
1000
0100
0020
0000
0031
0000
1000
0000
0010
0000
,  // measure 35
0000
0000
0100
0000
0001
0000
4000
0000
0000
0000
3100
0000
0010
0000
0100
1000
,  // measure 36
0001
0000
0100
0000
0010
0000
1000
0001
0020
0000
0000
0000
0130
0000
2000
0000
,  // measure 37
0000
0000
3001
0000
0100
0000
0010
0000
1000
0000
1001
0000
0000
0000
0001
0100
,  // measure 38
0010
0000
1000
0000
0001
0010
0100
0010
0002
0000
1000
0000
0010
0000
2003
0000
,  // measure 39
0000
0000
3010
0000
1000
0000
0001
0000
0020
0000
0130
0000
1000
0000
0001
1000
,  // measure 40
0010
0000
1000
0000
0001
0000
0010
0001
2000
0000
0010
0000
3010
0000
0000
0000
,  // measure 41
0200
0000
0001
0000
0301
0000
1000
0001
0200
0000
0310
0000
1000
0000
0001
0010
,  // measure 42
0100
0000
0010
0000
0001
0000
1000
0100
0020
0000
0000
0000
0130
0000
1000
0000
,  // measure 43
0001
0000
0100
0000
0010
0000
1000
0001
0100
0000
0010
0000
0100
0000
0001
1000
,  // measure 44
0010
0000
1000
0000
0001
0000
0010
0100
2000
0000
0000
0000
0000
0000
0000
0000
,  // measure 45
3000
0000
0001
0000
0100
0000
0010
1000
0001
0000
0010
0000
0001
0000
1000
0010
,  // measure 46
0100
0000
0001
0000
1000
0000
0001
1000
0020
0000
1030
0000
0010
0000
0001
0000
,  // measure 47
0010
0000
1000
0000
0000
0000
1200
0000
0000
0000
0310
0000
1000
0000
0010
0001
,  // measure 48
1000
0001
0000
0201
0000
0310
0001
0010
,  // measure 49
1000
0000
0010
0000
0000
0000
0210
0000
0000
0000
0302
0000
0000
0000
0013
0100
,  // measure 50
1000
0001
0010
0100
2100
3001
0100
0010
,  // measure 51
0001
0000
0010
0000
0000
0000
2010
0000
0000
0000
3001
0000
0100
0000
0010
1000
,  // measure 52
0001
0010
0100
2100
0000
3001
0100
1000
,  // measure 53
0100
0000
0001
0000
1000
0000
1020
0000
0000
0000
0130
0000
0001
0000
1000
0010
,  // measure 54
0100
0010
1000
0001
0012
0013
1000
0010
,  // measure 55
0001
0000
1000
0000
0000
0000
1020
0000
0000
0000
0031
0000
0010
0000
1000
0001
,  // measure 56
1000
0010
0000
0210
0000
0310
0001
0010
,  // measure 57
0100
0000
0001
0000
0000
0000
0021
0000
0000
0000
0130
0000
0000
0000
1000
0001
,  // measure 58
0100
0000
0010
0000
0100
0000
0001
1000
0200
0000
0310
0000
0001
0000
0010
0000
,  // measure 59
0100
0000
1000
0000
0001
0000
2000
0000
0000
0000
3010
0000
0100
0000
0010
0100
,  // measure 60
0001
1000
0001
0100
0020
1030
0001
0010
,  // measure 61
0000
0000
0001
0000
1000
0000
0002
0000
0103
0000
0010
0000
1000
0000
0100
0010
,  // measure 62
0001
0000
1000
0000
0010
1000
0010
1000
0001
0100
0001
1000
0100
0010
0100
1000
,  // measure 63
0001
0100
0001
1000
0100
0010
0002
0000
0000
0000
1003
0000
0000
0000
1020
0000
,  // measure 64
0000
0000
0130
0001
0100
0000
0001
0000
1000
0001
1000
0010
0100
0010
1000
0001
,  // measure 65
0010
0001
1000
0010
0100
0010
2000
0000
0000
0000
3004
0000
0000
0003
0021
0000
,  // measure 66
0000
0000
0130
0000
0200
0000
0000
0000
1300
0001
1000
0010
1000
0001
0010
0001
,  // measure 67
1000
0010
1000
0001
0010
0001
2000
0000
0000
0000
3001
0000
0000
0000
0201
0000
,  // measure 68
0000
0000
0310
1000
0010
0000
2000
0000
3001
0010
0001
1000
0010
1000
0001
0010
,  // measure 69
0100
1000
0100
0010
0001
1000
0002
0000
0000
0000
0000
0000
2003
0000
0000
0000
,  // measure 70
3100
0000
0010
0001
0020
0000
0000
0000
0031
1000
0001
0100
0001
1000
0100
1000
,  // measure 71
0001
0100
0010
0100
0001
1000
0020
0000
0000
0000
1030
0000
0000
0000
2001
0000
,  // measure 72
0000
0000
3002
0000
0000
0000
0013
0000
0100
1000
0100
0010
0001
1000
0001
1000
,  // measure 73
0010
0100
0010
1000
0001
0010
0002
0000
0000
0000
1003
0000
0000
0000
1010
0000
,  // measure 74
0000
0000
0010
0000
0100
0001
0200
0000
0310
1000
0010
1000
0001
1000
0001
0010
,  // measure 75
0001
1000
0100
1000
0001
0010
0002
0000
0000
0000
1003
0000
0000
0000
1020
0000
,  // measure 76
0000
2030
3100
0220
0000
0000
0000
0000
,  // measure 77
0330
0000
1000
2001
0000
3020
0000
0230
,  // measure 78
0000
0000
0301
0000
1000
0001
0010
0000
0210
0000
0000
0000
1000
0000
0310
0000
,  // measure 79
0001
1000
0010
0210
0301
1000
0100
0020
,  // measure 80
0130
0000
1000
0000
0001
0000
1000
0010
0200
0000
0000
0000
0010
0000
0301
0000
,  // measure 81
1000
0000
0100
0000
0010
0000
0002
0000
1003
0000
0020
0000
0000
0000
1030
0001
,  // measure 82
0010
0000
0100
0000
1000
0000
0010
0100
0002
0000
0000
0000
1003
0000
0200
0000
,  // measure 83
0000
0000
0310
0000
0100
0000
2100
0000
0000
0000
3002
0000
0000
0003
0101
0000
,  // measure 84
0000
0000
0100
0000
0010
0000
0100
0001
2000
0000
0000
0000
3001
0000
0201
0000
,  // measure 85
0000
0310
0000
1010
0000
1000
0000
1002
,  // measure 86
0000
0000
0013
0000
0200
0000
1300
0001
0020
0000
0031
0000
2000
0000
3100
0000
,  // measure 87
0000
0000
0100
0000
0020
0000
0031
1000
2002
0000
0000
0000
3003
0000
0110
0000
,  // measure 88
2002
3003
0000
0000
;

//---------------dance-single - Medium----------------
#NOTES:
     dance-single:
     Ace Of Hearts (2010):
     Medium:
     6:
     0.457,0.131,0.038,0.890,0.000: // measure 1
0000
0000
0000
0000
,  // measure 2
0000
0000
2002
0000
,  // measure 3
3003
0000
0000
0000
0000
0000
0000
0001
,  // measure 4
0000
0200
0000
0300
0220
0000
0330
0000
,  // measure 5
0000
0000
0000
0000
0010
1000
0010
0000
,  // measure 6
2000
3002
0020
0000
,  // measure 7
0000
0000
0000
0000
,  // measure 8
0003
0000
0000
0000
0032
0000
0000
2000
,  // measure 9
0003
0000
0000
0200
0000
0000
0000
0000
,  // measure 10
3000
0000
0020
0000
,  // measure 11
0000
0000
0300
0000
,  // measure 12
0032
0000
0000
0000
2003
0000
0000
3002
,  // measure 13
0000
0203
0000
0320
0000
2030
0000
3002
,  // measure 14
0000
0000
0003
0000
0010
0000
0001
1000
,  // measure 15
0001
0000
1000
0020
0000
1030
0000
0002
,  // measure 16
0000
0003
1000
0010
1000
0000
0001
0010
,  // measure 17
0000
0001
0000
2000
0000
0000
0000
0020
,  // measure 18
0000
0000
0000
0000
3030
0000
1000
0001
,  // measure 19
1000
0000
0001
2000
0000
3100
0000
0010
,  // measure 20
0000
0000
0001
0010
0002
0000
1003
0010
,  // measure 21
0000
1000
0000
0002
0000
0000
0000
0020
,  // measure 22
0000
0000
0000
0000
0033
0000
0001
1000
,  // measure 23
0001
0000
1000
0020
0000
1030
0000
0001
,  // measure 24
0000
0000
0010
0001
0010
0000
0001
1000
,  // measure 25
0000
0001
0000
0200
0000
0000
0000
0020
,  // measure 26
0000
0000
0000
0000
0330
0000
0010
1000
,  // measure 27
0010
0000
1000
0001
0000
1000
0000
0010
,  // measure 28
0000
0000
1000
0001
0010
0000
0001
1000
,  // measure 29
0000
0010
0000
2000
0000
0000
0000
0002
,  // measure 30
3000
0000
0023
0000
,  // measure 31
0000
0031
1000
0000
0020
0000
1030
0002
,  // measure 32
0000
0013
0000
0000
0200
0000
0300
0000
,  // measure 33
2000
3000
0002
0003
,  // measure 34
1000
0100
0000
0020
0000
0000
0031
2000
,  // measure 35
0000
3001
0000
0200
0000
0000
0301
0000
,  // measure 36
2000
0000
3001
0200
0000
0000
0300
0000
,  // measure 37
0000
0000
0000
0000
,  // measure 38
0000
0000
0002
0000
,  // measure 39
0000
1003
0010
0000
2000
0000
3001
0020
,  // measure 40
0000
0032
0000
0000
2003
0000
3000
0000
,  // measure 41
0020
0030
0200
0300
,  // measure 42
0001
1000
0000
0020
0000
0000
1030
0002
,  // measure 43
0000
1003
0000
0020
0000
0000
0130
0000
,  // measure 44
0002
0000
1003
0020
0000
0000
0000
0000
,  // measure 45
0030
1000
0001
2000
0000
3020
0000
2030
,  // measure 46
0000
3001
0010
0000
0001
1000
0001
0000
,  // measure 47
1000
0010
0000
2000
0000
3001
0010
0000
,  // measure 48
0001
1000
0000
0020
0000
1030
0001
0000
,  // measure 49
1000
0100
0000
0020
0000
0130
0000
2000
,  // measure 50
0000
3001
0000
0000
0010
0100
0010
0000
,  // measure 51
0001
1000
0000
0002
0000
1003
0010
0000
,  // measure 52
1000
0001
0000
0020
0000
0130
1000
0000
,  // measure 53
0001
0100
0000
0020
0000
0130
0000
0002
,  // measure 54
0000
1003
0000
0000
0010
1000
0010
0000
,  // measure 55
1000
0001
0000
0020
0000
0031
0010
0000
,  // measure 56
0100
1000
0000
0002
0000
1003
0010
0000
,  // measure 57
1000
0001
0000
0020
0000
0031
0000
2000
,  // measure 58
0000
3001
0010
0000
0200
0000
0000
0300
,  // measure 59
0000
0010
0001
0020
0000
0000
0031
2000
,  // measure 60
0000
3002
0000
1003
0020
0000
0000
0000
,  // measure 61
0000
0000
0130
0002
0000
0000
0000
0000
,  // measure 62
0000
0000
0003
0000
2000
0000
3001
0020
,  // measure 63
0000
0031
0000
2000
0000
3010
0000
0200
,  // measure 64
0000
0301
0000
1000
0020
0000
0000
1030
,  // measure 65
0000
0001
0000
2000
0000
3001
0000
0020
,  // measure 66
0000
0130
1000
0000
0002
0000
1003
0020
,  // measure 67
0000
1030
0000
0002
0000
0013
0000
0200
,  // measure 68
0000
1300
0000
0000
0002
0000
1003
0020
,  // measure 69
0000
1030
0000
0002
0000
0000
2003
0000
,  // measure 70
3001
0100
0000
0000
0020
0000
1030
0002
,  // measure 71
0000
1003
0000
0200
0000
0310
0000
0002
,  // measure 72
0000
1003
0000
0010
2000
0000
0000
3001
,  // measure 73
0000
0010
0000
0002
0000
1003
0000
0200
,  // measure 74
0000
0310
0001
0000
2000
0000
3001
0200
,  // measure 75
0000
0310
0000
2000
0000
3001
0000
0200
,  // measure 76
0000
0301
1000
0002
0000
0000
0000
0000
,  // measure 77
0003
0000
1000
0200
0000
0310
0000
0002
,  // measure 78
0000
1003
0001
0000
0020
0000
0000
0000
,  // measure 79
0030
0001
1000
0002
0000
0103
0000
0020
,  // measure 80
0000
1030
0001
0000
0200
0000
0000
0000
,  // measure 81
0300
0000
0001
0200
0000
0310
0000
2000
,  // measure 82
0000
3001
0010
0000
0002
0000
0000
0000
,  // measure 83
0003
0000
1000
0020
0000
1030
0000
0002
,  // measure 84
0000
1003
0010
0000
1000
0000
0001
2000
,  // measure 85
0000
3010
0000
0200
0000
0301
0000
2000
,  // measure 86
0000
3001
0200
0000
0310
0000
0000
0000
,  // measure 87
0000
0000
0000
0000
1001
0000
0000
1001
,  // measure 88
1001
0000
0000
0000
;

//---------------dance-single - Easy----------------
#NOTES:
     dance-single:
     Ace Of Hearts (2010):
     Easy:
     4:
     0.262,0.033,0.000,0.196,0.000: // measure 1
0000
0000
0000
0000
,  // measure 2
0000
0000
0001
0000
,  // measure 3
0000
0000
0000
0000
0000
0000
0000
1000
,  // measure 4
0000
1000
0000
0000
0010
0000
0000
0000
,  // measure 5
0000
0000
1000
1000
,  // measure 6
0002
0000
0020
0000
,  // measure 7
0000
0000
0000
0000
,  // measure 8
0003
0000
0002
0030
,  // measure 9
0000
0000
0000
2000
0000
0000
0000
0000
,  // measure 10
0003
0000
0020
0000
,  // measure 11
0000
0000
0000
0000
,  // measure 12
3000
0000
0200
0000
,  // measure 13
0030
0000
0002
0000
,  // measure 14
0300
0000
1003
0001
,  // measure 15
0001
1000
1000
1000
,  // measure 16
1000
0010
0010
0100
,  // measure 17
0100
0001
0002
0000
,  // measure 18
0000
0000
1003
0010
,  // measure 19
0010
0100
0100
0100
,  // measure 20
0100
0001
0001
1000
,  // measure 21
1000
0100
0200
0000
,  // measure 22
0000
0000
0310
0001
,  // measure 23
0001
1000
1000
1000
,  // measure 24
1000
0001
0001
0100
,  // measure 25
0100
0010
0020
0000
,  // measure 26
0000
0000
1030
0001
,  // measure 27
0001
0010
0010
0010
,  // measure 28
0010
0001
0001
1000
,  // measure 29
1000
0100
0200
0000
,  // measure 30
2300
0000
3002
0000
,  // measure 31
0000
0000
2003
0000
,  // measure 32
0000
0000
3010
0000
,  // measure 33
1000
0000
0001
0000
,  // measure 34
2000
0000
3001
0001
,  // measure 35
0001
0010
0010
0100
,  // measure 36
0100
1000
1000
0000
,  // measure 37
0000
0000
0000
0000
,  // measure 38
0000
0000
0002
0000
,  // measure 39
0000
0000
0023
0000
,  // measure 40
0000
0000
0031
0000
,  // measure 41
1000
0000
0100
0000
,  // measure 42
0010
0000
0100
0100
,  // measure 43
0100
1000
1000
0001
,  // measure 44
0001
0100
0100
0000
,  // measure 45
0000
0010
0010
0000
,  // measure 46
1000
0000
0001
1000
,  // measure 47
0001
0000
0010
0100
,  // measure 48
0010
0000
0001
0000
,  // measure 49
0001
0000
1000
0010
,  // measure 50
1000
0000
0001
0100
,  // measure 51
0001
0000
1000
0001
,  // measure 52
1000
0000
0001
0010
,  // measure 53
0001
0000
0010
0100
,  // measure 54
0010
0000
0001
1000
,  // measure 55
0001
0000
1000
0100
,  // measure 56
1000
0000
0001
0100
,  // measure 57
0001
0000
1000
0010
,  // measure 58
1000
0001
2000
0000
,  // measure 59
3000
0001
0001
0000
,  // measure 60
0100
0000
0020
0000
,  // measure 61
0000
0000
0000
0230
0000
0000
0000
0000
,  // measure 62
0000
0300
0001
0001
,  // measure 63
1000
1000
0010
0010
,  // measure 64
0010
0000
1000
0000
,  // measure 65
0001
0000
0010
0001
,  // measure 66
0010
0000
0001
0001
,  // measure 67
1000
1000
0100
0100
,  // measure 68
0100
0000
0010
0000
,  // measure 69
0001
0000
1000
0010
,  // measure 70
1000
0000
0001
0001
,  // measure 71
0100
0100
0010
0010
,  // measure 72
0010
0000
1000
0000
,  // measure 73
0001
0000
1000
0010
,  // measure 74
1000
0000
0001
0001
,  // measure 75
1000
1000
0001
0001
,  // measure 76
0001
0000
0020
0000
,  // measure 77
0030
0000
0100
0100
,  // measure 78
0100
0000
2000
0000
,  // measure 79
3000
0010
1000
1000
,  // measure 80
0001
0001
0200
0000
,  // measure 81
0300
0001
1000
1000
,  // measure 82
0001
0001
0020
0000
,  // measure 83
0030
0001
1000
1000
,  // measure 84
0100
0100
0010
0010
,  // measure 85
0020
0030
0001
0001
,  // measure 86
0002
1003
1000
0000
,  // measure 87
0000
0000
0000
0000
0010
0000
0000
0010
,  // measure 88
0010
0000
0000
0000
;

//---------------dance-single - Novice----------------
#NOTES:
     dance-single:
     Ace Of Hearts (2010):
     Beginner:
     2:
     0.163,0.033,0.030,0.196,0.000: // measure 1
0000
0000
0000
0000
,  // measure 2
0000
0000
0001
0000
,  // measure 3
0000
0000
0000
0000
,  // measure 4
1000
1000
1000
0000
,  // measure 5
0000
0000
0002
0000
,  // measure 6
0003
0000
0020
0000
,  // measure 7
0000
0000
0000
0000
,  // measure 8
0030
0000
0002
0000
,  // measure 9
0000
0000
0003
0000
,  // measure 10
0000
0000
2000
0000
,  // measure 11
0000
0000
3000
0000
,  // measure 12
0000
0000
0020
0000
,  // measure 13
0000
0000
0030
0000
,  // measure 14
0000
0000
0000
0000
,  // measure 15
1000
0000
1000
0000
,  // measure 16
1000
0000
0001
0000
,  // measure 17
0001
0000
0002
0000
,  // measure 18
0003
0000
0000
0000
,  // measure 19
1000
0000
1000
0000
,  // measure 20
1000
0000
0010
0000
,  // measure 21
0010
0000
0020
0000
,  // measure 22
0030
0000
0000
0000
,  // measure 23
0100
0000
0100
0000
,  // measure 24
0100
0000
0001
0000
,  // measure 25
0001
0000
0002
0000
,  // measure 26
0003
0000
0000
0000
,  // measure 27
1000
0000
1000
0000
,  // measure 28
1000
0000
0001
0000
,  // measure 29
0001
0000
0002
0000
,  // measure 30
0003
0000
2002
0000
,  // measure 31
0000
0000
3003
0000
,  // measure 32
0000
0000
1000
0000
,  // measure 33
1000
0000
1000
0000
,  // measure 34
0000
0000
0010
0000
,  // measure 35
0010
0000
0100
0000
,  // measure 36
0100
0000
0200
0000
,  // measure 37
0300
0000
0000
0000
,  // measure 38
0000
0000
0220
0000
,  // measure 39
0000
0000
0330
0000
,  // measure 40
0000
0000
0100
0000
,  // measure 41
0100
0000
0001
0000
,  // measure 42
0001
0000
1000
0000
,  // measure 43
1000
0000
0010
0000
,  // measure 44
0010
0000
0010
0000
,  // measure 45
0000
0000
1000
0000
,  // measure 46
1000
0000
0001
0000
,  // measure 47
0001
0000
0010
0000
,  // measure 48
0010
0000
0001
0000
,  // measure 49
0001
0000
2000
0000
,  // measure 50
3000
0000
0010
0000
,  // measure 51
0010
0000
1000
0000
,  // measure 52
1000
0000
0001
0000
,  // measure 53
0001
0000
0020
0000
,  // measure 54
0030
0000
0001
0000
,  // measure 55
0001
0000
1000
0000
,  // measure 56
1000
0000
0010
0000
,  // measure 57
0010
0000
0200
0000
,  // measure 58
0000
0000
0300
0000
,  // measure 59
0000
0000
0001
0000
,  // measure 60
0001
0000
0002
0000
,  // measure 61
0003
0000
2000
0000
,  // measure 62
3000
0000
0001
0000
,  // measure 63
0001
0000
0002
0000
,  // measure 64
0003
0000
0010
0000
,  // measure 65
0010
0000
0001
0000
,  // measure 66
0001
0000
1000
0000
,  // measure 67
1000
0000
2000
0000
,  // measure 68
3000
0000
0001
0000
,  // measure 69
0001
0000
0100
0000
,  // measure 70
0100
0000
0010
0000
,  // measure 71
0010
0000
0020
0000
,  // measure 72
0030
0000
1000
0000
,  // measure 73
1000
0000
0001
0000
,  // measure 74
0001
0000
0100
0000
,  // measure 75
0100
0000
0200
0000
,  // measure 76
0000
0000
0300
0000
,  // measure 77
0000
0000
0010
0000
,  // measure 78
0010
0000
0020
0000
,  // measure 79
0030
0000
1000
0000
,  // measure 80
1000
0000
2000
0000
,  // measure 81
3000
0000
0001
0000
,  // measure 82
0001
0000
0002
0000
,  // measure 83
0003
0000
0010
0000
,  // measure 84
0010
0000
0001
0000
,  // measure 85
0001
0000
1000
0000
,  // measure 86
1000
0000
1000
0000
,  // measure 87
0000
0000
1001
0000
,  // measure 88
1001
0000
0000
0000
;
