#TITLE:Black Apple;
#SUBTITLE:;
#ARTIST:Xi;
#TITLETRANSLIT:;
#SUBTITLETRANSLIT:;
#ARTISTTRANSLIT:;
#GENRE:;
#CREDIT:Ace Of Hearts;
#BANNER:Black Apple - bn.png;
#BACKGROUND:Black Apple - bg.jpg;
#LYRICSPATH:;
#CDTITLE:Ace Of Hearts.png;
#MUSIC:Black Apple.ogg;
#OFFSET:1.740;
#SAMPLESTART:43.600;
#SAMPLELENGTH:12.000;
#SELECTABLE:YES;
#BPMS:0.000=90.000,36.000=180.000,164.000=90.000,180.000=180.000,276.000=90.000,278.000=180.000,282.000=90.000,284.000=180.000,288.000=90.000,290.000=180.000,294.000=90.000,296.000=180.000,300.000=90.000,316.000=180.000,380.000=90.000,396.000=180.000;
#STOPS:;
#BGCHANGES:;
#FGCHANGES:;
#KEYSOUNDS:;

//---------------dance-single - Lunatic----------------
#NOTES:
     dance-single:
     Ace Of Hearts (2011):
     Challenge:
     13:
     1.000,1.000,0.130,0.595,1.000:
0000
0000
0000
0000
,
0002
0013
0001
1000
0001
0100
0001
1000
0100
1000
0001
0100
0010
0100
0002
1003
,
0200
0310
0100
1000
0001
1000
0010
1000
0001
0010
0100
1000
0100
0010
0001
1000
,
0020
1030
0001
0010
0001
1000
0010
0100
0010
1000
0001
0010
0100
1000
0100
0010
,
0002
1003
0010
1000
0001
0010
0100
0010
0001
1000
0001
1000
0010
0100
0020
1030
,
1002
0000
0000
0000
0000
0000
0000
0000
0000
0000
0000
0000
0000
0000
0000
0000
0000
0000
0000
0000
0000
0000
0000
0000
0000
0000
0000
0000
1003
0010
1000
0000
,
1001
0000
0000
0001
0000
1000
1010
0000
0000
0000
0000
0010
0000
0100
0101
0001
,
0021
0000
0000
0000
0000
0000
0000
0000
0000
0000
0000
0000
0000
0000
0031
1000
,
1200
0000
0000
0000
0000
0000
0000
0000
0000
0000
0000
0000
0000
0000
1300
0001
0010
0000
0001
0000
1000
0100
0000
0010
0001
0000
1000
0000
0010
1000
0010
1000
,
0001
1000
0010
1000
0001
0010
0100
0010
0001
1000
0010
0100
0010
1000
0001
0010
,
0001
1000
0010
0100
0010
1000
0001
0010
0001
1000
0001
1000
0010
0100
0010
1000
,
0001
0010
0100
1000
0100
0010
0001
1000
0010
1000
0001
0100
0001
1000
0010
0100
,
0001
0100
0010
1000
0001
0010
0001
1000
0010
0100
0010
1000
0001
0010
0100
0010
,
0001
1000
0001
0100
0010
0100
0001
1000
0100
0010
0100
1000
0001
0010
0001
1000
,
0001
0100
0010
1000
0001
0100
0010
1000
0001
0010
0100
1000
0001
0010
0100
1000
,
0001
0100
0001
1000
0001
0100
0001
1000
0100
0010
0100
1000
0001
0100
0010
0100
,
0001
1000
0010
1000
0001
0010
0100
0010
0001
1000
0001
0100
0010
1000
0010
0100
,
0001
1000
0100
0010
0100
1000
0001
0010
0100
0010
0001
1000
0001
0100
0010
1000
,
0001
1000
0100
0010
0001
0010
0100
1000
0001
0100
0010
0100
0001
1000
0001
0010
,
0100
1000
0100
0010
0001
1000
0010
1000
0010
0100
0001
1000
0100
0010
0100
1000
,
0001
0100
0001
1000
0100
0010
0001
0010
0100
1000
0001
0100
0010
1000
0001
0010
,
0100
0010
0001
1000
0001
0100
0010
1000
0001
0010
0100
0010
0001
1000
0010
0100
,
0001
1000
0001
0010
0100
0010
0001
1000
0001
1000
0010
0100
0010
1000
0001
0010
,
0100
0010
0001
1000
0001
0100
0010
1000
0001
0010
0100
1000
0100
0010
0001
1000
,
0001
1000
0000
0010
1000
0000
0001
0000
0010
0001
0000
1000
0010
0000
0100
0001
,
1000
0010
0100
0001
4000
0000
3001
0010
,
0200
0000
0000
0000
2300
0000
0000
0000
3001
0100
0001
0100
0010
1000
0010
1000
,
0001
0010
0001
1000
0020
0000
0130
0001
,
1000
0100
0040
0000
0000
0031
1000
0001
,
0100
0010
0100
0001
2000
0000
3001
0100
,
0020
0000
2030
3040
,
0130
0001
1000
0100
0020
0000
0130
1000
,
0001
0100
0001
0100
0010
1000
0010
1000
0001
0010
0001
0010
0100
1000
0100
1000
,
0001
0100
0010
1000
0002
0000
0103
0010
,
2000
0000
0000
0000
3002
0000
0000
0000
1003
0010
1000
0010
0100
0001
0100
0001
,
1000
0100
0010
0100
4000
0000
3001
0100
,
0010
1000
0002
0000
0000
0103
0010
1000
,
0001
0010
0001
1000
0020
0000
0130
0001
,
2000
0000
3200
0340
,
0031
1000
0100
1000
0002
0000
0103
0010
,
2000
0000
3001
0010
0100
0010
0001
0000
1000
0010
0100
0010
1000
0000
0000
0000
,
1002
0000
0000
0103
0110
0010
2000
0000
3200
0010
0000
1300
1002
0000
0203
0000
,
0320
0000
0000
0000
0000
0000
0000
0000
0000
0000
0000
0000
0130
0000
0000
0000
0101
0000
0000
0000
0001
0000
0000
0000
2000
0000
0000
0000
0000
0000
0000
0000
3002
0000
0000
0000
0100
0000
0000
0000
0000
0000
0000
0000
1003
0000
0100
0000
1000
0000
0000
0000
0001
0000
0000
0010
0001
0000
0000
0010
0001
0000
0000
0000
,
2000
0000
0000
3001
0021
0130
2000
0000
3002
0010
0000
1003
1200
0000
0320
0000
,
0032
0000
0000
0000
0000
0000
1003
0000
1020
0000
0000
0000
0230
0000
0000
0000
0301
0000
1000
0000
0000
0000
0001
0010
0001
0000
1000
0010
1000
0001
0010
0100
,
2000
0000
0000
0000
0000
3001
0020
0000
,
0230
0000
0000
2300
0000
0000
3002
0000
,
1003
0010
1000
0010
1000
0010
1000
0010
0100
0001
0100
0001
0100
0001
0100
0001
,
1000
0100
1000
0100
1000
0100
1000
0100
0020
0000
0031
1000
0100
1000
0001
0000
,
2000
0000
0000
0000
0000
3001
0020
0000
,
0230
0000
0000
0320
0000
0000
0032
0000
,
0203
0000
0000
0302
0000
0000
2003
0000
,
3020
0000
0000
1030
0001
0000
2000
0000
0000
0000
3002
0000
0203
0000
0320
0000
,
1030
0010
0100
0001
0100
0010
0100
0001
1000
0001
0010
0100
1000
0100
0010
0001
,
1000
0010
1000
0001
0010
0100
0010
0001
1000
0010
0100
0010
1000
0001
1000
0100
,
0010
0100
1000
0001
1000
0010
0100
0010
1000
0001
0010
0100
0010
0001
1000
0010
,
0100
0001
1000
0100
0010
0001
1000
0001
0100
0010
0100
0001
1000
0100
0010
0100
,
1000
0001
0010
0001
1000
0001
0100
0010
1000
0010
0100
0001
1000
0001
0010
0100
,
1000
0100
0010
0001
1000
0001
1000
0010
0100
0010
1000
0001
0010
0100
1000
0001
,
0100
0001
1000
0100
1000
0001
0100
0010
0100
0001
1000
0100
0010
0100
1000
0001
,
0100
0010
1000
0001
0010
0100
1000
0001
0100
0010
0100
0001
1000
0001
1000
0100
,
0010
0000
0200
0000
0000
0000
1300
0001
0010
0000
0001
0000
1000
0000
0010
0000
,
0100
0000
0001
0000
1000
0000
0100
0010
0002
0000
0000
0000
1003
0000
0010
0000
,
0100
0000
0002
0000
0000
0000
1003
0010
0100
0000
0001
0000
1000
0000
0100
0000
,
0040
0000
0000
0000
0130
1000
0001
0100
,
0001
2000
0000
3020
0000
0130
0010
1000
,
0001
0000
0010
0000
0100
0000
1000
0001
0100
0000
0010
0000
1000
0000
0010
0000
,
0100
0002
0000
2003
0000
3100
0010
0001
,
1000
0000
0000
0001
0100
0000
0010
0100
0001
1000
0100
0010
0100
1000
0001
0100
,
0010
0000
0000
1000
0000
0000
0001
0000
0000
0010
0000
0000
0100
0000
0000
0010
0001
0010
0001
0000
0000
1000
0000
0000
0002
0000
0000
0000
0000
0000
0000
0000
0000
0000
0000
0000
0000
0000
0000
0000
0000
0000
1003
0000
0000
0000
0000
0000
,
0200
0000
0000
0000
0000
0000
0000
0000
0000
0000
0000
0000
0320
0000
0000
0000
0000
0000
0000
0000
0000
0030
0000
0000
0011
0000
0000
0001
0000
0000
1000
0000
0000
0010
0000
0000
1000
0000
0000
0001
0010
0001
0010
0000
0000
0001
0000
0000
,
2000
0000
0000
0000
0000
0000
3010
0000
0200
0000
0000
0000
0301
1000
0020
0030
,
0110
0000
0000
0100
0000
0000
0001
1000
0001
1000
0000
0000
0010
0000
0000
1000
0000
0000
0001
0000
0000
0100
0000
0000
0020
0000
0000
0000
0000
0000
1030
0000
0000
0000
0000
0000
0001
0000
0010
0000
0001
0000
0010
0000
0000
0000
0000
0000
,
0100
0000
0000
0000
1000
0000
0000
0000
0001
0000
0000
0000
0100
0000
0000
0000
0120
0000
0000
0000
1030
0001
0100
0000
0020
0000
0000
0000
1030
0001
0100
0000
,
0010
1000
0010
0100
0001
1000
0001
0010
0100
1000
0100
0010
0001
1000
0010
1000
,
0002
0000
0000
0003
1001
0000
0000
1000
0100
0000
0200
0300
0110
0020
0000
0000
,
0032
0000
0000
0003
0101
0000
0000
0100
0010
0000
1000
0001
0101
0100
0200
0000
,
0320
0000
0000
0030
1010
0000
0000
1000
0001
0000
0020
0030
0210
0000
0000
0000
,
2300
0000
0000
3001
0010
0000
0200
0000
0000
0310
0001
0000
2000
0000
0000
3001
0100
0000
0020
0000
0000
0130
0001
0000
2000
0000
3001
0010
0100
0010
0001
1000
,
0001
0100
0001
0100
0001
0100
0001
0100
0010
1000
0010
1000
0010
1000
0010
1000
,
0001
0010
0001
0010
0001
0010
0001
0010
0100
1000
0100
1000
0100
1000
0100
1000
,
0001
0100
0001
0100
0010
1000
0010
1000
0001
0010
0001
0010
0100
1000
0100
1000
,
0001
0100
0001
0100
0010
1000
0010
1000
0001
0100
0010
1000
0010
0100
0001
1000
,
0002
0000
0000
0043
0000
0000
0000
0031
,
2000
0000
0000
0000
3001
0000
0100
0000
0020
0000
0000
0000
1030
0000
0001
0010
,
0200
0000
0000
0000
0000
0000
0000
0000
0000
1300
0000
0000
0004
0040
0000
0000
0000
0000
0000
0000
0000
0000
0000
0000
,
0000
0000
0000
0000
0000
0000
0000
0033
,
0001
1000
0010
1000
0001
0010
0100
1000
0002
0000
0000
0000
0000
0000
1003
0001
,
0010
0001
1000
0001
0100
0001
1000
0100
0010
0100
1000
0001
0100
0010
0100
0001
,
1000
0100
0010
0100
1000
0001
0100
0010
0100
0001
1000
0001
0010
0100
1000
0100
,
0010
0001
1000
0001
0100
0010
1000
0001
1000
0010
0100
0001
1000
0001
0010
0001
,
2000
0000
0000
0000
0000
0000
3001
0100
0010
1000
0001
0010
0001
1000
0010
0100
,
0010
1000
0001
0010
0100
1000
0100
0010
0001
1000
0001
0100
0010
1000
0001
0010
,
0200
0000
0000
0000
0000
0000
0000
0000
0000
0000
0000
0000
0000
0000
0000
0000
0000
0000
0310
0000
0000
0001
0000
0000
1000
0000
0100
0000
0010
0000
0001
0000
0000
1000
0000
0000
0001
0000
0000
1000
0000
0000
0100
0000
0000
0010
0000
0000
,
0001
1000
0010
0100
0010
1000
0001
1000
0100
0010
0100
1000
0001
1000
0010
0100
,
0020
0000
0000
0000
0000
0000
0000
0000
0000
0000
0000
0000
0000
0000
0000
0000
0000
0000
1030
0000
0001
0000
0010
0000
0100
0000
1000
0100
1000
0000
0001
0000
,
0020
0000
0000
0000
0000
0000
0030
0001
2000
0000
0000
0000
0000
0000
3000
0001
,
0020
0000
0000
0000
0000
0000
0030
0001
2000
0000
0000
0000
3200
0000
1300
0001
,
0200
0000
0000
0000
0000
0000
0000
0000
0000
0000
0000
0000
0000
0000
0000
0000
0000
0000
0000
0000
0000
0000
0000
0000
0000
0000
0000
0000
0000
0000
0000
0000
0000
0000
0000
0000
0301
0000
0000
0000
0000
0000
0000
0000
0000
0000
0000
0000
2000
0000
0000
0000
0000
0000
0000
0000
0000
0000
0000
0000
0000
0000
0000
0000
0000
0000
0000
0000
0000
0000
0000
0000
0000
0000
0000
0000
0000
0000
0000
0000
0000
0000
0000
0000
3001
0000
0000
0000
0010
0000
0000
0000
0001
0000
0000
0000
0010
0000
0000
0000
0000
0000
0000
0000
0000
0000
0000
0000
0001
0000
0000
0000
0000
0000
0000
0000
0000
0000
0000
0000
1000
0000
0000
0000
0000
0000
0100
0000
0000
0000
0000
0000
0000
0000
0000
0000
0000
0000
0010
0000
0000
0000
0000
0000
0001
0000
0000
0000
0000
0000
0000
0000
0000
0000
0000
0000
1000
0000
0000
0000
0000
0000
0000
0000
0000
0000
0000
0000
0001
0000
0000
0000
0000
0000
0010
0000
0000
0000
0000
0000
0100
0000
0000
0000
0000
0000
0010
0000
0000
0000
0000
0000
,
0001
1000
0010
0100
0010
1000
0001
0010
0100
1000
0100
0010
0001
1000
0001
0100
,
0010
1000
0001
0010
0100
0010
0001
1000
0001
0100
0010
0100
0001
1000
0100
0010
,
0100
1000
0001
0100
0001
1000
0001
0010
0100
1000
0100
0010
0001
1000
0001
0100
,
0010
1000
0001
0010
0100
1000
0100
0010
0001
1000
0001
0100
0010
0100
0001
1000
,
0100
1000
0001
0100
0010
0100
0001
1000
0001
0010
0001
1000
0010
0100
0010
1000
,
0001
0010
0100
1000
0100
1000
0001
0100
0010
0100
0001
1000
0001
0100
0010
0100
,
0001
1000
0001
0010
0001
1000
0010
0100
0010
1000
0001
0010
0100
0010
0001
1000
,
0001
1000
0000
0010
1000
0000
0001
0000
0100
0010
1000
0001
0010
0001
1000
0001
,
1001
0000
0000
0000
;

//---------------dance-single - Hard----------------
#NOTES:
     dance-single:
     Ace Of Hearts (2011):
     Hard:
     11:
     0.868,0.849,0.028,0.527,0.865:
0000
0000
0000
0000
,
1000
0100
1000
0100
0010
0001
0010
0001
1000
0010
1000
0010
0100
0000
0001
0000
,
1000
0010
1000
0010
0100
0001
0100
0001
1000
0100
1000
0100
0010
0000
0001
0000
,
0010
0100
0010
0100
1000
0100
1000
0100
0010
0001
0010
0001
1000
0000
0010
0000
,
0100
0001
0100
0001
1000
0100
1000
0100
0010
0001
0010
0001
1000
0000
0001
0000
,
0021
0000
0000
0000
0000
0000
0000
0130
,
1001
0000
0000
0001
0000
0100
0110
0000
0000
0000
0000
0010
0000
1000
0001
0010
,
0200
0000
0000
0000
0000
0000
0000
0000
0000
0000
0000
0000
0000
0000
1300
0001
,
0021
0000
0000
0000
0000
0000
0000
0000
0000
0000
0000
0000
0000
0000
0000
0000
0031
0000
1000
0000
0001
0010
0000
0010
0001
0000
1000
0000
0010
0000
0000
0000
,
1000
0010
1000
0010
0100
0001
0100
0001
1000
0000
0100
0000
1000
0000
0001
0000
,
1000
0010
1000
0010
0100
0001
0100
0001
1000
0000
0001
0000
0010
0000
0100
0000
,
1000
0001
1000
0001
0100
0010
0100
0010
1000
0000
0001
0000
0010
0000
0100
0000
,
1000
0001
1000
0001
0010
0100
0010
0100
1000
0000
0001
0000
1000
0000
0010
0000
,
0100
0001
0100
0001
1000
0010
1000
0010
0100
0000
0001
0000
1000
0000
0100
0000
,
0010
0001
0010
0001
1000
0010
1000
0010
0100
0000
0001
0000
1000
0000
0001
0000
,
1000
0010
1000
0010
0100
0001
0100
0001
1000
0000
0001
0000
0010
0000
0001
0000
,
1000
0100
1000
0100
0010
0001
0010
0001
1000
0000
0010
0000
0100
0000
0010
0000
,
1000
0001
1000
0001
0010
0001
0010
0001
1000
0000
0010
0000
0100
0000
0001
0000
,
1000
0100
1000
0100
0010
0100
0010
0100
1000
0000
0001
0000
0100
0000
0010
0000
,
0100
0001
0100
0001
1000
0100
1000
0100
0010
0000
0100
0000
1000
0000
0001
0000
,
0100
0010
0100
0010
1000
0010
1000
0010
0100
0000
0001
0000
1000
0000
0100
0000
,
0010
0001
0010
0001
1000
0001
1000
0001
0100
0000
0010
0000
0100
0000
0001
0000
,
1000
0010
1000
0010
0100
0001
0100
0001
1000
0000
0001
0000
0010
0000
0100
0000
,
1000
0100
1000
0100
1000
0001
1000
0001
0100
0000
0010
0000
0100
0000
0001
0000
,
1000
0001
0000
0001
0100
0000
0010
0000
1000
0010
0000
0010
0100
0000
0001
0000
,
1000
0100
0010
0001
0040
0000
0130
1000
,
0002
0000
0000
0000
0203
0000
0000
0000
0310
1000
0010
1000
0001
0100
0001
0100
,
0001
1000
0001
0010
0200
0000
1300
0001
,
0100
0010
4000
0000
0000
3001
0100
0010
,
0100
0001
1000
0100
0020
0000
0130
1000
,
0002
0000
2003
3040
,
1030
0001
0010
0100
2000
0000
3001
0100
,
0010
1000
0010
1000
0001
0000
1000
0000
0100
0010
0100
0010
0001
0000
1000
0000
,
0010
0100
0001
1000
0200
0000
0310
0001
,
2000
0000
0000
0000
3200
0000
0000
0000
0310
0001
0010
0001
1000
0010
1000
0010
,
0100
0001
1000
0100
0040
0000
0031
1000
,
0001
0100
0020
0000
0000
0130
0001
1000
,
0001
0010
0100
1000
0002
0000
1003
0100
,
0020
0000
0230
4300
,
3001
0100
0010
1000
0002
0000
0013
0100
,
2000
3001
0200
0320
,
2030
0000
0000
0000
3000
0001
0010
0000
0200
0000
0000
2300
0000
0000
3001
0000
,
0200
0000
0301
2000
0000
0000
3001
0000
2000
0000
3100
0020
0000
0000
0000
0000
,
0230
0000
0000
0000
0000
1300
0002
0000
0203
0000
0000
0320
0000
0000
2030
0000
,
3002
0000
0000
0000
0000
0000
1003
0200
0000
0000
0000
0000
0300
0000
0000
0000
,
2000
0000
0000
0000
3000
0001
0020
0000
,
0230
0000
0000
2300
0000
0000
3020
0000
,
0130
0001
0100
0001
0100
0000
0010
0000
1000
0001
1000
0001
1000
0000
0100
0000
,
0010
0001
0010
0001
1000
0100
1000
0100
0020
0000
0000
0000
0000
0000
0000
0000
,
0230
0000
0000
0000
0000
1300
0001
0000
,
0020
0000
0000
0230
0000
0000
2300
0000
,
3002
0000
0000
0203
0000
0000
0310
0000
,
2000
0000
3001
0020
0000
0000
0030
0000
,
0001
1000
0001
1000
0010
1000
0010
1000
0001
0000
0010
0000
0100
0000
1000
0000
,
0001
0100
0001
0100
0010
1000
0010
1000
0001
0000
0010
0000
0100
0000
1000
0000
,
0001
0010
0001
0010
0100
1000
0100
1000
0001
0000
0100
0000
0010
0000
0100
0000
,
0002
0000
0000
0000
1003
0100
0010
0001
,
1000
0010
1000
0010
0100
0001
0100
0001
1000
0000
0100
0000
0010
0000
0001
0000
,
1000
0001
1000
0001
0010
0100
0010
0100
1000
0000
0001
0000
0100
0000
0010
0000
,
0100
0001
0100
0001
0100
0010
0100
0010
1000
0000
0001
0000
0010
0000
0100
0000
,
2000
0000
0000
0000
3001
1000
0001
0010
,
0100
1000
0100
1000
0001
0100
0001
0100
0010
0000
1000
0000
0001
0000
1000
0000
,
0100
0010
0100
0010
0001
0010
0001
0010
0100
0000
1000
0000
0001
0000
0100
0000
,
0010
1000
0010
1000
0001
0100
0001
0100
0001
0000
1000
0000
0100
0000
0010
0000
,
0400
0000
0000
0000
1300
0001
0100
0001
,
1000
0100
0000
0020
0000
0130
1000
0001
,
1000
0000
0200
0000
0000
0000
1300
0001
1000
0000
0010
0000
0100
0000
0001
0000
,
1000
0200
0000
0320
0000
0130
1000
0001
,
0100
0010
0000
0010
0100
0000
0001
0000
1000
0010
0000
0010
1000
0000
0001
0000
,
0100
0000
0001
0000
1000
0000
0100
0000
0010
0000
0001
0010
0001
0000
1000
0000
0020
0000
0000
0000
0000
0000
0000
0000
0000
0000
0000
0000
1030
0000
0000
0000
,
0002
0000
0000
0000
0000
0000
0000
0000
2003
0000
0000
0000
0000
0000
0000
0000
3010
0000
0100
0000
0010
0000
1000
0000
0001
0000
1000
0100
1000
0000
0001
0000
,
0200
0000
0000
0000
0000
0000
0310
0000
2000
0000
0000
0000
3001
0100
0002
0000
,
1003
0000
0100
0000
0010
0001
0010
0000
0001
0000
1000
0000
0010
0000
0100
0000
0001
0000
0000
0000
2000
0000
0000
0000
3001
0000
0010
0000
0001
0000
0000
0000
,
1000
0000
0010
0000
0100
0000
0001
0000
2000
0000
3100
0010
0002
0000
0003
0000
,
1000
0010
1000
0010
0100
0001
0100
0001
1000
0100
1000
0100
0010
0001
0010
0001
,
2000
0000
0000
0000
3010
0000
0000
0100
0001
0000
1000
0000
0100
1000
0200
0000
,
0320
0000
0000
0000
0031
0000
0000
1000
0001
0000
1000
0010
0100
0100
0002
0000
,
2003
0000
0000
0000
3100
0000
0000
0010
0100
0000
1000
0000
0001
0100
0001
0000
,
2000
0000
3001
0200
0000
0301
2000
0000
3010
0200
0000
0301
2000
0000
3001
0010
,
0001
0010
0100
1000
0100
0010
0001
0000
1000
0010
0100
0001
0100
0010
1000
0000
,
0001
1000
0100
0010
0100
1000
0001
0000
1000
0001
0010
0100
0010
0001
1000
0000
,
0001
0100
0010
1000
0010
0100
0001
0000
1000
0100
0010
0001
0010
0100
1000
0000
,
0001
0100
0010
1000
0010
0100
0001
0000
1000
0010
0100
0001
0100
0010
1000
0000
,
0002
0000
0000
0023
0000
0000
0000
0130
,
2000
0000
0000
0000
0000
0000
3002
0000
0000
0000
0000
0000
0000
0000
1003
0010
,
0200
0000
0000
0000
0000
0000
0301
0000
1000
0100
1000
0100
1000
0000
0001
0000
,
1000
0010
1000
0010
1000
0000
0001
0000
0010
0100
0010
0100
0010
0000
0001
0000
,
1000
0100
0010
0001
0010
0100
2000
0000
0000
0000
0000
0000
0000
0000
3001
0010
,
0100
1000
0100
1000
0100
0000
0010
0000
0001
0010
0001
0010
0001
0000
1000
0000
,
0010
1000
0010
1000
0010
0000
0100
0000
0001
1000
0001
1000
0001
0000
0010
0000
,
0100
1000
0100
1000
0100
0000
0010
0000
0001
1000
0001
1000
0001
0000
0100
0000
,
0020
0000
0000
0000
0000
0000
1030
0000
0001
0100
0001
0100
0001
0000
1000
0000
,
0001
0010
0001
0010
0001
0000
1000
0000
0010
0100
0010
0100
0010
0000
1000
0000
,
0002
0000
0000
0000
0000
0000
1003
0000
0010
0100
0010
0100
0010
0000
1000
0000
,
0002
0000
0000
0000
,
0023
0000
0000
0000
0000
0000
0000
0000
0000
0000
0000
0000
0000
0000
0000
0000
0000
0000
0031
0000
0100
0000
0001
0000
1000
0000
0001
0010
0001
0000
1000
0000
,
0020
0000
0000
0000
0000
0000
0000
1030
0002
0000
0000
0000
0000
0000
0000
1003
,
0200
0000
0000
0000
0000
0000
0000
0310
0002
0000
0000
0000
2003
0000
3010
0100
,
0002
0000
0000
0000
0000
0000
1003
0000
0200
0000
0000
0000
0000
0000
0310
0001
0010
0000
0001
0000
1000
0000
0010
0000
1000
0000
0001
0000
0010
0000
0001
0000
,
1000
0010
1000
0010
0100
0001
0100
0001
1000
0000
0001
0000
0010
0000
0100
0000
,
1000
0100
1000
0100
0010
0001
0010
0001
1000
0000
0010
0000
0100
0000
0001
0000
,
1000
0010
1000
0010
0100
0001
0100
0001
1000
0000
0001
0000
0010
0000
0100
0000
,
1000
0001
1000
0001
0100
0010
0100
0010
1000
0000
0001
0000
0010
0000
0100
0000
,
1000
0100
1000
0100
0010
0001
0010
0001
1000
0000
0010
0000
0100
0000
0010
0000
,
1000
0001
1000
0001
0010
0001
0010
0001
1000
0000
0010
0000
0100
0000
0010
0000
,
2000
0000
0000
0000
0000
0000
3001
0000
0200
0000
0000
0000
0310
1000
0010
1000
,
0001
0010
0000
0010
0001
0000
1000
0000
0010
0100
0000
0100
0001
0000
1000
0000
,
1001
0000
0000
0000
;

//---------------dance-single - Normal----------------
#NOTES:
     dance-single:
     Ace Of Hearts (2011):
     Medium:
     9:
     0.572,0.121,0.045,0.743,0.116: // measure 1
0000
0000
0000
0000
,  // measure 2
0002
0000
0000
0000
0000
0000
0003
1000
,  // measure 3
0200
0000
0000
0300
,  // measure 4
0020
0000
0000
0030
,  // measure 5
0002
0000
0000
0000
0000
0000
0003
1000
,  // measure 6
2002
0000
0000
0000
0000
0000
3003
0001
,  // measure 7
0101
0000
0000
0100
0000
0000
0110
0000
0000
0000
0000
0010
0000
0000
1000
0000
,  // measure 8
2200
0000
0000
0000
0000
0000
3300
0100
,  // measure 9
0220
0000
0000
0000
0330
0000
0000
0000
0010
0000
0001
0000
1000
0010
1000
0000
,  // measure 10
0001
0010
0001
0010
0001
0010
0001
0010
,  // measure 11
0100
1000
0100
1000
0100
1000
0100
1000
,  // measure 12
0001
0100
0001
0100
0010
1000
0010
1000
,  // measure 13
0001
0010
0001
0010
0100
1000
0100
1000
,  // measure 14
0001
0010
0001
0010
0100
1000
0100
1000
,  // measure 15
0001
0100
0001
0100
0010
1000
0010
1000
,  // measure 16
0001
0100
0001
0100
0001
1000
0001
1000
,  // measure 17
0001
0010
0001
0010
0002
0000
1003
0000
,  // measure 18
0001
0100
0001
0100
0010
1000
0010
1000
,  // measure 19
0001
0010
0001
0010
0100
1000
0100
1000
,  // measure 20
0001
0100
0001
0100
0010
1000
0010
1000
,  // measure 21
0001
1000
0001
1000
0010
0100
0010
0100
,  // measure 22
0001
0100
0001
0100
0001
1000
0001
1000
,  // measure 23
0100
1000
0100
1000
0100
0010
0100
0010
,  // measure 24
0001
1000
0001
1000
0010
1000
0010
1000
,  // measure 25
0020
0000
0130
0001
2000
0000
3001
0010
,  // measure 26
0100
1000
0001
0100
0020
0000
1030
0001
,  // measure 27
2000
0000
3200
0000
0310
0001
0010
0001
,  // measure 28
1000
0010
0100
0010
2000
0000
3001
0010
,  // measure 29
0100
1000
0004
0000
0000
1003
0010
0100
,  // measure 30
0010
1000
0001
0100
0020
0000
1030
0001
,  // measure 31
0200
0000
0301
4000
,  // measure 32
3001
0010
0100
0010
0002
0000
1003
0010
,  // measure 33
1000
0001
1000
0001
0010
0100
0010
0100
,  // measure 34
1000
0001
1000
0001
0200
0000
0301
1000
,  // measure 35
0020
0000
2030
0000
3001
0010
0001
0010
,  // measure 36
0100
1000
0001
0100
0020
0000
1030
0001
,  // measure 37
0100
0010
2000
0000
0000
3001
0100
0001
,  // measure 38
1000
0001
0010
0100
2000
0000
3001
0100
,  // measure 39
0002
0000
1003
0040
,  // measure 40
1030
0001
0010
0001
2000
0000
3010
0100
,  // measure 41
0002
2003
3200
0320
,  // measure 42
0230
0000
0000
0000
0000
1300
0001
0000
2000
0000
0000
3200
0000
0000
0320
0000
,  // measure 43
0032
0000
1003
0200
0000
0000
2300
0000
3002
0000
0103
0020
0000
0000
0000
0000
,  // measure 44
2030
0000
0000
0000
0000
3001
0020
0000
0032
0000
0000
2003
0000
0000
3020
0000
,  // measure 45
0230
0000
0000
0000
0000
0000
0301
2000
0000
0000
0000
0000
3000
0000
0000
0000
,  // measure 46
0002
0000
0000
0000
0000
1003
0020
0000
,  // measure 47
0230
0000
0000
0302
0000
0000
2003
0000
,  // measure 48
3004
0040
0000
0000
0000
0000
0000
0000
0000
0000
0000
0000
0000
0000
0000
0000
,  // measure 49
0000
0000
0033
0000
,  // measure 50
0020
0000
0000
0000
0000
0130
1000
0000
,  // measure 51
0002
0000
0000
0203
0000
0000
0320
0000
,  // measure 52
2030
0000
0000
3002
0000
0000
0203
0000
,  // measure 53
0320
0000
1030
0002
0000
0000
0000
0000
,  // measure 54
1003
0200
0000
0320
0000
0130
1000
0001
,  // measure 55
1000
0200
0000
0320
0000
0130
1000
0001
,  // measure 56
0100
0002
0000
2003
0000
3010
1000
0001
,  // measure 57
0020
0000
0000
0000
0130
1000
0001
0100
,  // measure 58
0010
2000
0000
3002
0000
0013
0100
0010
,  // measure 59
0001
2000
0000
3020
0000
0130
0001
1000
,  // measure 60
0100
0020
0000
0032
0000
1003
0010
1000
,  // measure 61
0002
0000
0000
0000
0013
0100
1000
0100
,  // measure 62
0010
0000
0002
0000
0000
0000
1003
0100
1000
0000
0001
0000
1000
0000
0010
0000
,  // measure 63
1000
0000
0002
0000
0000
0000
0013
0001
0010
0000
0100
0000
1000
0000
0001
0000
,  // measure 64
0100
0000
0002
0000
0000
0000
1003
0100
1000
0000
0001
0000
0100
0000
0010
0000
,  // measure 65
0400
0000
0000
0000
0301
1000
0001
0010
,  // measure 66
0100
2000
0000
3002
0000
1003
0010
0100
,  // measure 67
0010
2000
0000
3004
0000
0013
0100
1000
,  // measure 68
0001
0200
0000
0320
0000
1030
0001
0010
,  // measure 69
0200
0300
0400
0300
,  // measure 70
0000
1000
0100
0010
0002
0000
0013
0100
2000
0000
0000
0000
0000
0000
3001
0000
,  // measure 71
0020
0000
0000
0000
0032
0000
0000
0000
0000
1003
0010
0100
0002
0000
0103
0010
,  // measure 72
2000
0000
0000
0000
0000
0000
3001
0000
0020
0000
0000
0000
0430
0000
0000
0300
,  // measure 73
0000
1000
0100
0010
0002
0000
0013
0100
1000
0000
0001
0000
0100
0000
0010
0000
,  // measure 74
0100
0000
0001
0000
1000
0000
0001
0000
0200
0000
0000
0301
2000
0000
0000
0000
,  // measure 75
3001
0010
0001
0010
0100
1000
0100
1000
,  // measure 76
0002
0000
0000
0000
1003
0000
0000
0001
0100
0000
0100
0000
0110
0000
0000
0000
,  // measure 77
0020
0000
0000
0000
1030
0000
0000
0001
1000
0000
1000
0000
0001
0100
0001
0000
,  // measure 78
2000
0000
0000
0000
3100
0000
0000
0010
0001
0000
0001
0000
1001
0000
0000
0000
,  // measure 79
2000
0000
0000
3020
0000
0000
2030
0000
0000
3002
0000
0000
0023
0000
0230
0000
,  // measure 80
4300
0004
0000
0000
0000
0000
0000
0000
0000
0000
0000
0000
3003
0000
0000
0000
,  // measure 81
0004
0400
0000
0000
0000
0000
0000
0000
0000
0000
0000
0000
0000
0000
0303
0000
,  // measure 82
0400
0040
0000
0000
0000
0000
0000
0000
0000
0000
0000
0000
0330
0000
0000
0000
,  // measure 83
0040
4000
0000
0000
0000
0000
0000
0000
0000
0000
0000
0000
3030
0000
0000
0000
,  // measure 84
2000
0000
0000
3020
0000
0000
0000
0130
,  // measure 85
0002
0000
0013
0100
0020
0000
0130
1000
,  // measure 86
0002
0000
0000
0000
0000
0000
1003
0000
0400
4000
0000
0000
0000
0000
0000
0000
,  // measure 87
0000
0000
0000
3300
,  // measure 88
1000
0100
1000
0002
0000
0000
0000
1003
,  // measure 89
0010
1000
0010
1000
0001
0100
0001
0100
,  // measure 90
0010
1000
0010
1000
0001
0010
0001
0010
,  // measure 91
0100
1000
0100
1000
0001
1000
0001
0100
,  // measure 92
0020
0000
0000
1030
0001
0100
0001
0100
,  // measure 93
0010
1000
0010
1000
0001
0010
0100
1000
,  // measure 94
0200
0000
0340
0030
,  // measure 95
0002
0000
0000
0003
,  // measure 96
2000
0000
0000
0000
0000
0000
0000
0000
0000
3001
0010
0001
0010
0000
0100
1000
,  // measure 97
0002
0000
0000
0000
0003
0000
0000
1000
0200
0000
0000
0000
0300
0000
0000
1000
,  // measure 98
0002
0000
0000
0000
0003
0000
0000
1000
0200
0000
0300
0000
2000
0000
3002
0000
,  // measure 99
0203
0000
0302
0000
1003
1000
0100
0100
,  // measure 100
0020
0000
0000
0000
,  // measure 101
0000
0000
0031
1000
0010
0100
0010
1000
,  // measure 102
0002
0000
0000
0000
0000
0000
0000
1003
,  // measure 103
0200
0000
0000
0000
0000
0000
0000
1300
,  // measure 104
0002
0000
0000
0000
0000
0000
0000
1003
,  // measure 105
0200
0000
0320
0032
,  // measure 106
2003
0000
0000
3010
0200
0000
0000
0000
,  // measure 107
0301
1000
0010
0000
0100
0010
1000
0001
,  // measure 108
1001
0000
0000
0000
;

//---------------dance-single - Easy----------------
#NOTES:
     dance-single:
     Ace Of Hearts (2011):
     Easy:
     6:
     0.281,0.121,0.028,0.420,0.000: // measure 1
0000
0000
0000
0000
,  // measure 2
2000
0000
0000
0000
0000
0000
3000
0001
,  // measure 3
0200
0000
0000
0300
,  // measure 4
0002
0000
0000
0003
,  // measure 5
2000
0000
0000
3000
,  // measure 6
2002
0000
0000
3003
,  // measure 7
0101
0000
0000
0000
,  // measure 8
0202
0000
0000
0303
,  // measure 9
2020
3030
1000
1000
,  // measure 10
0001
0001
0010
0010
,  // measure 11
0001
0001
0001
0000
,  // measure 12
1000
1000
0010
0010
,  // measure 13
0100
0100
0100
0000
,  // measure 14
0001
0001
1000
1000
,  // measure 15
0010
0010
0010
0000
,  // measure 16
0100
0100
0001
0001
,  // measure 17
1000
1000
1000
0000
,  // measure 18
0001
0001
0010
0010
,  // measure 19
0100
0100
0100
0000
,  // measure 20
0010
0010
0001
0001
,  // measure 21
1000
1000
1000
0000
,  // measure 22
0001
0001
0100
0100
,  // measure 23
0010
0010
0010
0000
,  // measure 24
1000
1000
0001
0001
,  // measure 25
0020
0000
0030
0000
,  // measure 26
0001
0001
0001
1000
,  // measure 27
2000
3000
0010
0010
,  // measure 28
0100
0100
0001
0000
,  // measure 29
2000
3000
0000
0000
,  // measure 30
0010
0010
0010
1000
,  // measure 31
2000
0000
3001
0001
,  // measure 32
0010
0010
0010
0001
,  // measure 33
1000
1000
0010
0010
,  // measure 34
1000
1000
2000
3000
,  // measure 35
0001
0001
0100
0100
,  // measure 36
0010
0010
0010
0100
,  // measure 37
0200
0300
0000
0000
,  // measure 38
0001
0001
0001
1000
,  // measure 39
2000
0000
3010
0010
,  // measure 40
0100
0100
0100
0001
,  // measure 41
0002
0000
0103
0100
,  // measure 42
0200
0300
0002
0003
,  // measure 43
2000
3000
0020
0030
,  // measure 44
0200
0300
0002
0003
,  // measure 45
2000
3000
0002
0003
,  // measure 46
0020
0000
0000
0031
,  // measure 47
2000
0000
0000
3002
0000
0000
1003
0000
,  // measure 48
0040
0000
0000
0000
,  // measure 49
0000
0000
0030
0000
,  // measure 50
2000
0000
0000
3001
,  // measure 51
0020
0000
0000
0230
0000
0000
0310
0000
,  // measure 52
0002
0000
0000
2003
0000
0000
3001
0000
,  // measure 53
0020
0000
0000
0032
0000
0000
0003
0000
,  // measure 54
1000
0000
0000
0002
0000
0000
0013
0000
,  // measure 55
0001
0000
0000
2000
0000
0000
3010
0000
,  // measure 56
1000
0000
0000
0020
0000
0000
1030
0000
,  // measure 57
0002
0000
1003
1000
,  // measure 58
0010
0000
0000
0200
0000
0000
0310
0000
,  // measure 59
1000
0000
0000
0002
0000
0000
1003
0000
,  // measure 60
1000
0000
0000
0200
0000
0000
1300
0000
,  // measure 61
0002
0000
1003
1000
,  // measure 62
0010
0000
0000
0010
0000
0000
0100
0000
,  // measure 63
0100
0000
0001
0001
,  // measure 64
1000
0000
1000
0100
,  // measure 65
0200
0000
0310
0010
,  // measure 66
0001
0000
0001
1000
,  // measure 67
1000
0000
0010
0100
,  // measure 68
0100
0000
0001
0001
,  // measure 69
2000
0000
3000
0000
,  // measure 70
0010
0010
0020
0030
2000
0000
0000
0000
,  // measure 71
3001
0000
0000
0000
0100
0100
0200
0300
,  // measure 72
0002
0000
1003
1000
,  // measure 73
0001
0001
0001
0000
0010
0000
0010
0000
,  // measure 74
0010
0000
0200
0300
,  // measure 75
4000
0000
0000
3000
,  // measure 76
0002
0000
0003
0000
1000
1000
1000
0000
,  // measure 77
0020
0000
0030
0000
0100
0100
0100
0000
,  // measure 78
0002
0000
0003
0000
1000
1000
1000
0000
,  // measure 79
0002
0000
0000
0003
,  // measure 80
0040
0000
0000
0030
,  // measure 81
0400
0000
0000
0300
,  // measure 82
4000
0000
0000
3000
,  // measure 83
0004
0000
0000
0003
,  // measure 84
2000
0000
0000
3020
0000
0000
0000
0000
,  // measure 85
2030
0000
0000
3002
0000
0000
0000
0000
,  // measure 86
0203
0000
0304
0000
,  // measure 87
0000
0000
0000
0003
,  // measure 88
2000
0000
0000
3000
0000
0000
0000
0000
,  // measure 89
0400
0000
0000
0300
,  // measure 90
4000
0000
0000
3000
,  // measure 91
0004
0000
0000
0003
,  // measure 92
0020
0030
0400
0000
,  // measure 93
0000
0300
4000
0000
,  // measure 94
3000
0000
0002
0003
,  // measure 95
1000
1000
1000
0000
,  // measure 96
0020
0000
0000
0000
0030
1000
1000
0000
,  // measure 97
0002
0003
0200
0300
,  // measure 98
0020
0000
0030
0000
1000
0000
0001
0001
,  // measure 99
0001
0100
0002
0003
,  // measure 100
2000
0000
0000
0000
,  // measure 101
3000
0001
0001
0010
,  // measure 102
0020
0000
0000
0030
,  // measure 103
0200
0000
0000
0300
,  // measure 104
2000
0000
3000
0000
,  // measure 105
0002
0000
0103
0100
,  // measure 106
0200
0000
0300
0000
,  // measure 107
0010
0010
1000
1000
,  // measure 108
1001
0000
0000
0000
;

//---------------dance-single - Moedan----------------
#NOTES:
     dance-single:
     Ace Of Hearts (2011):
     Beginner:
     3:
     0.151,0.121,0.017,0.295,0.000: // measure 1
0000
0000
0000
0000
,  // measure 2
0002
0000
0003
0000
,  // measure 3
2000
0000
3000
0000
,  // measure 4
0020
0000
0030
0000
,  // measure 5
0200
0000
0300
0000
,  // measure 6
0220
0000
0000
0000
,  // measure 7
0330
0000
0000
0000
,  // measure 8
2002
0000
0000
0000
,  // measure 9
3003
0000
0000
0000
,  // measure 10
0001
0000
0001
0000
,  // measure 11
0001
0000
0000
0000
,  // measure 12
0010
0000
0010
0000
,  // measure 13
0010
0000
0000
0000
,  // measure 14
0100
0000
0100
0000
,  // measure 15
0100
0000
0000
0000
,  // measure 16
1000
0000
1000
0000
,  // measure 17
1000
0000
0000
0000
,  // measure 18
0001
0000
0001
0000
,  // measure 19
0001
0000
0000
0000
,  // measure 20
1000
0000
1000
0000
,  // measure 21
1000
0000
0000
0000
,  // measure 22
0010
0000
0010
0000
,  // measure 23
0010
0000
0000
0000
,  // measure 24
0100
0000
0100
0000
,  // measure 25
0200
0000
0300
0000
,  // measure 26
0001
0000
0001
0000
,  // measure 27
0002
0000
0003
0000
,  // measure 28
1000
0000
1000
0000
,  // measure 29
2000
0000
3000
0000
,  // measure 30
0010
0000
0010
0000
,  // measure 31
0020
0000
0030
0000
,  // measure 32
0100
0000
0100
0000
,  // measure 33
0200
0000
0300
0000
,  // measure 34
0001
0000
0001
0000
,  // measure 35
0002
0000
0003
0000
,  // measure 36
1000
0000
1000
0000
,  // measure 37
2000
0000
3000
0000
,  // measure 38
0100
0000
0100
0000
,  // measure 39
0200
0000
0300
0000
,  // measure 40
0010
0000
0010
0000
,  // measure 41
0020
0000
0030
0000
,  // measure 42
0002
0000
0003
0000
,  // measure 43
2000
0000
3000
0000
,  // measure 44
0020
0000
0030
0000
,  // measure 45
0200
0000
0300
0000
,  // measure 46
0002
0000
0003
0000
,  // measure 47
2000
0000
3000
0000
,  // measure 48
0004
0000
0000
0000
,  // measure 49
0000
0000
0003
0000
,  // measure 50
2000
0000
3000
0000
,  // measure 51
0020
0000
0030
0000
,  // measure 52
1000
0000
1000
0000
,  // measure 53
1000
0000
0000
0000
,  // measure 54
0001
0000
0001
0000
,  // measure 55
0100
0000
0100
0000
,  // measure 56
0010
0000
0010
0000
,  // measure 57
0020
0000
0030
0000
,  // measure 58
1000
0000
1000
0000
,  // measure 59
0001
0000
0001
0000
,  // measure 60
0010
0000
0010
0000
,  // measure 61
0020
0000
0030
0000
,  // measure 62
0001
0000
0001
0000
,  // measure 63
1000
0000
1000
0000
,  // measure 64
0100
0000
0100
0000
,  // measure 65
0200
0000
0300
0000
,  // measure 66
0010
0000
0010
0000
,  // measure 67
0001
0000
0001
0000
,  // measure 68
1000
0000
1000
0000
,  // measure 69
2000
0000
3000
0000
,  // measure 70
0020
0000
0030
0000
,  // measure 71
0000
0000
2000
0000
,  // measure 72
3000
0000
0000
0000
,  // measure 73
0002
0000
0003
0000
,  // measure 74
0000
0000
0010
0000
,  // measure 75
0002
0000
0003
0000
,  // measure 76
2000
0000
3000
0000
,  // measure 77
0020
0000
0030
0000
,  // measure 78
0200
0000
0300
0000
,  // measure 79
0002
0000
0000
0003
,  // measure 80
4000
0000
0000
0000
,  // measure 81
0000
0000
3000
0000
,  // measure 82
0004
0000
0000
0000
,  // measure 83
0000
0000
0003
0000
,  // measure 84
0020
0000
0030
0000
,  // measure 85
0002
0000
0003
0000
,  // measure 86
2000
0000
3040
0000
,  // measure 87
0000
0000
0000
0000
,  // measure 88
0030
0000
0000
0000
,  // measure 89
0400
0000
0000
0000
,  // measure 90
0000
0000
0000
0000
,  // measure 91
0000
0000
0000
0000
,  // measure 92
0300
0000
0004
0000
,  // measure 93
0000
0000
0000
0000
,  // measure 94
0003
0000
1000
0000
,  // measure 95
2000
0000
3000
0000
,  // measure 96
0020
0000
0030
1000
,  // measure 97
2000
3000
0002
0003
,  // measure 98
0020
0030
0002
0003
,  // measure 99
2000
3000
0000
0000
,  // measure 100
0002
0000
0000
0000
,  // measure 101
0003
0000
1000
0000
,  // measure 102
2000
0000
3000
0000
,  // measure 103
0020
0000
0030
0000
,  // measure 104
0200
0000
0300
0000
,  // measure 105
0001
0000
0001
0000
,  // measure 106
0002
0000
0003
0000
,  // measure 107
1000
0000
1000
0000
,  // measure 108
1001
0000
0000
0000
;
