#TITLE:All I Want For Christmas;
#SUBTITLE:(Nightcore Mix);
#ARTIST:Mariah Carey;
#TITLETRANSLIT:;
#SUBTITLETRANSLIT:;
#ARTISTTRANSLIT:;
#GENRE:;
#CREDIT:Ace Of Hearts;
#BANNER:All I Want For Christmas (Nightcore Mix) - bn.png;
#BACKGROUND:All I Want For Christmas (Nightcore Mix) - bg.png;
#LYRICSPATH:;
#CDTITLE:Ace Of Hearts.png;
#MUSIC:All I Want For Christmas (Nightcore Mix).ogg;
#OFFSET:0.260;
#SAMPLESTART:96.900;
#SAMPLELENGTH:15.000;
#SELECTABLE:YES;
#BPMS:0.000=94.900,38.000=189.800,70.000=94.900,72.000=189.800,300.000=94.900,304.000=189.800,400.000=94.900,408.000=189.800,460.000=94.900,464.000=189.800;
#STOPS:;
#BGCHANGES:;
#FGCHANGES:;
#KEYSOUNDS:;

//---------------dance-single - Hard----------------
#NOTES:
     dance-single:
     Ace Of Hearts (2011):
     Hard:
     9:
     0.628,0.601,0.385,0.787,0.129: // measure 1
0000
0000
0000
0000
,  // measure 2
0002
0000
0013
0000
0100
0000
1000
0001
0000
0100
0000
0020
0000
0130
0000
0000
,  // measure 3
0002
0000
1003
0100
0000
0010
0000
0100
0000
1000
0000
0004
0000
0000
0003
0000
,  // measure 4
0000
0000
0000
0000
1000
0000
0010
0000
2000
0000
0000
3001
0000
0000
0020
0000
0000
0000
0000
0000
0000
0000
0130
0000
1000
0000
0000
0000
0000
0000
0000
0000
,  // measure 5
0002
0000
0103
0040
0000
0000
1030
0002
0000
0013
0000
0410
0000
0000
0300
0000
,  // measure 6
2000
0000
3001
0000
0100
0000
0001
1000
0000
0001
0000
0401
0000
0000
0300
0000
,  // measure 7
0020
0000
1030
0001
0000
0010
0000
0001
0000
1000
0000
1400
0000
0000
0300
0000
,  // measure 8
0020
0000
0130
0000
1000
0001
0000
0400
0000
0000
0000
0000
0000
0300
0000
0000
,  // measure 9
0102
2003
3100
1000
0002
2000
0000
0000
,  // measure 10
0000
3003
0002
0000
0103
0010
0000
1010
,  // measure 11
0000
1000
0001
0010
0100
1000
0000
1001
,  // measure 12
0000
0001
0100
0000
0020
0000
1030
0001
,  // measure 13
0000
1000
0200
0000
0320
0000
0000
0032
,  // measure 14
0000
0103
0010
0100
0001
1000
0000
1100
,  // measure 15
0000
0100
0010
0001
1000
0010
0000
0110
,  // measure 16
0000
0100
0001
0000
2000
0000
3100
0010
,  // measure 17
0000
0000
0000
0001
0000
0000
0200
0000
0000
0000
0000
0000
0304
4000
0000
0000
0000
0000
0000
0000
0000
0000
0000
0000
,  // measure 18
0000
0000
3003
0000
,  // measure 19
0002
0000
0103
0000
0020
0000
1030
0001
,  // measure 20
0000
0010
0000
0210
0000
1300
0000
0000
,  // measure 21
0002
0000
0103
0010
0000
0100
0000
0101
,  // measure 22
0000
0001
0000
2000
0000
3000
0000
0000
,  // measure 23
0000
0000
0100
0010
0001
1000
0000
0020
,  // measure 24
0000
0130
0000
0001
4000
0000
3000
0000
,  // measure 25
0002
0000
0103
0040
0000
0030
1000
1002
,  // measure 26
0000
0013
0000
0400
0000
0300
0000
0000
,  // measure 27
2000
0000
3001
0040
0000
0000
0031
1000
,  // measure 28
0000
0010
0000
0110
0000
0100
0000
0000
,  // measure 29
0102
0000
1003
0020
0000
1030
0000
1002
,  // measure 30
0000
0013
0000
0410
0000
0300
0000
0000
,  // measure 31
2100
0000
3001
0020
0000
0130
0000
1100
,  // measure 32
0000
1000
0000
0001
0400
0000
0300
0000
,  // measure 33
0020
0000
1030
0001
0000
0010
0000
0210
,  // measure 34
0000
1300
0000
1004
0000
0003
0000
0000
,  // measure 35
2000
0000
3010
0000
0200
0000
0301
1000
,  // measure 36
0000
0010
0000
0400
0000
0300
0000
0000
,  // measure 37
0102
0000
1003
0100
0000
0010
0000
0011
,  // measure 38
0000
0001
0000
4000
0000
3000
0000
0000
,  // measure 39
1010
0000
0010
0100
0000
0001
0000
2000
,  // measure 40
0000
3010
0400
0000
0000
0300
0000
0000
,  // measure 41
0102
2003
3100
0010
,  // measure 42
0012
2000
0000
3003
,  // measure 43
0040
4000
0000
0000
0000
0000
0000
0000
0000
0000
0000
0000
0000
0000
0000
0000
0000
0000
0000
0000
0000
3030
0000
0000
,  // measure 44
1000
0001
0000
0011
0000
0010
0100
1000
,  // measure 45
0001
0100
0000
0110
0000
0010
1000
0000
,  // measure 46
0002
0000
0103
0010
0000
1000
0002
0000
,  // measure 47
0023
0000
0000
0230
0000
1300
0001
0100
,  // measure 48
0010
1000
0000
1001
0000
0001
0100
0010
,  // measure 49
1000
0001
0000
0011
0000
0010
0100
0000
,  // measure 50
2000
0000
3001
0100
0000
0010
0200
0000
,  // measure 51
0302
0000
0000
0000
0000
0000
0000
0000
0000
4003
0400
0000
0000
0000
0000
0000
0000
0000
3300
0000
0000
0000
0000
0000
,  // measure 52
2000
0000
3001
0000
0100
0000
0010
1000
,  // measure 53
0000
0001
0000
0021
0000
0130
0000
0000
,  // measure 54
1000
0000
0001
0200
0000
0320
0000
1030
,  // measure 55
0000
0001
0000
0202
0000
0000
0303
0000
,  // measure 56
0000
0000
0100
0010
1000
0001
0000
0010
,  // measure 57
0000
0001
0000
0200
0000
0310
0000
0000
,  // measure 58
2000
0000
3001
0020
0000
0031
0000
2000
,  // measure 59
0000
3010
0000
0420
0000
0000
0330
0000
,  // measure 60
0200
0000
0301
0000
2001
0000
3100
0010
,  // measure 61
0000
0100
0000
2000
0000
3001
0000
0000
,  // measure 62
0200
0000
0310
1000
0000
0001
0000
0010
,  // measure 63
0000
0100
0000
2200
0000
0000
3300
0000
,  // measure 64
0000
0000
1000
0001
0100
0010
0000
2000
,  // measure 65
0000
3001
0000
0021
0000
0130
0000
0000
,  // measure 66
2000
0000
3001
0200
0000
0310
0000
1010
,  // measure 67
0000
1000
0000
0004
0000
0003
0000
1000
,  // measure 68
0020
0000
1030
0000
0002
0000
0013
0100
,  // measure 69
0000
1000
0000
2004
0000
0000
3003
0000
,  // measure 70
2000
0000
3010
0100
0000
0001
0000
1001
,  // measure 71
0000
1000
0000
0400
0000
0300
0000
0000
,  // measure 72
0110
0000
0020
0000
0031
1000
0000
2100
,  // measure 73
0000
3001
0400
0000
0000
0300
0001
1000
,  // measure 74
0200
0310
0100
1000
,  // measure 75
1002
0020
0003
0130
,  // measure 76
2200
0000
0000
0000
0000
0000
0000
0000
0000
0000
0000
0000
0000
0000
0000
0000
0000
0000
3300
0000
0000
0000
0000
0000
4000
0004
0000
0000
0000
0000
0000
0000
0000
0000
0000
0000
0000
0000
0000
0000
0000
0000
0000
0000
0000
3003
0000
0000
,  // measure 77
0001
0100
0000
0110
0000
0100
0001
1000
,  // measure 78
0100
0010
0000
0011
0000
0001
1000
0000
,  // measure 79
0020
0000
0130
0001
0000
1000
0200
0000
,  // measure 80
0320
0000
0000
0230
0000
1300
0001
0100
,  // measure 81
0010
1000
0000
1001
0000
0001
0010
0001
,  // measure 82
1000
0010
0000
0110
0000
0100
0001
0000
,  // measure 83
2000
0000
3001
0100
0000
0010
0200
0000
,  // measure 84
0302
0000
0000
0000
0000
0000
0000
0000
0000
4003
0040
0000
0000
0000
0000
0000
0000
0000
0000
0000
0000
3030
0000
0000
,  // measure 85
0110
0000
0010
1000
0001
0010
0001
1000
,  // measure 86
0010
0100
0010
1000
0001
0010
0100
1000
,  // measure 87
0001
0100
0010
1000
0001
0010
0100
2000
,  // measure 88
0000
3001
0100
0010
0100
0001
2000
3000
,  // measure 89
1010
0000
0010
1000
0001
0100
0010
0100
,  // measure 90
0001
1000
0001
0010
0100
1000
0001
0100
,  // measure 91
0010
1000
0001
0020
0000
0031
0000
2000
,  // measure 92
0000
3010
0100
0010
1000
0001
0020
0030
,  // measure 93
0110
0000
0100
1000
0001
0100
0010
1000
,  // measure 94
0001
0010
0001
2000
0000
3010
0200
0300
,  // measure 95
0101
0000
0001
1000
0100
0010
0100
1000
,  // measure 96
0001
0100
0010
2000
0000
3001
0010
0100
,  // measure 97
1000
0001
1000
0010
0200
0000
0301
0100
,  // measure 98
0010
0100
0001
1000
1001
0000
0001
1000
,  // measure 99
1200
0000
0000
0310
0000
0000
0001
0000
2001
0000
0000
3010
0000
0000
1000
0000
,  // measure 100
0400
0040
0000
0000
0000
0000
0000
0000
0000
0000
0000
0000
0000
0000
0000
0330
0000
0000
0020
0000
0000
0000
0000
0000
,  // measure 101
0230
0000
2300
0000
3002
0000
0103
0010
0000
1000
0000
1200
0000
0310
0000
0000
,  // measure 102
0200
0000
1300
0002
0000
0103
0000
0010
0000
1000
0000
0002
0000
0000
0003
0000
,  // measure 103
0000
0000
0000
0000
1000
0000
0010
0000
0100
0000
0002
0000
0000
0003
2001
0000
,  // measure 104
0000
3010
0000
0210
0000
0301
0000
0000
,  // measure 105
2001
0000
3100
0020
0000
0130
0000
2100
,  // measure 106
0000
3001
0000
0042
0000
0000
0033
0000
,  // measure 107
0020
0000
0130
0000
2000
0000
3001
0020
,  // measure 108
0000
0130
0000
2200
0000
0000
3300
0000
,  // measure 109
1002
0000
0103
0020
0000
1030
0000
1002
,  // measure 110
0000
0013
0000
0220
0000
0000
0330
0000
,  // measure 111
0200
0000
1300
0000
0001
0010
0000
0200
,  // measure 112
0000
0310
0400
0000
0000
0300
1000
0001
,  // measure 113
0201
0320
1030
0001
,  // measure 114
0201
0020
0000
0330
,  // measure 115
4000
0040
0000
0000
0000
0000
0000
0000
0000
0000
0000
0000
0000
0000
0000
0000
0000
0000
0000
0000
0000
0000
0000
0000
,  // measure 116
3030
0000
0000
0020
,  // measure 117
1030
0001
0000
0011
0000
0010
0100
1000
,  // measure 118
0001
0100
0000
0110
0000
0010
1000
0000
,  // measure 119
0002
0000
0013
0100
0000
0010
0002
0000
,  // measure 120
2003
0000
0000
3020
0000
0130
0001
1000
,  // measure 121
0100
0010
0000
0011
0000
0001
1000
0010
,  // measure 122
0100
0001
0000
1001
0000
1000
0100
0000
,  // measure 123
0020
0000
0130
1000
0000
0001
0200
0000
,  // measure 124
0340
0400
0000
0000
0000
0000
0000
0000
0000
0000
0000
0000
0000
0000
0000
0000
0000
0000
0000
0000
0000
0330
0000
0000
,  // measure 125
0010
1000
0000
1001
0000
0001
0100
0010
,  // measure 126
1000
0001
0000
0011
0000
0010
0100
0000
,  // measure 127
0020
0000
0031
1000
0000
0010
0200
0000
,  // measure 128
0302
0000
0000
2003
0000
3010
0100
0010
,  // measure 129
1000
0001
0000
0101
0000
0100
0010
1000
,  // measure 130
0001
0010
0000
0110
0000
0100
1000
0000
,  // measure 131
0002
0203
0310
1000
,  // measure 132
0200
0000
0000
0000
0000
0000
0340
0004
0000
0000
0000
0000
0000
0000
0000
0000
0000
0000
0000
0000
0000
0000
0000
0000
,  // measure 133
0033
0000
0001
0100
0001
0000
1000
0100
1000
0000
0000
0000
0001
0000
0000
0000
,  // measure 134
2002
0000
0000
0000
,  // measure 135
3003
0000
0000
0000
;

//---------------dance-single - Expert----------------
#NOTES:
     dance-single:
     Ace Of Hearts (2011):
     Challenge:
     14:
     1.000,0.672,0.338,0.533,1.000:
0000
0000
0000
0000
,
2000
0000
3100
0000
0020
0000
0031
1001
0000
1000
0000
1020
0000
0130
0000
0000
,
0102
0000
1003
0100
0000
0010
0000
0011
0000
0001
0000
4000
0000
0000
3000
0000
,
0000
0000
0000
0000
0001
0000
0100
0000
0001
0000
0000
1000
0000
0000
0020
0000
0000
0000
0000
0000
0030
0000
0110
0000
0100
0000
0000
0000
0000
0000
0000
0000
,
0102
0000
1003
0400
0000
0000
0310
0012
0000
1003
0000
1040
0000
0000
0030
0000
,
0210
0000
0301
0000
1001
0000
1000
1010
0000
0010
0000
0400
0000
0000
0300
0000
,
0102
0000
1003
0100
0000
0010
0000
0011
0000
0001
0000
4000
0000
0000
3000
0000
,
1020
0000
0130
0000
0001
1000
0000
2400
0000
0000
0000
0000
0000
3300
0000
0000
,
0120
0032
1003
0010
0210
0002
0000
0300
,
4003
0000
0000
0000
0002
0000
3000
0000
0013
0100
1000
0000
0001
0000
2001
0000
,
0000
0000
3010
0000
0100
0001
1000
0000
0100
1000
0001
0000
0000
0000
0201
0000
,
0000
0000
0310
0000
1010
0000
1000
0000
0001
1000
0100
0000
0010
0000
0012
0000
,
0000
0000
1003
0010
0100
0001
0100
0010
1000
0001
1000
0000
0001
0000
0201
0000
,
0000
0000
0310
0000
1010
0000
1000
0000
0100
1000
0001
1000
0100
0000
0120
0000
,
0000
0000
0031
0000
1000
0000
0010
0000
0100
0001
1000
0000
0001
0000
0201
0000
,
0000
0000
0310
1000
0001
0000
0010
0000
0100
1000
0001
0000
0100
0000
0120
0000
,
0000
0000
0000
0000
0000
0000
1030
0000
0000
0001
0000
0000
0100
0000
0000
0010
0000
0000
0100
0000
0000
0001
0000
0000
4000
0000
0004
0000
0000
0000
0000
0000
0000
0000
0000
0000
0000
0000
0000
0000
0000
0000
0000
0000
0000
0000
0000
0000
,
0000
0000
0000
3003
0220
0000
0330
0000
,
1001
1000
0001
0100
0010
1000
0001
0010
,
0100
0010
0001
1000
0010
0100
0001
1000
,
0100
0000
0010
0100
1000
0000
0001
0100
0010
1000
0010
0100
0001
0000
1000
0001
,
0100
0000
0010
0100
0001
0000
1000
0100
0010
0001
0010
0100
1000
0001
1000
0100
,
0010
0001
1000
0000
0010
0000
1000
0010
0100
0010
1000
0001
0010
0000
0100
1000
,
0001
0100
0010
1000
0001
0000
0010
0100
1000
0100
0010
0001
1000
0000
0010
0000
,
0100
0001
1000
0100
0010
0000
0100
1000
0001
0100
0010
1000
0001
0000
1000
0010
,
0100
0001
1000
0100
0010
0000
0100
1000
0001
0100
0010
1000
0001
0000
0010
0100
,
1000
0100
0010
0001
1000
0000
0010
0100
0010
1000
0001
0010
0100
0000
0010
0001
,
1000
0001
0100
0010
1000
0000
0001
0100
0010
1000
0001
0010
0100
0000
0010
0001
,
1000
0001
0100
0010
1000
0000
0001
0010
0001
1000
0010
0100
0001
0000
1000
0100
,
0010
0001
0010
0100
1000
0000
0001
0100
0010
1000
0010
0100
0001
0000
1000
0001
,
1000
0100
0010
0100
1000
0000
0001
1000
0010
1000
0001
0010
0100
0000
0010
0001
,
1000
0001
0100
0010
1000
0000
0001
0100
0010
1000
0001
0010
0100
0000
0010
0001
,
1000
0001
0100
0010
1000
0000
0001
0010
0100
1000
0100
0010
0001
0000
1000
0001
,
0010
0001
1000
0010
0100
0000
0001
0100
0010
1000
0010
0100
0001
0000
1000
0100
,
0010
0000
0100
1000
0001
0000
1000
0010
0100
0001
1000
0100
0010
0000
0001
1000
,
0010
0000
1000
0001
1000
0000
0010
0100
0010
1000
0001
0010
0100
0000
0010
0001
,
1000
0000
0010
1000
0001
0000
0010
0100
1000
0100
0010
0001
1000
0000
0010
0100
,
0001
0000
1000
0001
0010
0000
0100
1000
0001
0100
0010
1000
0001
0000
1000
0100
,
0010
0000
0100
1000
0001
0000
0100
0010
1000
0001
0010
0100
1000
0000
0001
0100
,
0010
0000
1000
0010
0100
0000
0001
1000
0100
0010
0100
1000
0001
0000
1000
0010
,
0100
0000
0010
1000
0001
0000
0010
0100
1000
0100
0010
0001
1000
0000
0010
0100
,
0002
0000
0000
0000
0003
0000
1000
0100
0010
0001
0010
0100
1000
0000
0001
1000
,
0004
0400
0000
0000
0000
0000
0000
0000
0000
0000
0000
0000
0000
0000
0000
0000
0000
0000
0000
0000
0000
0303
0000
0000
,
0001
1000
0001
0000
0100
0000
0120
0000
0000
0000
1030
0001
0100
0001
1000
0000
,
0001
0010
0100
0000
1000
0000
1002
0000
0000
0000
0013
0000
0110
0000
0100
0000
,
1000
0001
0100
0001
1000
0000
1020
0000
0000
0000
0130
0001
1000
0001
0100
0010
,
1000
0001
0010
0000
0100
0000
2100
0000
0000
0000
3001
0000
0010
0100
0010
0000
,
0001
1000
0100
1000
0001
0000
0201
0000
0000
0000
0310
0000
1000
0001
1000
0001
,
1000
0100
0010
0100
1000
0000
1002
0000
0000
0000
1003
0000
0010
0100
0010
1000
,
0001
1000
0001
0010
0100
0000
2100
0000
0000
0000
3001
0000
0100
0010
0100
0001
,
4000
0004
0000
0000
0000
0000
0000
0000
0000
0000
0000
0000
0000
0000
0000
0000
0000
0000
0000
0000
0000
3003
0000
0000
,
1000
0010
0100
0010
1000
0000
0001
0010
0100
1000
0100
0010
0001
0000
1000
0010
,
0100
0001
0100
0010
1000
0000
0001
0010
0100
1000
0100
0010
0001
0000
1000
0100
,
0010
0100
0010
0100
1000
0001
1000
0010
0100
0010
0100
0010
1000
0000
0001
0100
,
0001
1000
0001
0100
0001
0000
1000
0100
1000
0001
1000
0100
1000
0001
0100
0001
,
1000
0100
0010
0100
1000
0000
0001
0100
0010
1000
0010
0100
0001
0000
1000
0001
,
0010
0001
0010
0001
1000
0000
0001
1000
0100
1000
0100
1000
0001
1000
0100
0000
,
0010
0001
0010
0001
1000
0100
1000
0100
0010
0001
0010
0100
1000
0000
0001
0100
,
0010
0100
0010
0100
0001
0000
1000
0010
0100
0010
0100
0010
1000
0001
1000
0000
,
0001
0010
0001
0010
0100
1000
0100
1000
0001
0100
0001
0100
0010
0000
1000
0001
,
0100
0001
0100
0001
1000
0000
0001
0010
0100
1000
0100
0010
0001
0000
1000
0010
,
0100
0010
0100
0010
1000
0001
1000
0001
0010
0100
1000
0001
1000
0000
0010
1000
,
0001
0100
0001
1000
0010
0000
0100
0001
0100
0010
1000
0010
0100
0001
1000
0001
,
1000
0010
1000
0010
0100
0000
0001
0100
0001
1000
0001
0100
0001
0000
1000
0010
,
1000
0001
1000
0010
1000
0000
0001
0010
0100
1000
0100
0010
0001
0000
1000
0010
,
0100
0001
0100
0001
1000
0100
1000
0100
0010
0001
1000
0001
1000
0000
0010
0100
,
0010
1000
0010
0100
0010
0000
0100
0001
0100
0010
0100
0001
0100
0010
0100
0000
,
0001
1000
0001
1000
0001
0000
1000
0100
0010
0001
0010
0100
1000
0000
0001
0010
,
0100
1000
0100
0010
0001
0000
1000
0010
1000
0001
0100
0001
1000
0000
0001
0010
,
0001
1000
0100
1000
0001
0000
1000
0010
0100
0001
0100
0010
1000
0000
0001
1000
,
0100
0010
0100
1000
0001
0000
1000
0001
0010
0100
0010
0001
1000
0000
0010
0100
,
0001
1000
0001
0100
0010
0000
0100
0001
1000
0100
1000
0001
0100
0000
0001
0100
,
0010
1000
0010
0100
0001
0000
1000
0100
0010
0001
0010
0100
1000
0000
0001
1000
,
0010
0100
0010
1000
0001
0000
1000
0001
0100
0010
0100
0001
1000
0001
0010
0100
,
1000
0100
0010
0001
1000
0001
0100
0001
1000
0100
1000
0001
0010
0100
1000
0001
,
1000
0000
0000
0000
0000
0000
0100
0000
0000
0000
0000
0000
0000
0000
0000
0000
0000
0000
0100
0000
0000
0000
0000
0000
1000
0000
0000
0000
0000
0000
0000
0000
0000
0000
0000
0000
0001
0000
0000
0000
0000
0000
0010
0000
0000
0000
0000
0000
0001
0000
0000
0000
0000
0000
0000
0000
0000
0000
0000
0000
1000
0000
0000
0000
0000
0000
0100
0000
0000
0000
0000
0000
0000
0000
0000
0000
0000
0000
0100
0000
0000
0000
0000
0000
1000
0000
0000
0000
0000
0000
0000
0000
0000
0000
0000
0000
0040
0000
0000
0000
0400
0000
0000
0000
0000
0000
0000
0000
0000
0000
0000
0000
0000
0000
0000
0000
0000
0000
0000
0000
0000
0000
0000
0000
0000
0000
0000
0000
0000
0000
0000
0000
0030
0000
0000
0000
0000
0000
0000
0000
0000
0000
0000
0000
0020
0000
0000
0000
0000
0000
0000
0000
0000
0000
0000
0000
0000
0000
0000
0000
0000
0000
0000
0000
0000
0000
0000
0000
0300
0000
0000
0000
0000
0000
0000
0000
0000
0000
0000
0000
0000
0000
0000
0000
0000
0000
0000
0000
0000
0000
0000
0000
,
1030
0001
0100
0000
0010
0000
2010
0000
0000
0000
3001
0010
0100
1000
0100
0010
,
0001
1000
0001
0000
0100
0000
0120
0000
0000
0000
1030
0000
0001
0100
0001
0000
,
1000
0100
0010
0100
1000
0000
1002
0000
0000
0000
1003
0010
0100
0010
1000
0001
,
0100
0001
1000
0001
0100
0000
0120
0000
0000
0000
1030
0000
1001
0000
0001
0000
,
0010
0001
1000
0001
0100
0000
0120
0000
0000
0000
1030
0000
0001
0000
0010
0000
,
0001
0010
0100
0000
1000
0000
2100
0000
0000
0000
3001
0000
0200
0000
0000
0000
,
0301
1000
0100
1000
0001
0000
0021
0000
0000
0000
0130
0000
1000
0000
0001
0000
,
4000
0400
0000
0000
0000
0000
0000
0000
0000
0000
0000
0000
0000
0000
0000
0000
0000
0000
0000
0000
0000
3300
0000
0000
,
1000
0001
1000
0001
0010
0001
0010
0001
1000
0100
1000
0100
0010
0001
0010
0001
,
1000
0010
1000
0010
0100
0001
0100
0001
1000
0001
1000
0001
0010
0100
0010
0100
,
0020
0031
0010
0001
1000
0001
1000
0001
1000
0100
1000
0100
0010
0001
0010
0001
,
1000
0001
1000
0001
0100
0001
0100
0001
1000
0001
1000
0001
0020
0000
0000
0000
,
0032
1003
0001
1000
0010
1000
0010
1000
0001
0100
0001
0100
0010
0100
0010
0100
,
0001
1000
0001
1000
0100
0010
0100
0010
0001
0010
0001
0010
0100
1000
0100
1000
,
0002
0103
0001
0100
0010
1000
0010
1000
0001
0010
0001
0010
0100
1000
0100
1000
,
0001
1000
0001
1000
0010
1000
0010
1000
0001
1000
0001
1000
0200
0000
0000
0000
,
0320
0031
0010
0001
1000
0100
1000
0100
1000
0001
1000
0001
0100
0001
0100
0001
,
1000
0010
1000
0010
1000
0001
1000
0001
0010
0001
0010
0001
2000
0000
0000
0000
,
3002
0103
0001
0100
0010
1000
0010
1000
0001
0010
0001
0010
0100
1000
0100
1000
,
0002
1003
0001
1000
0010
1000
0010
1000
0001
0100
0001
0100
0010
0100
0010
0100
,
0002
0103
0001
0100
0010
1000
0010
1000
0001
1000
0001
1000
0001
0010
0001
0010
,
0100
1000
0100
1000
0001
0100
0001
0100
0010
1000
0010
1000
0001
1000
0001
1000
,
0020
0000
0030
0210
0000
0300
0102
0003
2001
0000
3000
1020
0000
0030
0110
0000
,
0404
0000
0000
0000
0000
0300
2000
0003
,
3200
0000
0320
0000
0032
0000
1003
0010
0000
0200
0000
0302
0000
2003
0000
3000
,
0002
0000
0103
0020
0000
1030
0000
0002
0000
0023
0000
0230
0000
0000
1300
0002
,
0000
0000
0000
0000
0003
0000
1000
0001
0100
0010
0100
0001
1000
0000
0001
0010
,
0100
1000
0100
0010
0001
0000
1000
0010
0100
0010
0100
0010
1000
0000
0001
0010
,
0100
0010
0100
0010
0001
0000
1000
0001
0010
0001
0010
0001
1000
0000
0001
1000
,
0100
1000
0100
1000
0001
0000
1000
0010
0100
0001
0100
0010
4000
0000
0000
0000
,
3001
0010
0200
0000
1300
0000
0001
0100
0010
0100
0002
0000
1003
0000
0100
0010
,
0001
0010
0200
0000
1300
0000
0001
1000
0100
1000
0002
0000
0103
0000
0010
0100
,
0001
0100
0020
0000
1030
0000
0001
0010
0100
0010
0002
0000
1003
0000
0100
0010
,
0001
0010
0200
0000
1300
0000
0001
0100
0010
0100
0002
0000
1003
0000
0010
1000
,
0001
1000
0020
0000
0130
0000
0001
1000
0010
1000
0002
0000
0013
0000
0100
1000
,
0001
1000
0200
0000
0310
0000
0001
1000
0100
1000
0002
0000
0103
0000
0010
1000
,
0001
1000
0020
0000
1030
0001
2000
0000
3001
0010
0002
0000
1003
0100
1000
0001
,
1000
0001
0000
0001
0100
0000
0001
1000
0001
0010
0000
0010
0100
0000
1000
0001
,
4000
0400
0000
0000
0000
0000
0000
0000
0000
0000
0000
0000
0000
0000
0000
0000
0000
0000
0000
0000
0000
0000
0000
0000
,
3300
0000
0000
2000
,
3001
0100
0010
0000
1000
0000
1002
0000
0000
0000
0013
0100
1000
0100
0010
0001
,
1000
0001
1000
0000
0100
0000
0120
0000
0000
0000
0031
0000
1000
0010
0100
0000
,
0001
1000
0001
0010
0100
0000
2100
0000
0000
0000
3001
0000
0010
0100
0010
0000
,
0001
1000
0010
1000
0001
0000
0201
0000
0000
0000
0310
0000
1000
0000
0001
0000
,
0010
0100
1000
0100
0010
0000
0012
0000
0000
0000
1003
0000
0010
0000
0100
0000
,
0001
1000
0001
0000
1000
0000
1200
0000
0000
0000
0310
0000
0001
1000
0001
0100
,
0001
1000
0001
0010
0001
0000
2001
0000
0000
0000
3010
0000
0100
0001
1000
0010
,
4000
0004
0000
0000
0000
0000
0000
0000
0000
0000
0000
0000
0000
0000
0000
0000
0000
0000
0000
0000
0000
3003
0000
0000
,
0001
0010
0100
0000
1000
0000
1002
0000
0000
0000
0103
0000
0010
1000
0001
0000
,
0010
0100
1000
0000
0001
0000
0201
0000
0000
0000
0310
0000
1000
0001
0010
0000
,
0100
1000
0001
1000
0100
0000
0120
0000
0000
0000
0031
0000
1000
0010
1000
0001
,
1000
0100
1000
0001
1000
0000
1200
0000
0000
0000
0310
0000
0001
1000
0001
0100
,
0010
0100
0010
1000
0001
0000
0021
0000
0000
0000
0130
0000
1000
0001
0100
0000
,
0010
1000
0001
1000
0010
0000
0210
0000
0000
0000
0301
0000
1000
0000
0100
0000
,
0010
0100
0000
0100
1000
0000
1000
0001
1000
0001
0000
0001
0100
0000
0100
0010
,
0400
0004
0000
0000
0000
0000
0000
0000
0000
0000
0000
0000
0000
0000
0000
0000
0000
0000
0000
0000
0000
0303
0000
0000
,
0001
0010
0100
1000
0100
0010
0001
0010
0100
1000
0001
0100
0001
0000
0000
0000
,
2002
0000
0000
0000
,
3003
0000
0000
0000
;

//---------------dance-single - Medium----------------
#NOTES:
     dance-single:
     Ace Of Hearts (2011):
     Medium:
     7:
     0.459,0.460,0.005,0.982,0.082: // measure 1
0000
0000
0000
0000
,  // measure 2
0001
0000
1000
0000
0002
0000
0000
1003
0000
0010
0000
1000
0000
0000
0000
0000
,  // measure 3
0002
0000
0000
0013
0000
0001
0000
0010
0000
0100
0000
2000
0000
0000
3000
0000
,  // measure 4
0000
0000
0001
0000
0100
0000
0000
0020
0000
0000
0000
0130
0000
0000
0000
0000
,  // measure 5
0002
0000
0000
4003
0000
0000
0000
3001
0000
0010
0000
0004
0000
0000
0003
0000
,  // measure 6
1000
0000
0100
0000
2000
0000
0000
3001
0000
0010
0000
0100
0000
0000
0000
0000
,  // measure 7
2000
0000
0000
3001
0000
0100
0000
0001
0000
1000
0000
0100
0000
0000
0000
0000
,  // measure 8
0010
0000
0001
0000
0010
0000
0000
0400
0000
0000
0000
0000
0300
0000
0000
0000
,  // measure 9
2000
3002
0013
0100
2000
0002
0000
0000
,  // measure 10
3003
0000
2000
0000
3100
0000
0000
0100
,  // measure 11
0000
0000
0010
0000
0001
0000
0000
0001
,  // measure 12
0000
1000
0020
0000
,  // measure 13
0000
0000
0000
0000
0230
0000
0000
0302
,  // measure 14
0000
0000
0000
0000
1003
0000
0000
1000
,  // measure 15
0000
0000
0001
0000
0100
0000
0000
0100
,  // measure 16
0000
0010
2000
0000
,  // measure 17
0000
0000
0000
0000
3002
0000
0000
0203
,  // measure 18
0000
0000
0300
0000
,  // measure 19
0001
0000
1000
0000
0002
0000
1003
0100
,  // measure 20
0000
0010
0000
0001
0000
1000
0000
0000
,  // measure 21
0002
0000
0013
0100
0000
1000
0000
0100
,  // measure 22
0000
0010
0000
0002
0000
0000
0003
0000
,  // measure 23
0000
0000
1000
0010
1000
0000
0000
0002
,  // measure 24
0000
0023
0000
0130
4000
0000
3000
0000
,  // measure 25
0002
0000
1003
0400
0000
0000
1300
0002
,  // measure 26
0000
2003
0000
3200
0000
0000
0300
0000
,  // measure 27
0020
0000
0031
2000
0000
0000
3001
0020
,  // measure 28
0000
0230
0000
2300
0000
3002
0000
0003
,  // measure 29
2000
0000
3001
0020
0000
0032
0000
2003
,  // measure 30
0000
3020
0000
0230
0000
0000
0300
0000
,  // measure 31
0002
0000
1003
0200
0000
2300
0000
3002
,  // measure 32
0000
0023
0000
0130
4000
0000
3000
0000
,  // measure 33
0002
0000
0013
0200
0000
0320
0000
0032
,  // measure 34
0000
2003
0000
3200
0000
0000
0300
0000
,  // measure 35
0020
0000
0230
0000
2300
0000
3001
0020
,  // measure 36
0000
0230
0000
2300
0000
3000
0000
0000
,  // measure 37
0002
0000
1003
0020
0000
2030
0000
3002
,  // measure 38
0000
0023
0000
0230
0000
0300
0000
0000
,  // measure 39
0020
0000
0130
1000
0000
0002
0000
0203
,  // measure 40
0000
0000
0000
0300
,  // measure 41
0020
0230
0302
2003
,  // measure 42
3200
0020
0000
0000
,  // measure 43
0330
0000
0020
0000
,  // measure 44
0031
0000
0000
0001
0000
0000
1000
0000
,  // measure 45
0010
0000
0000
0010
0000
0000
0100
0000
,  // measure 46
0002
0000
0000
0000
,  // measure 47
2003
0000
0000
3200
0000
0000
0300
0000
,  // measure 48
0010
0000
0000
0010
0000
0000
0100
0000
,  // measure 49
1000
0000
0000
1000
0000
0000
0001
0000
,  // measure 50
2000
0000
0000
0000
,  // measure 51
3020
0000
0000
0430
0000
0000
0000
0000
,  // measure 52
0302
0000
0203
0000
0302
0000
1003
0010
,  // measure 53
0000
0100
0000
0001
0000
1000
0000
0000
,  // measure 54
0002
0000
1003
0200
0000
0310
0000
0100
,  // measure 55
0000
1000
0000
0002
0000
0000
0003
0000
,  // measure 56
0000
0000
1000
0010
1000
0000
0000
0002
,  // measure 57
0000
0023
0000
0230
0000
2300
0000
3000
,  // measure 58
0002
0000
1003
0200
0000
0310
0000
0001
,  // measure 59
0000
1000
0000
0200
0000
0000
0300
0000
,  // measure 60
2000
0000
3002
0000
2003
0000
3001
0020
,  // measure 61
0000
0230
0000
0320
0000
0031
0000
0000
,  // measure 62
2000
0000
3001
0200
0000
0310
0000
2000
,  // measure 63
0000
3001
0000
0200
0000
0000
0300
0000
,  // measure 64
0000
0000
0001
0100
0001
0000
0000
2000
,  // measure 65
0000
3200
0000
0320
0000
0031
0000
0000
,  // measure 66
2000
0000
3001
0200
0000
0301
0000
2000
,  // measure 67
0000
3020
0000
0230
0000
0000
0300
0000
,  // measure 68
0002
0000
2003
0000
3200
0000
0310
0002
,  // measure 69
0000
0013
0000
0200
0000
0000
0300
0000
,  // measure 70
0020
0000
0130
2000
0000
3001
0000
0010
,  // measure 71
0000
0001
0000
2000
0000
0000
3000
0000
,  // measure 72
0010
0000
1000
0000
0001
0010
0000
0200
,  // measure 73
0000
0000
0000
0000
0300
0000
0010
0001
,  // measure 74
0020
0230
1300
0001
,  // measure 75
2000
0020
0000
0000
,  // measure 76
3030
0000
0000
0020
,  // measure 77
0130
0000
0000
0100
0000
0000
0001
0000
,  // measure 78
1000
0000
0000
1000
0000
0000
0001
0000
,  // measure 79
0020
0000
0000
0000
,  // measure 80
0230
0000
0000
2300
0000
0000
0000
0000
,  // measure 81
3001
0000
0000
0001
0000
0000
1000
0000
,  // measure 82
0100
0000
0000
0100
0000
0000
0010
0000
,  // measure 83
0002
0000
0000
0000
,  // measure 84
0023
0000
0000
0230
0000
0000
0000
0000
,  // measure 85
0300
0000
0000
0000
2000
0000
3001
0010
,  // measure 86
0000
0100
0000
0010
0000
0002
0000
1003
,  // measure 87
0200
0000
0310
0002
0000
2003
0000
3020
,  // measure 88
0000
0000
0000
1030
,  // measure 89
0001
0000
0000
0000
0010
0100
0000
2000
,  // measure 90
0000
3002
0000
0023
0000
0130
0000
0000
,  // measure 91
2000
0000
3001
0100
0000
0010
0000
2000
,  // measure 92
0000
0000
0000
3001
,  // measure 93
0100
0000
0000
0000
0001
0100
0000
0020
,  // measure 94
0000
0000
0130
0002
0000
2003
0000
0000
,  // measure 95
3000
0000
0000
0000
0001
1000
0000
0020
,  // measure 96
0000
0230
0000
0302
0000
2003
0000
3000
,  // measure 97
0001
0010
0001
0000
0020
0000
0130
0000
,  // measure 98
1000
0100
1000
0000
0001
0000
1000
0000
,  // measure 99
0010
0000
0000
1000
0001
0000
0000
1000
,  // measure 100
0040
0000
0000
0000
,  // measure 101
1030
0000
0001
0000
2000
0000
0000
3100
0000
0010
0000
0001
0000
0000
0000
0000
,  // measure 102
2000
0000
0000
3001
0000
0010
0000
0100
0000
1000
0000
0002
0000
0000
0000
0000
,  // measure 103
0003
0000
1000
0000
0001
0000
0000
0020
,  // measure 104
0000
0230
0000
2300
0000
3002
0000
0003
,  // measure 105
2000
0000
3001
0200
0000
0320
0000
0230
,  // measure 106
0000
0301
0000
2000
0000
0000
3000
0000
,  // measure 107
0002
0000
0013
0000
0200
0000
0310
0002
,  // measure 108
0000
1003
0000
0200
0000
0000
0300
0000
,  // measure 109
0020
0000
0130
1000
0000
0001
0000
1000
,  // measure 110
0000
0010
0000
0200
0000
0000
0300
0000
,  // measure 111
0020
0000
2030
0000
3001
0010
0000
0200
,  // measure 112
0000
0000
0000
0000
0300
0000
1000
0100
,  // measure 113
2000
3002
0103
0010
,  // measure 114
2000
0002
0000
3000
,  // measure 115
0400
0000
0000
0000
,  // measure 116
0303
0000
0000
0002
,  // measure 117
1003
0000
0000
1000
0000
0000
0100
0000
,  // measure 118
0010
0000
0000
0010
0000
0000
0001
0000
,  // measure 119
2000
0000
0000
0000
,  // measure 120
3002
0000
0000
0203
0000
0000
0000
0000
,  // measure 121
0310
0000
0000
0010
0000
0000
1000
0000
,  // measure 122
0001
0000
0000
0001
0000
0000
0100
0000
,  // measure 123
0020
0000
0000
0000
,  // measure 124
2030
0000
0000
3004
0000
0000
0000
0000
,  // measure 125
0013
0000
0000
0010
0000
0000
0100
0000
,  // measure 126
1000
0000
0000
1000
0000
0000
0001
0000
,  // measure 127
0200
0000
0000
0000
,  // measure 128
0320
0000
0000
2030
0000
0000
0000
0000
,  // measure 129
3001
0000
0000
0001
0000
0000
0100
0000
,  // measure 130
0010
0000
0000
0010
0000
0000
1000
0000
,  // measure 131
0002
0023
0130
1000
,  // measure 132
0002
0040
0000
0003
,  // measure 133
0130
1000
0001
1000
,  // measure 134
2002
0000
0000
0000
,  // measure 135
3003
0000
0000
0000
;

//---------------dance-single - Easy----------------
#NOTES:
     dance-single:
     Ace Of Hearts (2011):
     Easy:
     5:
     0.268,0.248,0.005,0.370,0.000: // measure 1
0000
0000
0000
0000
,  // measure 2
1000
1000
2000
3000
,  // measure 3
0010
0010
0020
0030
,  // measure 4
0000
0100
0200
0300
,  // measure 5
0001
0001
0002
0003
,  // measure 6
1000
1000
2000
3000
,  // measure 7
0100
0100
0200
0300
,  // measure 8
0010
0010
0020
0030
,  // measure 9
0001
0001
1000
1000
0001
2000
0000
0000
,  // measure 10
3000
0000
0002
0000
0203
0000
0000
0300
,  // measure 11
0000
0000
0001
0000
0002
0000
0000
0003
,  // measure 12
0000
1000
2000
0000
,  // measure 13
0000
0000
0000
0000
3200
0000
0000
0300
,  // measure 14
0000
0000
0000
0000
2000
0000
0000
3000
,  // measure 15
0000
0000
0001
0000
0002
0000
0000
0003
,  // measure 16
0000
0100
0200
0000
,  // measure 17
0000
0000
0000
0000
0302
0000
0000
0003
,  // measure 18
0000
0000
0000
0000
,  // measure 19
1000
0000
1000
0000
,  // measure 20
0100
0100
0100
0000
,  // measure 21
0010
0000
0010
0000
,  // measure 22
0100
0100
0100
0000
,  // measure 23
0000
1000
1000
0000
,  // measure 24
0001
0001
0001
0000
,  // measure 25
0010
0010
0010
0000
,  // measure 26
0100
0100
0100
0000
,  // measure 27
1000
0000
1000
0000
,  // measure 28
0001
0001
0001
0000
,  // measure 29
1000
0000
1000
0000
,  // measure 30
0010
0010
0010
0000
,  // measure 31
0100
0000
0100
0000
,  // measure 32
0001
0001
0001
0000
,  // measure 33
1000
1000
1000
0000
,  // measure 34
0100
0100
0100
0000
,  // measure 35
0010
0000
0010
0000
,  // measure 36
0001
0001
0001
0000
,  // measure 37
1000
0000
1000
0000
,  // measure 38
0010
0010
0010
0000
,  // measure 39
0100
0000
0100
0000
,  // measure 40
0200
0000
0300
0000
,  // measure 41
0001
0001
1000
1000
,  // measure 42
0010
0020
0000
0000
,  // measure 43
0030
0000
2000
0000
,  // measure 44
3002
0000
0000
0003
0000
0000
0010
0000
,  // measure 45
0020
0000
0000
0030
0000
0000
0001
0000
,  // measure 46
0002
0000
0000
0000
,  // measure 47
2003
0000
0000
3000
0000
0000
0010
0000
,  // measure 48
0020
0000
0000
0030
0000
0000
0100
0000
,  // measure 49
0200
0000
0000
0300
0000
0000
0000
0000
,  // measure 50
0020
0000
0000
0000
,  // measure 51
2030
0000
0000
3000
0000
0000
0000
0000
,  // measure 52
0001
0001
0001
0000
,  // measure 53
0100
0000
0100
0000
,  // measure 54
0010
0000
0010
0000
,  // measure 55
1000
1000
1000
0000
,  // measure 56
0000
0001
0001
0000
,  // measure 57
0010
0010
0010
0000
,  // measure 58
0100
0000
0100
0000
,  // measure 59
1000
1000
1000
0000
,  // measure 60
0001
0000
0001
0000
,  // measure 61
0100
0100
0100
0000
,  // measure 62
0010
0000
0010
0000
,  // measure 63
1000
1000
1000
0000
,  // measure 64
0000
0010
0010
0000
,  // measure 65
0100
0100
0100
0000
,  // measure 66
0001
0000
0001
0000
,  // measure 67
1000
1000
1000
0000
,  // measure 68
0010
0000
0010
0000
,  // measure 69
0100
0100
0100
0000
,  // measure 70
0001
0000
0001
0000
,  // measure 71
1000
1000
1000
0000
,  // measure 72
0100
0000
0100
0000
,  // measure 73
0200
0000
0300
0000
,  // measure 74
1000
1000
0001
0001
,  // measure 75
0010
0020
0000
0000
,  // measure 76
0030
0000
0000
0002
,  // measure 77
2003
0000
0000
3000
0000
0000
0010
0000
,  // measure 78
0020
0000
0000
0030
0000
0000
0100
0000
,  // measure 79
0200
0000
0000
0000
,  // measure 80
0302
0000
0000
0003
0000
0000
1000
0000
,  // measure 81
2000
0000
0000
3000
0000
0000
0001
0000
,  // measure 82
0002
0000
0000
0003
0000
0000
0010
0000
,  // measure 83
0020
0000
0000
0000
,  // measure 84
0230
0000
0000
0300
0000
0000
0000
0000
,  // measure 85
0000
0000
1000
1000
,  // measure 86
1000
0000
0001
0001
,  // measure 87
0002
0000
2003
0000
,  // measure 88
3200
0000
0000
0000
,  // measure 89
0300
0000
0010
0000
,  // measure 90
0001
0001
0001
0000
,  // measure 91
2000
0000
3002
0000
,  // measure 92
0023
0000
0000
0000
,  // measure 93
0030
0000
0001
0000
,  // measure 94
1000
1000
1000
0000
,  // measure 95
0000
0000
0010
0000
,  // measure 96
0100
0100
0100
0000
,  // measure 97
0001
0001
1000
1000
,  // measure 98
0010
0010
0010
1000
,  // measure 99
2000
0000
3002
0000
,  // measure 100
2003
0000
0000
0000
,  // measure 101
3010
0010
0010
0000
,  // measure 102
0100
0100
0100
0000
,  // measure 103
0000
0000
0001
0000
,  // measure 104
0001
0000
0001
0000
,  // measure 105
1000
0000
1000
0000
,  // measure 106
1000
0000
1000
0000
,  // measure 107
0010
0000
0010
0000
,  // measure 108
0100
0100
0100
0000
,  // measure 109
0001
0000
0001
0000
,  // measure 110
1000
1000
1000
0000
,  // measure 111
0001
0000
0001
0000
,  // measure 112
0200
0000
0300
0000
,  // measure 113
0001
0001
1000
1000
,  // measure 114
0002
0020
0000
0000
,  // measure 115
0000
0000
0000
0000
,  // measure 116
0033
0000
0000
0002
,  // measure 117
2003
0000
0000
3000
0000
0000
0010
0000
,  // measure 118
0020
0000
0000
0030
0000
0000
0100
0000
,  // measure 119
0200
0000
0000
0000
,  // measure 120
0302
0000
0000
0003
0000
0000
1000
0000
,  // measure 121
2000
0000
0000
3000
0000
0000
0001
0000
,  // measure 122
0002
0000
0000
0003
0000
0000
0010
0000
,  // measure 123
0020
0000
0000
0000
,  // measure 124
0230
0000
0000
0300
0000
0000
1000
0000
,  // measure 125
2000
0000
0000
3000
0000
0000
0001
0000
,  // measure 126
0002
0000
0000
0003
0000
0000
0100
0000
,  // measure 127
0200
0000
0000
0000
,  // measure 128
0302
0000
0000
0003
0000
0000
1000
0000
,  // measure 129
2000
0000
0000
3000
0000
0000
0010
0000
,  // measure 130
0020
0000
0000
0030
0000
0000
0000
0000
,  // measure 131
1000
1000
0001
0001
,  // measure 132
2000
0020
0000
0000
,  // measure 133
3030
0000
0000
1000
,  // measure 134
2002
0000
0000
0000
,  // measure 135
3003
0000
0000
0000
;

//---------------dance-single - Novice----------------
#NOTES:
     dance-single:
     Ace Of Hearts (2011):
     Beginner:
     2:
     0.163,0.141,0.005,0.259,0.000: // measure 1
0000
0000
0000
0000
,  // measure 2
2000
0000
3000
0000
,  // measure 3
0020
0000
0030
0000
,  // measure 4
0000
0200
0000
0300
,  // measure 5
0002
0000
0003
0000
,  // measure 6
1000
0000
1000
0000
,  // measure 7
0001
0000
0001
0000
,  // measure 8
0010
0000
0010
0000
,  // measure 9
0001
0001
0002
0000
,  // measure 10
0003
1000
2000
0000
,  // measure 11
3000
0000
0002
0000
,  // measure 12
0003
0000
0020
0000
,  // measure 13
0000
0000
0030
0000
,  // measure 14
0000
0000
0002
0000
,  // measure 15
0003
0000
2000
0000
,  // measure 16
3000
0000
0020
0000
,  // measure 17
0000
0000
0030
0000
,  // measure 18
0000
0000
0000
0000
,  // measure 19
1000
0000
1000
0000
,  // measure 20
1000
0000
0000
0000
,  // measure 21
0010
0000
0010
0000
,  // measure 22
0010
0000
0000
0000
,  // measure 23
0000
0000
0100
0000
,  // measure 24
0100
0000
0000
0000
,  // measure 25
0001
0000
0001
0000
,  // measure 26
0001
0000
0000
0000
,  // measure 27
1000
0000
1000
0000
,  // measure 28
1000
0000
0000
0000
,  // measure 29
0100
0000
0100
0000
,  // measure 30
0100
0000
0000
0000
,  // measure 31
0010
0000
0010
0000
,  // measure 32
0010
0000
0000
0000
,  // measure 33
0001
0000
0001
0000
,  // measure 34
0001
0000
0000
0000
,  // measure 35
1000
0000
1000
0000
,  // measure 36
1000
0000
0000
0000
,  // measure 37
0100
0000
0100
0000
,  // measure 38
0100
0000
0000
0000
,  // measure 39
1000
0000
1000
0000
,  // measure 40
2000
0000
3000
0000
,  // measure 41
0001
0001
0001
0000
,  // measure 42
0002
0000
0000
0000
,  // measure 43
0003
0000
0010
0000
,  // measure 44
0020
0000
0030
0000
,  // measure 45
0002
0000
0003
0000
,  // measure 46
2000
0000
0000
0000
,  // measure 47
3000
0000
0000
0000
,  // measure 48
0020
0000
0030
0000
,  // measure 49
2000
0000
3000
0000
,  // measure 50
0002
0000
0000
0000
,  // measure 51
0003
0000
0000
0000
,  // measure 52
0010
0000
0010
0000
,  // measure 53
0010
0000
0000
0000
,  // measure 54
0001
0000
0001
0000
,  // measure 55
0001
0000
0000
0000
,  // measure 56
0000
0000
1000
0000
,  // measure 57
1000
0000
0000
0000
,  // measure 58
0010
0000
0010
0000
,  // measure 59
0010
0000
0000
0000
,  // measure 60
1000
0000
1000
0000
,  // measure 61
1000
0000
0000
0000
,  // measure 62
0001
0000
0001
0000
,  // measure 63
0001
0000
0000
0000
,  // measure 64
0000
0000
0010
0000
,  // measure 65
0010
0000
0000
0000
,  // measure 66
0001
0000
0001
0000
,  // measure 67
0001
0000
0000
0000
,  // measure 68
1000
0000
1000
0000
,  // measure 69
1000
0000
0000
0000
,  // measure 70
0010
0000
0010
0000
,  // measure 71
0010
0000
0000
0000
,  // measure 72
0100
0000
0100
0000
,  // measure 73
0200
0000
0300
0000
,  // measure 74
0010
0010
0010
0000
,  // measure 75
0020
0000
0000
0000
,  // measure 76
0030
0000
0000
1000
,  // measure 77
2000
0000
3000
0000
,  // measure 78
0002
0000
0003
0000
,  // measure 79
0200
0000
0000
0000
,  // measure 80
0300
0000
0000
0000
,  // measure 81
0002
0000
0003
0000
,  // measure 82
2000
0000
3000
0000
,  // measure 83
0200
0000
0000
0000
,  // measure 84
0300
0000
0000
0000
,  // measure 85
0000
0000
0010
0000
,  // measure 86
0010
0000
0010
0000
,  // measure 87
0001
0000
0001
0000
,  // measure 88
0002
0000
0000
0003
,  // measure 89
0000
0000
1000
0000
,  // measure 90
1000
0000
1000
0000
,  // measure 91
0100
0000
0100
0000
,  // measure 92
0200
0000
0000
0300
,  // measure 93
0000
0000
1000
0000
,  // measure 94
2000
0000
3000
0000
,  // measure 95
0000
0000
0001
0000
,  // measure 96
0002
0000
0003
0000
,  // measure 97
0010
0000
0010
0000
,  // measure 98
0001
0000
0001
0000
,  // measure 99
2000
0000
0000
0000
,  // measure 100
3000
0000
0000
0000
,  // measure 101
0010
0000
0010
0000
,  // measure 102
1000
0000
1000
0000
,  // measure 103
0000
0000
0000
0000
,  // measure 104
0001
0000
0000
0000
,  // measure 105
0001
0000
0000
0000
,  // measure 106
0001
0000
0000
0000
,  // measure 107
0100
0000
0100
0000
,  // measure 108
0100
0000
0000
0000
,  // measure 109
0001
0000
0001
0000
,  // measure 110
0001
0000
0000
0000
,  // measure 111
1000
0000
1000
0000
,  // measure 112
2000
0000
3000
0000
,  // measure 113
0100
0100
0100
0000
,  // measure 114
0200
0000
0000
0000
,  // measure 115
0000
0000
0000
0000
,  // measure 116
0300
0000
0000
0010
,  // measure 117
0020
0000
0030
0000
,  // measure 118
0002
0000
0003
0000
,  // measure 119
2000
0000
0000
0000
,  // measure 120
3000
0000
0000
0000
,  // measure 121
0020
0000
0030
0000
,  // measure 122
2000
0000
3000
0000
,  // measure 123
0002
0000
0000
0000
,  // measure 124
0003
0000
0000
0000
,  // measure 125
2000
0000
3000
0000
,  // measure 126
0200
0000
0300
0000
,  // measure 127
0020
0000
0000
0000
,  // measure 128
0030
0000
0000
0000
,  // measure 129
0200
0000
0300
0000
,  // measure 130
2000
0000
3000
0000
,  // measure 131
0001
0001
1000
1000
,  // measure 132
0002
2000
0000
0000
,  // measure 133
3003
0000
0000
0001
,  // measure 134
2002
0000
0000
0000
,  // measure 135
3003
0000
0000
0000
;
