#TITLE:Soyokaze Life;
#SUBTITLE:;
#ARTIST:Sakai Kanako;
#TITLETRANSLIT:;
#SUBTITLETRANSLIT:;
#ARTISTTRANSLIT:;
#GENRE:J-Pop;
#CREDIT:Ace Of Hearts;
#BANNER:Soyokaze Life - bn.png;
#BACKGROUND:Soyozake Life - bg.jpg;
#LYRICSPATH:;
#CDTITLE:Ace Of Hearts.png;
#MUSIC:Soyokaze Life.ogg;
#OFFSET:2.280;
#SAMPLESTART:46.800;
#SAMPLELENGTH:15.000;
#SELECTABLE:YES;
#BPMS:0.000=90.000,19.000=107.000,32.000=53.500,34.000=107.000,126.000=53.500,128.000=107.000,276.000=53.500,278.000=107.000,310.000=53.500,312.000=45.000,313.500=53.500;
#STOPS:;
#BGCHANGES:;
#KEYSOUNDS:;

//---------------dance-single - Expert----------------
#NOTES:
     dance-single:
     Ace Of Hearts (2010):
     Challenge:
     9:
     1.000,0.379,0.600,1.000,0.490: // measure 1
0000
0000
0000
0000
,  // measure 2
0002
0103
0010
1000
0200
1300
0001
0100
,  // measure 3
0001
0001
1000
0001
0020
0000
0030
0000
,  // measure 4
0200
1300
0001
0010
0002
0000
2003
0000
,  // measure 5
3020
0000
0000
0000
0030
0000
1000
0001
,  // measure 6
0020
0000
0000
0000
0000
0000
0032
1003
,  // measure 7
0200
0000
0000
0320
0000
0000
0031
0000
0200
0000
0000
0000
0300
0000
0000
0000
,  // measure 8
0020
2030
3002
0203
,  // measure 9
0320
1030
0001
0200
0000
0310
1000
0001
0200
0000
0301
0000
1000
0000
0100
0020
,  // measure 10
0000
0000
0130
0000
1000
0000
0001
0000
2000
0000
0000
0000
0000
0000
3100
0020
,  // measure 11
0000
0000
0000
0000
0130
0000
0000
0000
0010
0000
0001
0000
1000
0000
0001
0020
,  // measure 12
0000
0000
0031
0000
1000
0000
0010
0000
0200
0000
0000
0000
0000
0000
0301
2000
,  // measure 13
0000
0000
0000
0000
3001
0000
0010
0000
0200
0000
0310
0000
0001
0000
1000
0020
,  // measure 14
0000
0000
0130
0000
0001
0000
1000
0000
0200
0000
0000
0000
0320
0000
0000
0130
,  // measure 15
0000
1000
0002
0000
0003
0000
0000
0000
0200
0000
0000
0000
0320
0000
0000
2030
,  // measure 16
0000
3001
0100
0010
0200
0000
0300
0001
,  // measure 17
2000
0000
0000
3020
0000
0000
0130
0000
0102
0000
1003
0000
0100
0000
0010
0002
,  // measure 18
0000
1003
0010
0100
0002
0000
0000
1003
,  // measure 19
0020
0000
0130
0000
0102
1003
0100
0010
,  // measure 20
0200
0000
0000
1300
0000
0000
0001
0000
0000
0100
0000
0000
0010
0000
0000
2010
0000
0000
0000
0000
3002
0000
0003
0000
,  // measure 21
2001
0000
0000
0000
3001
0000
0100
0000
0000
0000
0000
0000
0210
0000
0000
0000
0000
0000
0301
0000
0000
0000
0000
0000
1001
0000
0000
0000
0000
0000
1000
0000
0000
0000
0000
0000
1001
0000
0000
0000
0000
0000
0001
0000
0000
0200
0000
0000
,  // measure 22
0000
0000
0320
0000
2030
0000
3001
0000
0020
0000
0032
0000
2003
0000
3100
0010
,  // measure 23
0000
0000
0100
1000
0000
0000
1001
0000
0000
0001
0000
0000
0100
0000
0000
0010
0000
0000
1000
0000
0000
0001
0000
0000
,  // measure 24
2000
0000
0000
3200
0000
0000
0310
0000
0012
0000
0000
0000
0203
0000
0000
0000
,  // measure 25
0320
0000
0000
0000
2030
0000
0000
3000
1001
0000
0001
0000
0011
0000
0010
0200
,  // measure 26
0000
0000
1300
0000
0001
0000
0100
0000
0010
0000
1000
0000
0002
0000
0103
0010
,  // measure 27
0000
0000
0000
0000
2010
3001
0010
0100
,  // measure 28
2000
0000
0000
0000
0000
0000
3020
0000
0000
0000
0000
0000
0130
0000
0000
0101
0000
0000
0101
0000
0000
0000
0000
1001
,  // measure 29
0000
0000
1001
0000
0000
1000
0100
0000
1000
0001
0000
0000
0020
0000
0000
0001
0000
0000
0000
0000
0000
0100
0000
0000
,  // measure 30
0000
0000
0001
0000
0230
0000
1300
0000
0002
0000
0000
2003
0000
0000
3010
0000
,  // measure 31
0200
0001
0000
0010
0302
0000
2003
0000
,  // measure 32
3020
0000
0000
0000
0000
0000
0000
0000
0230
0000
0000
0000
0000
0000
0000
0000
0302
0000
0013
0000
0100
0000
2000
0000
0000
0000
3001
0000
0200
0000
0320
0030
,  // measure 33
2010
0000
3002
0000
0013
0000
0100
0020
0000
0000
0031
0000
1000
0000
0010
0000
,  // measure 34
0200
0000
0000
0000
0000
0000
0301
2000
0000
0000
0000
0000
3010
0000
0000
0000
,  // measure 35
0200
0000
0320
0000
0000
0000
0130
0002
0000
0000
1003
0000
0010
0000
1000
0000
,  // measure 36
0002
0000
0000
0000
0000
0000
0013
0200
0000
0000
1300
0000
0001
0000
0100
0000
,  // measure 37
0002
0000
0013
0000
0001
0000
1000
0020
0000
0000
0130
0000
0001
0000
1000
0000
,  // measure 38
0200
0000
0000
0000
0320
0000
0000
0032
0000
1003
0020
0000
0030
0000
0000
0000
,  // measure 39
0200
0000
0000
0000
0320
0000
0000
2030
0000
0000
3001
0000
0010
0000
0001
0000
,  // measure 40
0200
0000
0000
0000
0310
0000
1000
0000
0002
0000
0000
0023
0000
0000
0031
0000
,  // measure 41
2001
0000
3010
0000
0100
0000
0001
2000
0000
0000
3100
0000
0010
0000
0100
0000
,  // measure 42
2000
0000
3001
0100
0020
0000
1030
0000
,  // measure 43
1200
0310
0001
1000
0020
0130
0001
1000
,  // measure 44
0100
0000
0000
0120
0000
0000
0000
0000
0031
0000
0000
0000
2000
0000
3010
0100
0000
0000
0102
0000
0000
1003
0000
0000
,  // measure 45
1010
0000
0010
0000
1010
0000
1000
0002
0000
0000
0103
0000
0010
0000
0100
0000
,  // measure 46
0001
0000
0000
0000
0000
0000
1000
0000
0000
0000
0000
0000
0100
0000
0000
0000
0000
0000
0010
0000
0000
0001
0000
0000
0000
0000
0000
0000
1000
0000
0010
0000
0000
0000
0000
0000
0110
0000
0000
0000
0000
0000
0100
0000
0000
0000
0000
0000
,  // measure 47
0002
0000
1003
0000
0100
0000
0010
0000
0200
0000
0000
2300
0000
0000
3001
0000
,  // measure 48
0202
0303
2020
3030
2200
3300
0022
0033
,  // measure 49
0110
0000
0100
0000
1100
0000
1000
0002
0000
0000
0023
0000
0230
0000
2300
0000
,  // measure 50
3002
0000
0203
0000
0320
0000
1030
0002
0000
0000
0003
0000
0000
0000
0000
0000
,  // measure 51
0021
0000
0130
0000
1000
0000
0001
0000
0201
0000
0000
0300
0120
0000
0000
0000
,  // measure 52
2030
0000
0000
3000
0000
0000
1100
0000
0000
0000
0000
0000
1100
0000
0000
0000
0000
0000
0000
0000
0000
0000
0011
0000
0000
0000
0000
0000
0011
0000
0000
0000
0000
0000
0010
0000
0200
0000
0000
0000
0000
0000
2300
0000
0000
0000
3001
0000
,  // measure 53
0200
0000
0000
0301
0000
0000
0002
0000
0000
1003
0000
0020
0000
0000
0130
0001
0000
0000
1000
0000
0000
0200
0000
0310
,  // measure 54
0002
0000
0000
1003
0000
0000
0020
0000
0000
1030
0000
0002
0000
0000
1003
0010
0000
0000
1000
0000
0000
0002
0000
0013
,  // measure 55
0200
0000
0000
1300
0000
0000
1000
0000
0000
0001
0000
0200
0000
0000
0310
1000
0000
0000
0010
0000
0100
0001
0000
1000
,  // measure 56
0200
0000
0000
0300
0200
0000
0000
0000
0320
0000
0000
0000
0032
0000
0000
0000
,  // measure 57
0003
0000
0000
0000
0000
0000
1001
0000
0000
0000
0000
0000
2001
0000
0000
0000
0000
0000
0000
0000
0000
3000
0010
0000
0000
0000
0000
0000
0010
0000
0000
0000
0000
0000
0100
0000
0002
0000
0000
0000
0000
0000
1003
0000
0000
0000
0000
0000
,  // measure 58
0000
0000
0000
1010
0000
0000
2010
0000
0000
0000
0000
3001
0000
0000
0001
0000
0000
0010
0002
0000
0000
1003
0000
0000
,  // measure 59
0200
0000
0000
0020
0000
0000
0000
0000
0300
0000
0032
0000
0203
0000
0302
0000
,  // measure 60
0023
0000
0000
0200
0000
0000
0000
0330
,  // measure 61
0000
0000
0000
1100
0000
0000
0101
0000
0000
0000
0000
0011
0000
0000
1100
0000
0000
1000
0002
0000
0000
0103
0000
0000
,  // measure 62
0000
0000
0000
0220
0000
0000
0330
0000
2002
0000
0003
0000
3020
0000
1030
0100
0000
0000
0110
0000
0000
0020
0000
0030
,  // measure 63
0011
0000
0001
0000
1001
0000
1000
0020
0000
0000
0130
0000
0001
0000
1000
0000
,  // measure 64
0020
0000
0000
0000
0000
0000
0130
0000
0000
0000
0000
0000
0002
0000
0000
0000
0000
0000
1003
0000
0000
0010
0000
0000
0000
0000
0000
0000
1000
0000
0001
0000
0000
0000
0000
0000
0011
0000
0000
0000
0000
0000
0010
0000
0000
0000
0000
0000
,  // measure 65
0002
0000
1003
0000
0010
0000
0100
0000
0002
0000
0000
2003
0000
0000
3001
0000
,  // measure 66
0022
0033
2200
3300
0220
0330
0022
0033
,  // measure 67
1001
0000
1000
0000
1010
0000
0010
0200
0000
0000
0302
0000
1003
0000
0100
0000
,  // measure 68
0010
0000
0100
0000
1000
0000
0001
0010
0000
0000
0000
0000
0000
0000
0000
0000
,  // measure 69
0210
1300
0001
0100
0020
0000
2030
3000
,  // measure 70
1001
0000
0000
0001
0000
0000
0010
0000
0000
0100
0000
0000
2000
0000
0000
0000
0000
0000
3020
0000
0000
0000
0000
0000
0230
0000
0000
0000
0300
0000
0101
0000
0000
0000
0000
0000
0101
0000
0000
0000
0000
0000
0000
0000
0000
0000
1010
0000
,  // measure 71
0000
0000
1010
0000
0000
1000
0002
0000
0000
0103
0000
0000
0020
0000
0000
1000
0000
0000
0000
0000
0000
0100
0000
0000
,  // measure 72
0000
0000
1000
0000
0230
0000
0301
0000
2000
0000
0000
3020
0000
0000
0230
0000
,  // measure 73
0302
1000
0000
0100
2003
0000
3020
0000
,  // measure 74
0230
0000
0302
0000
2003
0010
0000
0010
,  // measure 75
3002
0000
0000
0000
0000
0000
0013
0000
0000
0000
0000
0000
0020
0000
0000
0100
0000
0000
0130
0000
0000
0000
0000
0010
,  // measure 76
0000
0000
0000
0000
0010
0000
0000
0000
0000
0000
0001
0000
2000
0000
0000
0000
0000
0000
3010
0000
0000
0000
0000
0000
0200
0000
0000
0000
0000
0000
0000
0000
0000
0302
0000
0000
0000
0000
0000
0000
0000
0000
1003
0000
0000
0000
0000
0000
,  // measure 77
0200
0000
0310
0000
0000
0010
0002
0000
0000
0000
0000
0000
2003
0000
0000
0000
0000
0000
3020
0000
0000
0000
0000
0000
,  // measure 78
0230
0000
0000
0000
0302
0000
0000
0000
0023
0230
2300
3002
0000
1003
0010
0100
,  // measure 79
0002
0000
0000
0000
0000
0000
0000
0000
0000
0000
0000
0000
0000
0000
0000
0000
0000
0000
2003
0000
0000
0000
0000
0000
0000
0000
0000
0000
0000
0000
0000
0000
0000
0000
0000
0000
3020
0000
0000
0000
0000
0000
0000
0000
0000
0000
0000
0000
0000
0000
0000
0000
0000
0000
0230
0000
0000
0000
0000
0000
0000
0000
0000
0000
0000
0000
0000
0000
0000
0000
0000
0000
0301
0000
0000
0000
0000
0000
0000
0000
0000
0000
0000
0000
1000
0000
0000
0000
0000
0000
0000
0000
0000
0000
0000
0000
0040
0000
0000
0000
0400
0000
0000
0000
0000
0000
0000
0000
0000
0000
0000
0000
0000
0000
0000
0000
0000
0000
0000
0000
0000
0000
0000
0000
0000
0000
0000
0000
0000
0000
0000
0000
0000
0000
0000
0000
0000
0000
0000
0000
0000
0000
0000
0000
0000
0000
0000
0000
0000
0000
0000
0000
0000
0000
0000
0000
0000
0000
0000
0000
0000
0000
0000
0000
0000
0000
0000
0000
0000
0000
0000
0000
0000
0000
0000
0000
0000
0000
0000
0000
0000
0000
0000
0000
0000
0000
0000
0000
0000
0000
0000
0000
,  // measure 80
0000
0000
0000
0000
0000
0330
0000
0000
;

//---------------dance-single - Hard----------------
#NOTES:
     dance-single:
     Ace Of Hearts (2010):
     Hard:
     8:
     0.721,0.228,0.057,1.000,0.305: // measure 1
0000
0000
0000
0000
,  // measure 2
0001
0010
0001
1000
0010
0000
0100
0000
,  // measure 3
0001
1000
0001
0100
0020
0000
0030
0000
,  // measure 4
1000
0001
0010
0100
1000
0000
0001
0000
,  // measure 5
0020
0000
0000
0000
0030
0000
0001
0100
,  // measure 6
0020
0000
0000
0000
0030
0000
1000
0001
,  // measure 7
0020
0000
0000
0032
0000
0000
1003
0000
0200
0000
0000
0000
0300
0000
0000
0000
,  // measure 8
0020
0230
2300
3002
,  // measure 9
0023
0000
0000
0000
0030
0000
0000
0000
0000
0000
0001
0000
1000
0000
0001
0020
,  // measure 10
0000
0000
0031
0000
1000
0000
0100
0000
0020
0000
0000
0000
0000
0000
0130
2000
,  // measure 11
0000
0000
0000
0000
3000
0000
0000
0000
0000
0000
0001
0000
0010
0000
0001
2000
,  // measure 12
0000
0000
3010
0000
1000
0000
0001
0000
2000
0000
0000
0000
0000
0000
3001
0200
,  // measure 13
0000
0000
0000
0000
0300
0000
0000
0000
0000
0000
0010
0000
1000
0000
0001
0020
,  // measure 14
0000
0000
0031
0000
1000
0000
0010
0000
2000
0000
0000
0000
3002
0000
0000
0013
,  // measure 15
0000
0100
1000
0000
0000
0000
0000
0000
0002
0000
0000
0000
0023
0000
0000
0031
,  // measure 16
0000
1000
0010
1000
0002
0000
0003
0000
,  // measure 17
0000
0000
0000
0000
0000
0000
0000
0000
0000
0000
1000
0000
0010
0000
1000
0002
,  // measure 18
0000
1003
0001
1000
0200
0000
0000
0310
,  // measure 19
0002
0000
0000
0003
0000
1000
0010
1000
,  // measure 20
0001
0010
0001
1000
0200
0000
0000
0000
,  // measure 21
0000
0000
0300
0000
0000
0000
0000
0000
0010
0000
0001
0000
1000
0000
0001
0200
,  // measure 22
0000
0000
0310
0000
0100
0000
0001
0000
1000
0000
0100
0000
1000
0000
0001
0010
,  // measure 23
0000
0000
0000
0000
0001
0010
0100
0010
,  // measure 24
0002
0000
0000
2003
0000
0000
3010
0000
2000
0000
0000
0000
3200
0000
0000
0000
,  // measure 25
0320
0000
0000
0000
0032
0000
0000
0000
0013
0000
0100
0000
0010
0000
0001
2000
,  // measure 26
0000
0000
3010
0000
1000
0000
0001
0000
0010
0000
0001
0000
1000
0000
0001
0100
,  // measure 27
0000
0000
0000
0000
0010
0100
0001
1000
,  // measure 28
0002
2003
3200
0000
,  // measure 29
0000
0300
0010
0001
2000
0000
0000
0000
,  // measure 30
3000
0000
0000
0000
0001
0000
0100
0000
0020
0000
0000
2030
0000
0000
3001
0000
,  // measure 31
0200
0300
0020
2030
,  // measure 32
3002
0203
0320
0030
,  // measure 33
0000
0000
1000
0000
0001
0000
1000
0020
0000
0000
1030
0000
0001
0000
0010
0000
,  // measure 34
0200
0000
0000
0000
0000
0000
0310
0002
0000
0000
0000
0000
0003
0000
0000
0000
,  // measure 35
0000
0000
1000
0000
0000
0000
0001
0200
0000
0000
0301
0000
1000
0000
0010
0000
,  // measure 36
2000
0000
0000
0000
0000
0000
3001
0020
0000
0000
0000
0000
0030
0000
0000
0000
,  // measure 37
0000
0000
0001
0000
1000
0000
0010
2000
0000
0000
3001
0000
0010
0000
0001
0000
,  // measure 38
2000
0000
0000
0000
3020
0000
0000
1030
0000
0001
0100
0000
0000
0000
0000
0000
,  // measure 39
0002
0000
0000
0000
2003
0000
0000
3100
0000
0000
0010
0000
0100
0000
1000
0000
,  // measure 40
0002
0000
0000
0003
0000
0000
0000
0000
,  // measure 41
0000
0000
1000
0000
0010
0000
1000
0002
0000
0000
0013
0000
0100
0000
1000
0000
,  // measure 42
0200
0000
0000
0310
0002
0000
0000
0000
,  // measure 43
0003
1000
0010
0100
0010
1000
0001
0010
,  // measure 44
0200
0000
0000
0300
,  // measure 45
0010
0000
0001
0000
0010
0000
0100
2000
0000
0000
3001
0000
0100
0000
0010
0000
,  // measure 46
0100
0000
0001
0000
1000
0000
0001
0010
0000
0000
0000
0000
0000
0000
0000
0000
,  // measure 47
0001
0000
0100
0000
0001
0000
1000
0000
0100
0000
0000
0020
0000
0000
0130
0000
,  // measure 48
2000
3200
0320
0032
,  // measure 49
1003
0000
0010
0000
1000
0000
0001
0200
0000
0000
0310
0000
0100
0000
0001
0000
,  // measure 50
1000
0000
0100
0000
1000
0000
0001
0010
0000
0000
0000
0000
0000
0000
0000
0000
,  // measure 51
0001
0100
0010
1000
0001
0000
2000
0000
,  // measure 52
3002
0000
0000
0000
0000
0000
0000
0000
0000
0000
0000
0000
0003
0000
0000
0000
0000
0000
0000
0000
0000
1000
0000
0010
,  // measure 53
1000
0000
0000
0001
0000
0000
0010
0000
0000
0001
0000
2000
0000
0000
0000
0000
0000
0000
3000
0000
0000
0001
0000
0100
,  // measure 54
0001
0000
0000
1000
0000
0000
0001
0000
0000
1000
0000
0020
0000
0000
0000
0000
0000
0000
0030
0000
0000
1000
0000
0001
,  // measure 55
1000
0000
0000
0001
0000
0000
0010
0000
0000
0001
0000
2000
0000
0000
0000
0000
0000
0000
3100
0000
0010
0001
0000
1000
,  // measure 56
0002
2003
3002
0023
,  // measure 57
0030
0000
0000
0001
0000
0000
0002
0000
0000
0000
0000
1003
0000
0000
1000
0000
0000
0001
0010
0000
0000
0100
0000
0000
,  // measure 58
0000
0000
0000
0010
0000
0000
0020
0000
0000
0000
0000
0031
0000
0000
0001
0000
0000
1000
0010
0000
0000
0100
0000
0000
,  // measure 59
0002
0000
0000
0023
0000
0000
0000
0000
0030
0000
0001
0000
0010
0000
0001
0000
,  // measure 60
2000
0000
0000
3200
0000
0000
0000
0300
,  // measure 61
0000
0000
0000
0010
0000
0000
0010
0000
0000
0000
0000
0011
0000
0000
0001
0000
0000
1000
0020
0000
0000
1030
0000
0000
,  // measure 62
0000
2002
0000
0000
3003
0000
0000
0000
,  // measure 63
1000
0000
0010
0000
1000
0000
0001
0020
0000
0000
0031
0000
1000
0000
0010
0000
,  // measure 64
1000
0000
0001
0000
1000
0000
0100
0010
0000
0000
0000
0000
0000
0000
0000
0000
,  // measure 65
0100
0000
1000
0000
0100
0000
0010
0000
0002
0000
0000
1003
0000
0000
0010
0000
,  // measure 66
0220
0330
2002
3003
0220
0330
2002
3003
,  // measure 67
0001
0000
1000
0000
0001
0000
0010
0200
0000
0000
0310
0000
0001
0000
1000
0000
,  // measure 68
0001
0000
0100
0000
0001
0000
1000
0010
0000
0000
0000
0000
0000
0000
0000
0000
,  // measure 69
1000
0010
1000
0001
0200
0000
0320
0000
,  // measure 70
1030
0000
0000
0001
0000
0000
0100
0000
0000
0000
0000
0000
0010
0000
0000
0000
0000
0000
1000
0000
0000
0000
0000
0000
0001
0000
0000
0000
0000
0000
0010
0000
0000
0000
0000
0000
0010
0000
0000
0000
0000
0000
0000
0000
0000
0000
0001
0000
,  // measure 71
0000
0000
0001
0000
0000
1000
0010
0000
0000
1000
0000
0000
0002
0000
0000
0000
0000
0000
0000
0000
0000
0000
0000
0000
,  // measure 72
0003
0000
0000
0000
1000
0000
0010
0000
0200
0000
0000
0302
0000
0000
1003
0000
,  // measure 73
0200
0300
0020
0230
,  // measure 74
2300
3002
0203
0000
,  // measure 75
0320
2030
3002
0000
,  // measure 76
0003
0000
0000
0000
2000
0000
3010
0000
0200
0000
0000
0302
0000
0000
2003
0000
,  // measure 77
3200
0300
0020
0230
,  // measure 78
2300
0000
0000
0000
3002
0000
0000
0000
0203
0000
0000
0000
0000
0301
1000
0000
,  // measure 79
0020
0000
0000
0230
0000
0000
0302
0000
0000
2003
0000
0000
3001
0000
0200
0000
0040
0000
0000
0000
0000
0000
0000
0000
0000
0000
0000
0000
0000
0000
0000
0000
,  // measure 80
0000
0000
0000
0000
0000
0330
0000
0000
;

//---------------dance-single - Medium----------------
#NOTES:
     dance-single:
     Ace Of Hearts (2010):
     Medium:
     6:
     0.468,0.190,0.048,0.524,0.005:
0000
0000
0000
0000
,
0002
1000
1003
1000
,
0020
0100
0130
0000
,
0002
1000
1003
1000
,
0020
0000
0030
1000
,
0002
0000
0003
1000
,
0010
0000
1000
0001
2000
0000
3000
0000
,
0010
1000
0001
0100
,
0020
0030
0000
1000
,
1000
0000
0001
0010
0002
0000
0003
0000
,
0020
0030
0000
0001
,
0001
0000
1000
0010
2000
0000
3000
0000
,
0200
0300
0000
0010
,
0010
0000
0001
1000
0001
0000
1000
0000
,
0010
0000
1000
0010
,
1000
0001
1000
0000
0200
0000
0000
0000
,
0300
0000
0000
0010
,
0010
0000
0001
1000
0002
0000
0003
0000
,
0020
0030
0000
0001
,
1000
0000
0010
1000
0020
0000
0000
0000
,
0030
0000
0000
0000
1000
1000
0001
0000
,
0010
0000
0001
0000
1000
0010
1000
0000
,
0001
0000
0000
0000
0010
0001
0010
0000
,
0001
0001
2000
3200
,
0320
0000
0032
0000
1003
0010
1000
0000
,
0001
1000
0001
0000
1000
0001
1000
0000
,
0010
0000
0000
0000
1000
0001
1000
0000
,
0010
1000
0002
0000
,
0003
1000
0020
0000
,
0030
0000
1000
0000
0001
0000
1000
0100
,
2000
3000
0001
0100
,
0001
1000
0020
0030
,
0000
0000
1000
0000
1000
0000
0001
0100
,
0002
0003
2000
3000
,
0000
0000
0010
0000
0010
0000
0100
0001
,
0200
0300
0020
0030
,
0000
0000
0100
0000
0100
0000
0001
1000
,
0001
0010
0010
0000
,
0001
0000
1000
0000
0001
0010
0001
0000
,
2000
0000
3000
0000
,
0000
0000
0010
0000
1000
0000
0001
0010
,
0002
0003
0020
0030
,
0000
0000
0001
0000
1000
0010
1000
0000
,
0002
0000
0003
0000
,
0010
0010
0001
0000
1000
0010
1000
0000
,
0001
0100
0001
0000
1000
0000
0000
0000
,
0001
1000
0001
0000
1000
0000
0001
0000
,
2000
3200
0320
0032
,
1003
1000
0010
0000
0100
0000
0010
0000
,
1000
0010
1000
0000
0001
0000
0000
0000
,
0010
0001
0010
0000
0001
0000
1000
0000
,
0020
0000
0030
0000
,
1000
0100
0100
0000
0020
0000
0030
0000
,
0001
1000
1000
0000
0200
0000
0300
0000
,
0010
0001
0001
0000
1000
0000
0010
1000
,
0002
2003
3002
0013
,
0000
0001
0001
0000
1000
0010
1000
0000
,
0000
0001
0001
0000
1000
0010
1000
0000
,
0002
0000
0003
1000
,
0020
0000
0000
0230
0000
0000
0300
0000
,
0000
0001
0001
0000
1000
0010
1000
0000
,
0000
2002
0000
0000
3003
0000
0000
0000
,
0001
0001
0010
0000
0001
1000
0001
0000
,
1000
0010
1000
0000
0001
0000
0000
0000
,
0010
0001
0010
0000
0001
0000
1000
0000
,
1001
1001
1001
1001
,
1000
1000
0010
0000
1000
0010
1000
0000
,
0001
1000
0001
0000
0010
0000
0000
0000
,
0001
0010
0001
0000
1000
0000
1000
0000
,
0020
0030
1000
1000
,
0001
0100
0001
0000
2000
0000
0000
0000
,
3000
0000
0001
0000
0010
0000
0001
1000
,
0002
0003
0010
0001
,
1000
0001
0200
0300
,
0001
1000
2000
0000
,
3000
0000
0001
0100
0001
0000
1000
0001
,
2000
3000
0010
1000
,
0001
0000
0000
0000
1000
0000
0000
0000
0020
0000
0000
0030
0000
0000
1000
0000
,
0002
0000
0000
1003
0000
0000
0100
0000
0020
0000
0000
0000
0000
0000
0000
0000
,
0000
0000
0000
0000
0000
0030
0000
0000
;

//---------------dance-single - Easy----------------
#NOTES:
     dance-single:
     Ace Of Hearts (2010):
     Easy:
     3:
     0.313,0.114,0.029,0.324,0.005:
0000
0000
0000
0000
,
0001
0001
0001
0000
,
1000
1000
1000
0000
,
0100
0100
0100
0000
,
0020
0000
0030
0000
,
0002
0000
0003
1000
,
1000
0000
1000
0000
,
0010
0010
0010
0000
,
0200
0300
0000
0001
,
0001
0000
2000
0000
,
3000
0000
0000
0100
,
0100
0000
0020
0000
,
0030
0000
0000
0001
,
0001
0000
0010
0010
,
0010
0000
0001
0001
,
0001
0000
2000
0000
,
3000
0000
0000
0010
,
0010
0000
2000
0000
,
3000
0000
0000
0001
,
0001
0000
0002
0000
,
0003
0000
0000
0000
1000
1000
1000
0000
,
1000
0000
0010
0010
,
0010
0000
1000
0000
,
1000
0000
0001
0001
,
0001
0000
0001
0000
0010
0010
0010
0000
,
0010
0000
0100
0100
,
0100
0000
1000
1000
,
1000
0000
0002
0000
,
0003
0000
2000
0000
,
3000
0000
0010
0010
,
0010
0000
0100
0100
,
0100
0000
0002
0003
,
0000
1000
1000
0000
,
2000
0000
3000
0000
,
0000
0010
0010
0000
,
0020
0000
0030
0000
,
0000
0100
0100
0000
,
0200
0000
0300
0000
,
0001
0001
0001
0000
,
0002
0000
0003
0000
,
0000
0100
0100
0000
,
0200
0000
0300
0000
,
0000
0001
0001
0000
,
0002
0000
0003
0000
,
0010
0010
0010
0000
0010
0000
0000
0000
,
0100
0100
0100
0000
,
1000
1000
1000
0000
,
0010
0010
0010
0010
,
0100
0100
0100
0000
0100
0000
0000
0000
,
0010
0010
0010
0000
,
1000
1000
1000
0000
,
0002
0000
0003
0000
,
1000
1000
1000
0000
2000
0000
3000
0000
,
0001
0001
0001
0000
0002
0000
0003
0000
,
0010
0010
0010
0000
0020
0000
0030
0000
,
2002
0000
3003
0000
,
0000
1000
1000
0000
0001
0001
0001
0000
,
0000
0100
0100
0000
0001
0001
0001
0000
,
2000
0000
3000
0000
,
0020
0000
0030
0000
,
0000
1000
1000
0000
0001
0000
0100
0000
,
0220
0000
0330
0000
,
0010
0010
0010
0000
0010
0000
0000
0000
,
1000
1000
1000
0000
,
0001
0001
0001
0000
,
1000
0100
0010
0001
,
1000
1000
1000
0000
1000
0000
0000
0000
,
0001
0001
0001
0000
,
0100
0100
0100
0000
,
0020
0030
0000
1000
,
1000
0000
0020
0000
,
0030
0000
1000
1000
,
1000
0000
0001
0001
,
0001
0000
0100
0000
,
0010
0010
0020
0000
,
0030
0000
1000
1000
,
1000
0000
0001
0001
,
0001
0000
0000
0000
0000
0000
0000
0000
0020
0000
0000
0030
0000
0000
0000
0000
,
0200
0000
0000
1300
0000
0000
0000
0000
2002
0000
0000
0000
0000
0000
0000
0000
,
0000
0000
0000
0000
0000
3003
0000
0000
;

//---------------dance-single - Novice----------------
#NOTES:
     dance-single:
     Ace Of Hearts (2010):
     Beginner:
     2:
     0.216,0.076,0.019,0.295,0.000:
0000
0000
0000
0000
,
0001
0000
0001
0000
,
0002
0000
0003
0000
,
1000
0000
1000
0000
,
2000
0000
3000
0000
,
0020
0000
0030
0000
,
1000
0000
1000
0000
,
0001
0000
0001
0000
,
0002
0003
0000
0000
,
1000
0000
1000
0000
,
1000
0000
0000
0000
,
0010
0000
0010
0000
,
0010
0000
0000
0000
,
0100
0000
0100
0000
,
0100
0000
0001
0000
,
0001
0000
0001
0000
,
0000
0000
0000
0000
,
1000
0000
2000
0000
,
3000
0000
0000
0000
,
0010
0000
0020
0000
,
0030
0000
1000
1000
,
1000
0000
1000
0000
,
0000
0000
0001
0000
,
0001
0000
0002
0000
,
0003
0000
0010
0010
,
0010
0000
0010
0000
,
0000
0000
0001
0000
,
0001
0000
0002
0000
,
0003
0000
2000
0000
,
3000
0000
0020
0000
,
0030
0000
0100
0000
,
0100
0000
0200
0300
,
0000
0000
0001
0000
,
0001
0000
0001
0000
,
0000
0000
0010
0000
,
0010
0000
0010
0000
,
0000
0000
0100
0000
,
0100
0000
0100
0000
,
1000
0000
1000
0000
,
1000
0000
0000
0000
,
0000
0000
0001
0000
,
0002
0000
0003
0000
,
0000
0000
1000
0000
,
2000
0000
3000
0000
,
0010
0010
0010
0000
,
0010
0000
0000
0000
,
0100
0000
0100
0000
,
0200
0000
0300
0000
,
0001
0001
0001
0000
,
0001
0000
0000
0000
,
1000
0000
1000
0000
,
2000
0000
3000
0000
,
0010
0010
0010
0000
,
1000
1000
1000
0000
,
0001
0001
0001
0000
,
0020
0000
0030
0000
,
0000
0001
0002
0003
,
0000
1000
2000
3000
,
0200
0000
0300
0000
,
0020
0000
0030
0000
,
0000
0001
0001
0000
,
2002
0000
3003
0000
,
1000
1000
1000
0000
,
1000
0000
0000
0000
,
0010
0000
0010
0000
,
0020
0000
0030
0000
,
0100
0100
0100
0000
,
0100
0000
0000
0000
,
0001
0000
0001
0000
,
0002
0003
1000
0000
,
1000
0000
2000
0000
,
3000
0000
0001
0000
,
0001
0000
0100
0000
,
0100
0000
0200
0000
,
0300
0000
0020
0000
,
0030
0000
1000
0000
,
1000
0000
0001
0000
,
0001
0000
0000
0000
0000
0000
0000
0000
0020
0000
0000
0030
0000
0000
0000
0000
,
0002
0000
0000
0003
0000
0000
0000
0000
2002
0000
0000
0000
0000
0000
0000
0000
,
0000
0000
0000
0000
0000
3003
0000
0000
;
