#TITLE:Silly Symphony;
#SUBTITLE:;
#ARTIST:Mosaic.wav;
#TITLETRANSLIT:;
#SUBTITLETRANSLIT:;
#ARTISTTRANSLIT:;
#GENRE:;
#CREDIT:Ace Of Hearts;
#BANNER:Silly Symphony - bn.png;
#BACKGROUND:Silly Symphony - bg.jpg;
#LYRICSPATH:;
#CDTITLE:Ace Of Hearts.png;
#MUSIC:Silly Symphony.ogg;
#OFFSET:0.891;
#SAMPLESTART:65.600;
#SAMPLELENGTH:12.000;
#SELECTABLE:YES;
#BPMS:0.000=205.000,48.000=102.500,50.000=205.000,62.000=102.500,64.000=205.000,76.000=102.500,78.000=205.000,90.000=102.500,92.000=205.000,150.000=102.500,152.000=205.000,168.000=102.500,176.000=205.000,272.000=102.500,280.000=205.000,300.000=102.500,302.000=205.000,314.000=102.500,316.000=205.000,374.000=102.500,376.000=205.000,392.000=102.500,400.000=205.000,496.000=102.500,500.000=205.000;
#STOPS:105.000=0.585
,329.000=0.585
;
#BGCHANGES:;
#FGCHANGES:;
#KEYSOUNDS:;

//---------------dance-single - Hard----------------
#NOTES:
     dance-single:
     Ace Of Hearts (2010):
     Hard:
     11:
     1.000,0.000,1.000,1.000,0.124: // measure 1
0000
0000
0000
0000
,  // measure 2
0000
0000
0000
0000
,  // measure 3
0000
0000
0000
0000
,  // measure 4
0000
0000
0000
0000
,  // measure 5
0000
0000
0000
0000
,  // measure 6
0000
0000
0000
0000
,  // measure 7
0000
0000
0000
0000
,  // measure 8
0000
0000
0000
0000
,  // measure 9
0000
0000
0000
0000
0000
0000
0000
0000
0004
0400
0000
0000
0000
0000
0303
0000
,  // measure 10
0100
0100
0010
1000
0001
0010
0100
1000
,  // measure 11
0001
0001
0010
0100
0100
1000
0001
0001
,  // measure 12
0100
0100
0010
1000
1000
0001
0100
0100
,  // measure 13
M1M1
0000
1MM1
0000
1000
1000
0010
0100
,  // measure 14
0001
1000
0100
0010
0100
0100
1000
0001
,  // measure 15
0001
0100
0010
0010
1000
1000
0001
0010
,  // measure 16
0010
0000
0000
0000
0100
0000
0000
0000
1000
0000
0000
0000
1000
0000
0000
0000
11MM
0000
0000
0000
0000
0000
0000
0000
1MM1
0000
0004
4000
0000
0000
3003
0000
,  // measure 17
0001
0100
0010
1000
0001
0010
0100
0010
,  // measure 18
0001
0001
0100
0010
0010
1000
0100
0100
,  // measure 19
0010
0010
0001
1000
1000
0010
1000
1000
,  // measure 20
1MM1
0000
11MM
0000
0100
0100
0010
0001
,  // measure 21
1000
0010
0100
0001
1000
1000
0100
0010
,  // measure 22
0010
0100
1000
1000
0001
0001
0100
0010
,  // measure 23
0010
0000
0000
0000
1000
0000
0000
0000
0010
0000
0000
0000
0100
0000
0000
0000
M11M
0000
0000
0000
0000
0000
0000
0000
1MM1
0000
4000
0004
0000
0000
3003
0000
,  // measure 24
1M1M
0MM0
M1M1
0MM0
,  // measure 25
MM11
0MM0
11MM
0MM0
,  // measure 26
M1M1
0MM0
1M1M
0MM0
,  // measure 27
M11M
0000
1MM1
0000
1000
0010
0100
0002
,  // measure 28
0000
1003
0010
0100
0001
1000
0100
0020
,  // measure 29
0000
0130
1000
0001
0100
0010
2000
0000
,  // measure 30
3002
0000
1003
0000
0010
1000
0100
0010
,  // measure 31
0002
1003
0020
0000
0130
0000
0002
0000
,  // measure 32
1003
0000
0200
0000
0310
0000
0001
2000
,  // measure 33
0000
3002
0023
0230
,  // measure 34
1300
0000
0002
0000
0000
0000
0103
0000
0000
0000
M11M
0000
0000
M11M
0000
0000
,  // measure 35
M11M
0000
0000
M11M
0000
0000
M11M
0000
0010
0000
2000
0000
0000
0000
3002
0000
,  // measure 36
0000
0013
0010
0100
2000
0000
3001
0020
,  // measure 37
0000
0130
0100
1000
0001
0000
0200
0000
,  // measure 38
0310
0000
0000
0000
2000
0000
0000
0000
3001
0100
0001
0020
0000
0000
0030
0000
,  // measure 39
0002
2003
3020
0230
,  // measure 40
0302
0000
1003
0020
0000
0000
0230
0000
,  // measure 41
0302
0000
2003
0000
3200
0000
0310
0002
,  // measure 42
0000
1003
0020
0000
0130
0000
0101
0000
,  // measure 43
0002
0000
0000
1003
0020
0000
2030
0000
3100
0000
0010
0000
0002
0000
0003
0000
,  // measure 44
0100
0020
1030
0002
0013
0100
2000
3000
,  // measure 45
1001
0101
1010
1100
,  // measure 46
0110
1001
0101
0110
,  // measure 47
1010
1100
0110
0011
,  // measure 48
1001
1001
1001
0000
,  // measure 49
1000
0100
1000
0100
1000
0100
1000
0100
,  // measure 50
0010
0001
0010
0001
0010
0001
0010
0001
,  // measure 51
1000
0001
1000
0001
0100
0010
0100
0010
,  // measure 52
4000
0004
0000
0000
0000
0000
0000
0000
0000
0000
0000
0000
0000
0000
3003
0000
,  // measure 53
02M1
0000
0310
201M
0000
3001
0M21
0130
,  // measure 54
100M
0000
0001
0000
M100
0000
0010
0000
020M
0000
0000
0000
M302
0000
0000
0003
,  // measure 55
2M01
0000
3100
M120
0000
0031
02M1
0310
,  // measure 56
1M00
0000
0001
0000
M010
0000
0100
0000
200M
0000
0000
0000
3M20
0000
0000
0030
,  // measure 57
021M
0000
0301
0M21
0000
0130
210M
3001
,  // measure 58
01M0
0000
0010
0000
100M
0000
0100
0000
M010
0000
0100
0000
20M0
0000
0000
3000
,  // measure 59
1MM2
0000
0000
0000
0023
0000
0000
0030
0210
0000
0000
0000
1300
0000
1002
0000
,  // measure 60
0000
0103
0020
0000
1030
0000
1001
0001
,  // measure 61
M201
0000
0310
2M10
0000
3001
M021
0130
,  // measure 62
100M
0000
0001
0000
01M0
0000
0010
0000
2M00
0000
0000
0000
320M
0000
0000
0300
,  // measure 63
M120
0000
0031
02M1
0000
0310
2M10
0000
,  // measure 64
30M2
0000
0000
0000
M013
0000
0100
0000
200M
0000
0000
0000
3M02
0000
0000
0003
,  // measure 65
M201
0000
0310
2M10
0000
3001
02M1
0310
,  // measure 66
100M
0001
0M10
0100
10M0
0001
M200
0300
,  // measure 67
M12M
0000
1030
0000
1002
0000
0013
0210
,  // measure 68
0000
1300
0001
0000
0100
0000
0110
0000
,  // measure 69
0010
0000
0000
0000
2000
0000
0000
0000
3001
0000
0000
0000
0020
0000
0000
0000
0031
0000
0000
0000
2000
0000
0000
0000
3200
0000
0000
0000
0340
0004
0000
0000
,  // measure 70
0033
0000
0000
0000
1000
0000
0000
0000
0100
0000
0000
0000
0010
0000
0000
0000
0002
0000
4003
0400
0000
0000
3300
0000
1001
0000
0000
0000
0000
0000
0000
0000
,  // measure 71
4000
0004
0000
0000
0000
0000
0000
0000
0000
0000
0000
0000
0000
0000
3003
0000
,  // measure 72
4000
0040
0000
0000
0000
0000
0000
0000
0000
0000
3030
0000
0020
0000
0000
0000
,  // measure 73
0130
0001
1000
0100
0010
0100
1000
0001
,  // measure 74
0100
0100
0010
1000
1000
0100
0010
0010
,  // measure 75
0001
0001
1000
0010
0010
0100
0001
0001
,  // measure 76
MM11
0000
M1M1
0000
0100
0100
0010
1000
,  // measure 77
0001
0010
0100
1000
0001
0001
0100
0010
,  // measure 78
0010
1000
0001
0001
0010
0010
0001
1000
,  // measure 79
1000
0000
0000
0000
0010
0000
0000
0000
1000
0000
0000
0000
1000
0000
0000
0000
11MM
0000
0000
0000
0000
0000
0000
0000
MM11
0000
0040
0400
0000
0000
0330
0000
,  // measure 80
11MM
M00M
1MM1
M00M
,  // measure 81
M1M1
M00M
1M1M
M00M
,  // measure 82
11MM
M00M
M11M
0MM0
,  // measure 83
MM11
0000
M1M1
0000
0002
1003
0100
0020
,  // measure 84
0000
0130
1000
0001
0100
0010
1000
0002
,  // measure 85
0000
0013
0100
0000
0020
0000
0032
0000
,  // measure 86
2003
0000
3100
0010
0002
0000
0103
0010
,  // measure 87
1000
0100
0020
0000
0230
0000
2300
0000
,  // measure 88
3002
0000
0203
0000
0320
0000
1030
0200
,  // measure 89
0000
0320
0032
2003
,  // measure 90
3001
0000
0020
0000
0000
0000
0230
0000
0300
0000
1MM1
0000
0000
1MM1
0000
0000
,  // measure 91
1MM1
0000
0000
1MM1
0000
0000
1MM1
0000
0001
0000
0010
0000
0100
0000
2000
0000
,  // measure 92
0000
3001
0100
0010
1000
0001
0100
0020
,  // measure 93
0000
1030
0001
0010
0200
0000
2300
0000
,  // measure 94
3002
0000
0000
0000
0203
0000
0000
0000
0310
1000
0010
0200
0000
0000
0300
0000
,  // measure 95
0002
2003
3020
0230
,  // measure 96
0302
0000
0013
0200
0000
0000
2300
0000
,  // measure 97
3002
0000
0023
0000
0032
0000
1003
0020
,  // measure 98
0000
1030
0002
0000
0203
0300
1001
0000
,  // measure 99
0002
0000
0000
0103
0020
0000
2030
0000
3001
0000
0100
0000
0010
0000
0000
0000
,  // measure 100
2000
0000
3020
0000
0230
0000
0302
1003
0200
0000
0320
0000
0032
0000
0003
0000
,  // measure 101
1100
0110
0011
0101
,  // measure 102
1001
1100
1010
0110
,  // measure 103
0101
1001
1010
1100
,  // measure 104
1001
1001
1001
0000
,  // measure 105
0001
0100
0001
0100
0001
0100
0001
0100
,  // measure 106
0010
1000
0010
1000
0010
1000
0010
1000
,  // measure 107
0100
0010
0100
0010
0001
1000
0001
1000
,  // measure 108
0400
0040
0000
0000
0000
0000
0000
0000
0000
0000
0000
0000
0000
0000
0330
0000
,  // measure 109
M012
0000
1003
12M0
0000
0310
M012
0000
,  // measure 110
1M03
0000
0010
0000
01M0
0000
0001
0000
M020
0000
0000
0000
023M
0000
0000
0300
,  // measure 111
21M0
0000
3010
M210
0000
0301
0M21
0000
,  // measure 112
023M
0000
0000
0000
13M0
0000
0010
0000
M200
0000
0000
0000
03M2
0000
0000
0003
,  // measure 113
2M01
0000
3100
012M
0000
0031
M201
0310
,  // measure 114
1M00
0000
0100
0000
001M
0000
0001
0000
M100
0000
0010
0000
200M
0000
0000
3000
,  // measure 115
12MM
0000
0310
0000
0012
0000
1003
1020
,  // measure 116
0000
0130
0001
0000
0010
0000
0110
0000
,  // measure 117
210M
0000
3010
M210
0000
0301
0M21
0000
,  // measure 118
023M
0000
0000
0000
23M0
0000
0000
0000
3M20
0000
0000
0000
023M
0000
0000
0300
,  // measure 119
M102
0000
1003
12M0
0000
0310
0M12
0000
,  // measure 120
10M3
0000
0010
0000
M100
0000
0010
0000
100M
0000
0001
0000
M200
0000
0000
0300
,  // measure 121
012M
0000
1030
12M0
0000
0310
M012
0000
,  // measure 122
01M3
0010
1M00
0001
M010
0100
100M
0000
,  // measure 123
1020
0000
0130
0000
0102
0000
1003
1200
,  // measure 124
0000
0310
0002
0000
0103
0000
0110
0000
,  // measure 125
0010
0000
0000
0000
2000
0000
0000
0000
3001
0000
0000
0000
0200
0000
0000
0000
0310
0000
0000
0000
2000
0000
0000
0000
3002
0000
0000
0000
4003
0040
0000
0000
,  // measure 126
3030
0000
0010
0100
0001
0000
2000
0000
,  // measure 127
3020
0030
2002
3003
;

//---------------dance-single - Medium----------------
#NOTES:
     dance-single:
     Ace Of Hearts (2010):
     Medium:
     9:
     1.000,0.000,0.133,1.000,0.052:
0000
0000
0000
0000
,
0000
0000
0000
0000
,
0000
0000
0000
0000
,
0000
0000
0000
0000
,
0000
0000
0000
0000
,
0000
0000
0000
0000
,
0000
0000
0000
0000
,
0000
0000
0000
0000
,
0000
0000
4000
0000
,
3001
0100
0020
0000
1030
0002
0000
0103
,
0020
0000
1030
0002
0000
1003
0200
0000
,
0310
0001
2000
0000
3001
0020
0000
0031
,
1000
0000
0010
0000
0100
0001
2000
0000
,
3100
0020
0000
0031
2000
0000
3001
0200
,
0000
0310
2000
0000
3001
0100
0020
0000
,
0130
0002
0000
1003
0100
0000
1000
0000
,
0100
0010
0002
0000
1003
0020
0000
0130
,
0002
0000
1003
0200
0000
0310
0002
0000
,
1003
0010
0200
0000
0310
2000
0000
3001
,
0100
0000
0010
0000
1000
0001
0020
0000
,
0031
2000
0000
3010
0200
0000
0301
2000
,
0000
3100
0020
0000
0031
1000
0200
0000
,
1300
0002
0000
0103
0010
0000
1000
0000
,
0001
0000
1001
0000
,
1000
0000
1010
0000
,
0010
0000
0110
0000
,
1001
0000
1001
0000
0002
0000
0103
0020
,
0000
0030
0000
1000
0002
0000
0103
0020
,
0000
0030
0000
0000
1000
0000
0002
0000
,
0013
0000
0200
0000
2300
0000
3001
0100
,
0020
1030
0002
0000
0203
0000
0310
0000
,
2000
0000
3002
0000
0013
0000
0100
2000
,
0000
3002
0023
0032
,
1003
0000
0020
0000
0000
0000
0130
0000
0000
0000
M001
0000
0000
00M1
0000
0000
,
M001
0000
0000
00M1
0000
0000
M001
0000
1000
0000
0100
0000
0000
0000
0020
0000
,
0000
0030
0000
0100
2000
0000
3001
0020
,
0000
0030
0000
0000
0001
0000
2000
0000
,
3010
0000
0000
0000
0100
0000
0000
0000
0002
0000
1003
0200
0000
0000
0300
0000
,
0010
0001
0020
0230
,
1300
0000
0001
2000
0000
0000
3002
0000
,
0023
0000
0230
0000
2300
0000
3001
0200
,
0000
0310
2000
0000
3200
0000
0300
0000
,
0020
0000
0000
0031
2000
0000
3200
0000
2300
0000
3200
0000
0320
0000
0030
0000
,
0002
1003
0020
0130
0002
1003
0200
0300
,
0020
0032
2003
3020
,
0230
0302
2003
3200
,
0320
0032
2003
3020
,
0230
0302
2003
3000
,
0400
0000
0000
0000
,
0340
0000
0000
0000
,
0034
0000
4003
0000
,
3004
4000
0000
0000
0000
0000
0000
0000
0000
0000
0000
0000
3003
0000
0000
0000
,
0002
0000
0103
0020
0000
1030
0002
1003
,
0010
1000
0001
0010
0200
0000
2300
0000
,
3002
0000
0103
0020
0000
1030
0002
1003
,
0010
1000
0001
0010
0200
0000
2300
0000
,
3200
0000
0310
0002
0000
1003
0020
0000
,
1030
0001
0010
0100
1000
0001
2000
0000
,
3020
0000
2030
0000
3002
0000
0013
0100
,
0000
1000
0002
0000
0013
0000
0000
0000
,
0002
0000
1003
0020
0000
1030
0002
0000
,
0013
0100
1000
0100
0020
0000
0032
0000
,
2003
0000
3010
0200
0000
0310
2000
0000
,
3002
0000
0013
0100
2000
0000
3002
0000
,
0203
0000
0310
2000
0000
3001
0020
0000
,
0031
1000
0010
0100
0001
1000
0020
0000
,
0230
0000
0302
0000
2003
0000
3100
0020
,
0000
0130
2000
0000
3001
0000
0010
0000
,
0001
0010
0100
1000
0100
0010
0002
0000
,
0003
1000
0010
0100
0002
0003
1001
0000
,
4000
0000
0000
3000
,
0040
0000
0000
2030
,
3001
0100
0020
0000
1030
0002
0000
0013
,
0200
0000
1300
0002
0000
0103
0020
0000
,
1030
0001
0200
0000
0301
2000
0000
3100
,
0010
0000
0011
0000
0001
1000
0020
0000
,
1030
0002
0000
0013
0200
0000
1300
0002
,
0000
0103
0020
0000
0130
0001
2000
0000
,
3100
0020
0000
0031
1000
0000
1010
0000
,
0010
0000
0110
0000
,
0100
0000
0101
0000
,
0001
0000
0011
0000
,
0110
0000
0110
0000
0020
0000
0031
2000
,
0000
0000
3000
0010
0200
0000
0301
2000
,
0000
3000
0000
0000
0020
0000
0230
0000
,
0302
0000
0023
0000
0130
0000
1000
0200
,
0310
0001
2000
0000
3020
0000
0230
0000
,
0302
0000
2003
0000
3200
0000
0310
0002
,
0000
0203
0320
2030
,
3002
0000
0203
0000
0000
0000
0301
0000
0000
0000
1M00
0000
0000
100M
0000
0000
,
1M00
0000
0000
100M
0000
0000
1M00
0000
0002
0000
0000
0000
0103
0000
0020
0000
,
0000
0000
0030
1000
0002
0000
0013
0200
,
0000
0300
0000
0000
2000
0000
3002
0000
,
0203
0000
0000
0000
0320
0000
0000
0000
2030
0000
3001
0200
0000
0000
0300
0000
,
0020
2030
3002
0023
,
0230
0000
1300
0002
0000
0000
0023
0000
,
0230
0000
0320
0000
0032
0000
1003
0020
,
0000
0130
0002
0000
2003
0000
3000
0000
,
0200
0000
0000
0310
0002
0000
2003
0000
3200
0000
0320
0000
0032
0000
0003
0000
,
2000
0000
3020
0000
2030
0000
3001
0010
0002
0000
1003
0000
0020
0000
0030
0000
,
2000
3002
0203
0320
,
2030
3002
0203
0320
,
2030
3002
0203
0320
,
2030
3002
0023
0030
,
0400
0000
0000
0000
,
4300
0000
0000
0000
,
3004
0000
0043
0000
,
0034
4000
0000
0000
0000
0000
0000
0000
0000
0000
0000
0000
3003
0000
0000
0000
,
0020
0000
1030
0002
0000
0103
0020
0000
,
1030
0001
0010
0001
2000
0000
3020
0000
,
2030
0000
3001
0020
0000
0031
2000
0000
,
3020
0000
0130
0001
2000
0000
3200
0000
,
0320
0000
0130
2000
0000
3001
0200
0000
,
0310
1000
0001
0100
0001
1000
0200
0000
,
0320
0000
0032
0000
2003
0000
3010
0200
,
0000
0301
2000
0000
3200
0000
0300
0000
,
0020
0000
0031
2000
0000
3001
0200
0000
,
0320
2030
3002
0203
,
0320
0000
1030
0002
0000
0013
0200
0000
,
1300
0001
0100
0010
1000
0001
0020
0000
,
0032
0000
1003
0020
0000
0130
0002
0000
,
0103
0010
0100
0001
1000
0100
0020
0000
,
0230
0000
2300
0000
3002
0000
0103
0020
,
0000
1030
0002
0000
0023
0000
0030
0000
,
0001
1000
0010
0100
0001
1000
0020
0000
,
0030
0000
1000
0001
0020
0000
0130
0000
,
2000
3000
2002
3003
;

//---------------dance-single - Easy----------------
#NOTES:
     dance-single:
     Ace Of Hearts (2010):
     Easy:
     6:
     0.537,0.000,0.124,0.438,0.000:
0000
0000
0000
0000
,
0000
0000
0000
0000
,
0000
0000
0000
0000
,
0000
0000
0000
0000
,
0000
0000
0000
0000
,
0000
0000
0000
0000
,
0000
0000
0000
0000
,
0000
0000
0000
0000
,
0000
0000
0000
0000
,
0001
0010
0001
0000
,
1000
0000
0000
0010
0000
0000
1000
0000
,
0001
1000
0001
0000
,
0010
0010
0001
1000
,
0001
0000
0000
0000
1000
0000
0000
0100
,
0000
1000
0001
0010
,
0001
0000
1000
1000
,
0001
0100
0001
0000
,
1000
0000
0000
0010
0000
0000
1000
0000
,
0001
0010
0001
0000
,
1000
1000
0001
0100
,
0001
0000
0000
0000
1000
0000
0000
0001
,
0000
1000
0010
1000
,
0001
0000
0100
0100
,
0010
0000
0110
0000
,
0100
0000
0101
0000
,
0001
0000
1001
0000
,
1001
0000
1001
0000
0001
0000
0000
0002
,
0000
0000
0003
0000
0100
0000
0000
0200
,
0000
0300
0010
1000
,
0010
0000
0000
0000
1000
0000
0000
2000
,
0000
3000
0001
0010
,
0001
0000
1000
0001
,
1000
0000
0010
1000
,
0010
0000
0000
0100
0000
0004
0000
0000
,
0000
0000
0000
0000
1003
0000
0000
2000
,
0000
0000
3000
0000
0010
0000
0000
0020
,
0000
0030
1000
0001
,
1000
0000
0000
0000
0000
0000
0000
0000
0020
0000
0000
0030
0000
0000
0000
0000
,
1000
0010
1000
0000
,
0001
0100
0001
0000
,
1000
0000
0001
0000
1000
0000
0000
0020
,
0000
0130
0100
0000
,
0002
0000
1003
0000
0001
0010
0001
0000
,
2000
0000
3100
0000
0010
0001
0010
0000
,
0001
0001
1000
1000
,
0010
0010
0100
0100
,
0001
0001
1000
1000
,
0010
0010
0010
0000
,
2000
0000
0000
0000
,
3200
0000
0000
0000
,
0320
0000
0032
0000
,
0043
0000
0000
0000
,
0031
0000
0000
0001
0000
0000
0001
0000
,
1000
0100
2000
0000
,
3001
0000
0000
0001
0000
0000
0001
0000
,
0100
0001
0200
0000
,
0310
0000
0000
0010
0000
0000
0010
0000
,
1000
0001
1000
0000
,
0010
0000
1000
0000
0010
0000
0000
2000
,
0000
3001
0001
0000
,
1000
0000
0000
1000
0000
0000
1000
0000
,
0010
1000
0002
0000
,
0103
0000
0000
0100
0000
0000
0100
0000
,
0001
0100
0020
0000
,
1030
0000
0000
1000
0000
0000
1000
0000
,
0001
0010
0002
0000
,
1003
0000
0010
0000
1000
0000
0000
0002
,
0000
0013
0010
0000
,
0200
2300
3002
0023
,
0030
0001
2000
3010
,
0400
0000
0000
0300
,
0004
0000
0000
0003
,
1000
0010
1000
0000
,
0001
0000
0000
0100
0000
0000
0001
0000
,
1000
0100
1000
0000
,
0001
1001
1000
0100
,
1000
0000
0000
0000
0001
0000
0000
1000
,
0000
0001
0100
0001
,
1000
0000
0100
0110
,
0010
0000
0011
0000
,
0001
0000
0101
0000
,
0100
0000
0110
0000
,
1001
0000
1001
0000
1000
0000
0000
2000
,
0000
0000
3000
0000
0010
0000
0000
0020
,
0000
0030
0100
0001
,
0100
0000
0000
0000
0010
0000
0000
0020
,
0000
0030
1000
0001
,
1000
0000
0001
0100
,
0001
0000
1000
0100
,
1000
0000
0000
0001
0000
4000
0000
0000
,
0000
0000
0000
0000
3001
0000
0000
0002
,
0000
0000
0003
0000
0010
0000
0000
0020
,
0000
0030
0001
1000
,
0001
0000
0000
0000
0000
0000
0000
0000
0200
0000
0000
0300
0000
0000
0000
0000
,
0001
0100
0001
0000
,
1000
0010
1000
0000
,
0001
0000
1000
0000
0001
0000
0000
0020
,
0000
0130
0100
0000
,
2000
0000
3001
0000
1000
0100
0010
0000
,
0002
0000
2003
0000
3001
0010
0100
0000
,
0010
0010
0001
0001
,
1000
1000
0010
0010
,
0100
0100
0001
0001
,
1000
1000
1000
0000
,
0002
0000
0000
0000
,
0023
0000
0000
0000
,
0230
0000
2300
0000
,
3400
0000
0000
0000
,
0310
0000
0000
0010
0000
0000
0010
0000
,
0001
0010
0001
0000
,
1000
0000
0000
1000
0000
0000
1000
0000
,
0010
1000
0010
0000
,
0100
0000
0000
0100
0000
0000
0100
0000
,
0001
0100
0001
0000
,
1000
0000
0010
0000
1000
0000
0000
0002
,
0000
1003
1000
0000
,
0100
0000
0000
0100
0000
0000
0100
0000
,
0010
0001
0010
0000
,
0001
0000
0000
0001
0000
0000
0001
0000
,
1000
0001
0100
0000
,
0010
0000
0000
0010
0000
0000
0010
0000
,
1000
0010
0100
0000
,
0001
0000
1000
0000
0001
0000
0000
0200
,
0000
0310
0010
0000
,
2000
3200
0320
0032
,
0003
1000
0100
1000
,
0002
0003
1001
0000
;

//---------------dance-single - Expert----------------
#NOTES:
     dance-single:
     Ace Of Hearts (2010):
     Challenge:
     14:
     1.000,0.000,1.000,0.476,1.000: // measure 1
0000
0000
0000
0000
,  // measure 2
0000
0000
0000
0000
0000
0000
0000
0000
0000
0000
0000
0000
M000
0M00
00M0
0000
,  // measure 3
000M
0000
M000
0000
00M0
0000
0M00
00M0
M000
0000
000M
00M0
0M00
0000
M000
0000
,  // measure 4
000M
0000
0M00
0000
000M
M000
00M0
0000
0000
0000
0000
0000
0M00
0000
000M
0000
,  // measure 5
M000
00M0
0M00
000M
0000
0000
00M0
000M
M000
0M00
0000
0000
0000
0000
0000
0000
,  // measure 6
00M0
0M00
M000
0000
000M
0000
0M00
0000
00M0
0000
M000
0000
000M
0000
0M00
0000
,  // measure 7
0000
0000
00M0
M000
000M
0M00
00M0
M000
,  // measure 8
0000
0000
000M
0000
0M00
0000
000M
M000
00M0
0000
M000
000M
0000
0000
0000
0000
,  // measure 9
0000
0000
0000
0000
0000
0000
0000
0000
1000
0100
0010
0001
0010
0100
1000
0001
,  // measure 10
0100
0010
0100
0000
0001
0000
1000
0000
0100
0000
0010
0000
0001
0000
0100
0000
,  // measure 11
0010
1000
0010
0000
1000
0000
0001
1000
0001
0000
0010
0000
0100
1000
0100
0000
,  // measure 12
1000
0001
1000
0000
0001
0000
0100
0001
0100
0000
0010
0000
1000
0001
1000
0000
,  // measure 13
1100
0100
0010
0001
1001
1000
0010
0100
0001
1000
0001
0000
1000
0000
0010
0000
,  // measure 14
0100
0000
0001
0000
1000
0000
0100
0000
1000
0001
1000
0000
0001
0000
0100
0010
,  // measure 15
0100
0000
0010
0000
1000
0001
1000
0000
0001
0010
0001
0000
1000
0000
0010
0100
,  // measure 16
0010
0000
0000
0000
1000
0000
0000
0000
0001
0000
1000
0000
0001
0000
0000
0000
1001
0000
1000
0000
0010
0000
1000
0000
1100
0000
0100
0010
0001
1000
0010
0100
,  // measure 17
0001
1000
0010
0000
1000
0000
0010
0000
0100
0000
0001
0000
1000
0000
0100
0000
,  // measure 18
0010
0100
0010
0000
0001
0000
0100
0010
0100
0000
0010
0000
1000
0100
1000
0000
,  // measure 19
0001
0010
0001
0000
0010
0000
0001
1000
0001
0000
1000
0000
0100
1000
0100
0000
,  // measure 20
0110
0010
0001
1000
1010
0010
1000
0100
0010
0001
0010
0000
0100
0000
1000
0000
,  // measure 21
0001
0000
0100
0000
0010
0000
1000
0000
0001
1000
0001
0000
0100
0000
0010
1000
,  // measure 22
0010
0000
1000
0000
0100
0010
0100
0000
0010
0001
0010
0000
0001
0000
0100
0001
,  // measure 23
0100
0000
0000
0000
0010
0000
0000
0000
1000
0000
0001
0000
1000
0000
0000
0000
1010
0000
0010
0000
0100
0000
0001
0000
0011
0000
0010
0100
1000
0100
0010
0001
,  // measure 24
1001
0000
0001
1000
0001
1000
0001
0000
0101
0000
0100
0010
0100
0010
0100
0000
,  // measure 25
0101
0000
0001
1000
0001
1000
0001
0000
0011
0000
0010
0001
0010
0001
0010
0000
,  // measure 26
0110
0000
0100
1000
0100
1000
0100
0000
0110
0000
0010
0001
0010
0001
0010
0000
,  // measure 27
0110
0000
1001
0000
1010
0010
0100
0102
,  // measure 28
0000
1003
1000
0100
0110
0010
0001
2001
,  // measure 29
0000
3010
0010
0100
0001
1000
0100
0010
,  // measure 30
0001
0000
1000
0000
0010
0000
0100
0000
0001
0000
1000
0100
0010
0000
0001
0010
,  // measure 31
0100
0000
1000
0100
0010
0000
0001
0000
1001
0000
0001
0000
0100
0000
0010
0000
,  // measure 32
1000
0100
0010
0001
0100
0010
1000
0001
,  // measure 33
0010
0100
0010
0001
0100
0010
1000
0001
,  // measure 34
0010
0000
0001
0000
1000
0000
0010
0000
0000
0000
M1M1
0000
0000
M1M1
0000
0000
,  // measure 35
M1M1
0000
0000
M1M1
0000
0000
M1M1
0000
1010
0000
0010
0000
0100
0000
0101
0000
,  // measure 36
0001
1000
0100
0010
0011
0001
1000
1010
,  // measure 37
0010
0100
0001
1000
1100
0100
0010
0001
,  // measure 38
0100
0000
0000
0000
0010
0000
0000
0000
1000
0000
0000
0000
0100
0000
0000
0000
1000
0000
0001
0010
0001
0000
1000
0100
1000
0000
0001
1000
0001
0000
0100
0000
,  // measure 39
0110
0010
1000
0001
0100
0010
0100
0001
,  // measure 40
1001
1000
0100
0110
0010
0001
1000
0010
,  // measure 41
0110
0100
0001
1000
1100
0100
0010
0011
,  // measure 42
0001
1000
1010
0010
0110
0000
1001
0000
,  // measure 43
1000
1000
1000
0010
0100
0100
0001
0001
1000
1000
0100
0100
0010
0010
0010
0010
,  // measure 44
0001
0000
0001
0000
1000
0000
1000
0000
0010
0000
0010
0000
1000
0000
1000
0000
0001
0000
1000
0100
1000
0000
0001
0010
0001
0000
1000
0100
1000
0000
0000
0000
,  // measure 45
0001
1000
0010
0000
0100
0001
1000
0000
0100
0010
0001
0000
1000
0010
0100
0000
,  // measure 46
0001
1000
0100
0000
1000
0001
0100
0000
0010
1000
0001
0000
0010
0100
1000
0000
,  // measure 47
0001
0100
0010
0000
0100
0001
1000
0000
0100
1000
0001
0000
0100
0001
1000
0000
,  // measure 48
1010
1010
1010
0000
1001
0000
0000
0000
,  // measure 49
1000
1000
1000
1000
1000
1000
1000
1000
,  // measure 50
0100
0100
0100
0100
0100
0100
0100
0100
,  // measure 51
0010
0010
0010
0010
0001
0001
0001
0001
,  // measure 52
1000
0010
1000
0001
0010
0001
1000
0010
0100
0001
1000
0100
0010
0001
0010
0100
,  // measure 53
12M0
0000
1300
0001
1000
0000
201M
0000
3010
0100
0010
0000
1M20
0000
1030
0000
,  // measure 54
00M1
0000
0010
0100
100M
0000
0001
0000
M100
0010
1000
0000
00M1
0000
0100
0000
,  // measure 55
021M
0000
0310
1000
0010
0000
M120
0000
0130
0001
0100
0000
021M
0000
0310
0000
,  // measure 56
1M00
0001
0010
0000
00M1
0000
1000
0000
M010
0100
0001
0000
10M0
0000
0100
0000
,  // measure 57
M210
0000
0310
0001
0010
0000
012M
0000
0130
1000
0100
0000
M210
0000
0310
0000
,  // measure 58
0M01
1000
0010
0000
010M
0000
0001
0000
10M0
0100
0010
0000
M100
0000
1000
0000
,  // measure 59
1M01
0000
100M
0000
11M0
0000
0M10
10M1
,  // measure 60
0000
0000
M001
0000
01M0
0000
0000
0000
0M10
1000
0001
0000
1000
0100
0010
0000
,  // measure 61
012M
0000
0130
1000
0100
0000
M210
0000
0310
0001
0010
0000
012M
0000
0130
0000
,  // measure 62
1M00
0001
0100
0000
M010
0000
1000
0000
00M1
0100
0010
0000
100M
0000
0001
0000
,  // measure 63
M102
0000
0103
0010
0100
0000
021M
0000
0310
1000
0010
0000
M120
0000
0130
0000
,  // measure 64
00M1
0000
1000
0100
0M10
0000
0100
0000
10M0
0001
0010
0000
M001
0000
1000
0000
,  // measure 65
2M10
0000
3010
0100
0010
0000
012M
0000
0130
0010
0100
0000
02M1
0000
0301
0000
,  // measure 66
1M00
0010
0100
0000
00M1
0000
1000
0000
M100
0010
0001
0000
10M0
0000
0010
0000
,  // measure 67
M110
0000
00M1
0000
M101
0000
100M
11M0
,  // measure 68
0000
0000
M010
0000
0M01
0000
0000
0000
100M
0010
0100
0000
0001
1000
0100
0000
,  // measure 69
1000
0000
0000
0000
0100
0000
0000
0000
1000
0000
0000
0000
0001
0000
0000
0000
1000
0000
0000
0000
0100
0000
0000
0000
0020
0000
0000
0000
0031
0010
0100
0010
,  // measure 70
0001
0000
0000
0000
2000
0000
0000
0000
3010
0000
0000
0000
0100
0000
0000
0000
0002
0000
1003
0100
0010
0100
1000
0000
1001
0000
0000
0000
0000
0000
0000
0000
,  // measure 71
1000
0010
1000
0000
0002
0000
0013
0001
0010
0100
2000
0000
3001
0100
0001
1000
,  // measure 72
0200
0000
0310
0100
1000
0000
0001
1000
0001
0100
0040
0000
0000
0000
0000
0000
,  // measure 73
1030
0001
1000
0000
0100
0000
0010
0000
0001
0000
0100
0000
0010
0000
1000
0000
,  // measure 74
0001
0100
0001
0000
1000
0000
0100
0010
0100
0000
1000
0000
0001
1000
0001
0000
,  // measure 75
1000
0010
1000
0000
0100
0000
0010
0100
0010
0000
0001
0000
1000
0010
1000
0000
,  // measure 76
1001
0001
0010
0100
1100
1000
0001
0100
0010
1000
0010
0000
0100
0000
0001
0000
,  // measure 77
1000
0000
0100
0000
0010
0000
0100
0000
1000
0001
1000
0000
0010
0000
0100
0001
,  // measure 78
0100
0000
0010
0000
1000
0001
1000
0000
0010
0100
0010
0000
1000
0000
0001
0010
,  // measure 79
0001
0000
0000
0000
1000
0000
0000
0000
0010
0000
0100
0000
0010
0000
0000
0000
1010
0000
1000
0000
0001
0000
0010
0000
0110
0000
0100
1000
0100
0010
0001
1000
,  // measure 80
1001
0000
0001
0010
0100
0010
0001
0000
1001
0000
1000
0100
0010
0100
1000
0000
,  // measure 81
1001
0000
0001
0100
0010
0100
0001
0000
1001
0000
1000
0010
0100
0010
1000
0000
,  // measure 82
1001
0000
0001
1000
0010
1000
0001
0000
1001
0000
1000
0001
0100
0001
1000
0000
,  // measure 83
1001
0000
1001
0000
1010
0010
0100
0102
,  // measure 84
0000
1003
1000
0010
0100
0001
0010
0210
,  // measure 85
0000
1300
1000
0001
0100
0010
1000
0001
,  // measure 86
0010
0000
0100
0000
0010
0000
0001
0000
1000
0000
0010
0100
0001
0000
0100
0010
,  // measure 87
1000
0000
0001
1000
0010
0000
1000
0000
0100
0000
0010
0000
0100
0000
1000
0000
,  // measure 88
0001
0100
0010
1000
0001
0010
0001
0100
,  // measure 89
0010
1000
0001
0010
0100
1000
0001
0100
,  // measure 90
0010
0000
1000
0000
0001
0000
1000
0000
0000
0000
1M1M
0000
0000
1M1M
0000
0000
,  // measure 91
1M1M
0000
0000
1M1M
0000
0000
1M1M
0000
0101
0000
0001
0000
0010
0000
0110
0000
,  // measure 92
0100
1000
0001
1000
1100
0100
0010
0011
,  // measure 93
0001
1000
0010
0100
0101
0001
1000
0010
,  // measure 94
0100
0000
0000
0000
0001
0000
0000
0000
1000
0000
0000
0000
0010
0000
0000
0000
0100
0000
0001
0010
0100
0000
1000
0100
0010
0000
0001
0010
0100
0000
1000
0000
,  // measure 95
1001
0001
0010
0100
1100
1000
0001
0100
,  // measure 96
0110
0010
1000
1100
0100
0010
0001
1000
,  // measure 97
1010
0010
0100
0001
1001
1000
0100
0110
,  // measure 98
0010
0001
1001
1000
1010
0000
1001
0000
,  // measure 99
0001
0001
0001
0010
0100
0100
1000
1000
0001
0001
0100
0100
0010
0010
0010
0010
,  // measure 100
1000
0000
1000
0000
0001
0000
0001
0000
0010
0000
0010
0000
0100
0000
0100
0000
1000
0000
0001
0100
0001
0000
1000
0010
1000
0000
0001
0100
0001
0000
1000
0000
,  // measure 101
0010
1000
0001
0000
0010
0100
1000
0000
0001
0100
0010
0000
1000
0001
0010
0000
,  // measure 102
0001
1000
0010
0000
0100
0001
1000
0000
0001
0010
0100
0000
0010
0001
1000
0000
,  // measure 103
0010
0100
0001
0000
1000
0010
0100
0000
0001
1000
0100
0000
1000
0001
0100
0000
,  // measure 104
0110
0110
0110
0000
1001
0000
0000
0000
,  // measure 105
1000
1000
1000
1000
1000
1000
1000
1000
,  // measure 106
0100
0100
0100
0100
0100
0100
0100
0100
,  // measure 107
0010
0010
0010
0010
0001
0001
0001
0001
,  // measure 108
0010
0001
1000
0010
1000
0001
0010
0100
1000
0100
0010
0001
1000
0010
1000
0001
,  // measure 109
0M12
0000
0013
0100
1000
0000
2M01
0000
3001
0100
0010
0000
102M
0000
1030
0000
,  // measure 110
M001
0100
0010
0000
1M00
0000
0001
0000
001M
0100
1000
0000
M001
0000
0100
0000
,  // measure 111
021M
0000
0310
1000
0001
0000
0M12
0000
0013
0100
1000
0000
20M1
0000
3001
0000
,  // measure 112
M100
0000
0010
1000
0M01
0000
0010
0000
010M
1000
0001
0000
M100
0000
0010
0000
,  // measure 113
102M
0000
1030
0100
0010
0000
0M21
0000
0031
1000
0010
0000
012M
0000
0130
0000
,  // measure 114
0M01
1000
0100
0000
001M
0000
0100
0000
1M00
0001
0100
0000
M010
0000
1000
0000
,  // measure 115
1M01
0000
M010
0000
01M1
0000
100M
11M0
,  // measure 116
0000
0000
M001
0000
01M0
0000
0000
0000
0M10
1000
0001
0000
0010
0100
0010
0000
,  // measure 117
012M
0000
0130
1000
0001
0000
M102
0000
0103
0010
1000
0000
21M0
0000
3100
0000
,  // measure 118
M010
0001
1000
0000
00M1
0000
0100
0000
0M10
1000
0001
0000
001M
0000
0100
0000
,  // measure 119
12M0
0000
1300
0001
0100
0000
M210
0000
0310
1000
0001
0000
0M12
0000
0013
0000
,  // measure 120
010M
1000
0001
0000
M100
0000
0010
0000
10M0
0001
0100
0000
0M01
0000
1000
0000
,  // measure 121
201M
0000
3010
0100
0001
0000
0M12
0000
0013
0100
1000
0000
20M1
0000
3001
0000
,  // measure 122
M100
0010
1000
0000
00M1
0000
0010
0000
0M01
1000
0010
0000
010M
0000
0001
0000
,  // measure 123
1M01
0000
010M
0000
M110
0000
001M
M101
,  // measure 124
0000
0000
1M00
0000
010M
0000
0000
0000
0M10
0001
1000
0000
0010
1000
0001
0000
,  // measure 125
0010
0000
0000
0000
0100
0000
0000
0000
1000
0000
0000
0000
0001
0000
0000
0000
0100
0000
0000
0000
0001
0000
0000
0000
0020
0000
0000
0000
0031
1000
0001
1000
,  // measure 126
0010
0000
1000
0010
0100
0000
0001
0000
,  // measure 127
0020
0030
2112
3003
;

//---------------dance-single - Novice----------------
#NOTES:
     dance-single:
     Ace Of Hearts (2010):
     Beginner:
     3:
     0.351,0.000,0.010,0.495,0.000:
0000
0000
0000
0000
,
0000
0000
0000
0000
,
0000
0000
0000
0000
,
0000
0000
0000
0000
,
0000
0000
0000
0000
,
0000
0000
0000
0000
,
0000
0000
0000
0000
,
0000
0000
0000
0000
,
0000
0000
0000
0000
,
0001
0000
0001
0000
,
0002
0000
0003
0000
,
0002
0000
0003
0000
,
0010
0010
0100
0000
,
0100
0000
0200
0000
,
0300
0000
0200
0000
,
0300
0000
1000
1000
,
0001
0000
0001
0000
,
0002
0000
0003
0000
,
0002
0000
0003
0000
,
1000
1000
0010
0000
,
0010
0000
0020
0000
,
0030
0000
0020
0000
,
0030
0000
0100
0100
,
0001
0000
0001
0000
,
0001
0000
0001
0000
,
1000
0000
1000
0000
,
0010
0000
0010
0000
2000
0000
0000
3000
,
0000
0000
0000
0000
2000
0000
0000
3000
,
0000
0000
0010
0000
,
0010
0000
0010
0000
,
0000
0000
0100
0000
,
0100
0000
0100
0000
,
0000
0000
0001
0000
,
0001
0000
0004
0000
,
0000
0000
0003
0000
2000
0000
0000
3000
,
0000
0000
0000
0000
2000
0000
0000
3000
,
0000
0000
0010
0000
,
0010
0000
0020
0030
,
0100
0000
0100
0000
,
0100
0000
0000
0000
,
0001
0000
0001
0000
,
0002
0000
0003
0000
,
2000
3000
0001
0001
,
1000
1000
0010
0010
,
1000
0000
1000
0000
,
0100
0000
0100
0000
,
0010
0000
0010
0000
,
0001
0000
0001
0000
,
2000
0000
0000
0000
,
3200
0000
0000
0000
,
0320
0000
0000
0000
,
0032
0000
0000
0000
,
1003
1000
1000
0000
,
0020
0000
0030
0000
,
0100
0100
0100
0000
,
0002
0000
0003
0000
,
1000
1000
1000
0000
,
0200
0000
0300
0000
,
0010
0000
0010
0000
,
0020
0000
0030
0000
,
0001
0001
0001
0000
,
2000
0000
3000
0000
,
0010
0010
0010
0000
,
0200
0000
0300
0000
,
0010
0010
0010
0000
,
2000
0000
3000
0000
,
0001
0000
0001
0000
,
0002
0000
0003
0000
,
1000
1000
1000
0000
,
0000
0020
0000
0030
,
4000
0000
0000
0000
,
0000
3000
0000
0000
,
0010
0000
0010
0000
,
0020
0000
0030
0000
,
0020
0000
0030
0000
,
1000
1000
0001
0000
,
0001
0000
0002
0000
,
0003
0000
0002
0000
,
0003
0000
0100
0100
,
0010
0000
0010
0000
,
0010
0000
0010
0000
,
1000
0000
1000
0000
,
0001
0000
0001
0000
0020
0000
0000
0030
,
0000
0000
0000
0000
0020
0000
0000
0030
,
0000
0000
0100
0000
,
0100
0000
0100
0000
,
0000
0000
1000
0000
,
1000
0000
1000
0000
,
0000
0000
0100
0000
,
0100
0000
0400
0000
,
0000
0000
0300
0000
0020
0000
0000
0030
,
0000
0000
0000
0000
0020
0000
0000
0030
,
0000
0000
0001
0000
,
0001
0000
0002
0003
,
1000
0000
1000
0000
,
1000
0000
0000
0000
,
0010
0000
0010
0000
,
0020
0000
0030
0000
,
2000
3000
0001
0001
,
0010
0010
0001
0001
,
1000
0000
1000
0000
,
0010
0000
0010
0000
,
0100
0000
0100
0000
,
0001
0000
0001
0000
,
2000
0000
0000
0000
,
3200
0000
0000
0000
,
0320
0000
0000
0000
,
0032
0000
0000
0000
,
1003
1000
1000
0000
,
0020
0000
0030
0000
,
0100
0100
0100
0000
,
0002
0000
0003
0000
,
1000
1000
1000
0000
,
0200
0000
0300
0000
,
1000
0000
1000
0000
,
2000
0000
3000
0000
,
0001
0001
0001
0000
,
0200
0000
0300
0000
,
0010
0010
0010
0000
,
2000
0000
3000
0000
,
0001
0001
0001
0000
,
2000
0000
3000
0000
,
0010
0000
0010
0000
,
0020
0000
0030
0000
,
1000
1000
0001
0001
,
0000
0000
2000
0000
,
3000
0000
1001
0000
;
