#TITLE:Nanairo Nadeshiko;
#SUBTITLE:;
#ARTIST:Sister x Sisters;
#TITLETRANSLIT:;
#SUBTITLETRANSLIT:;
#ARTISTTRANSLIT:;
#GENRE:Bubblegum J-Pop;
#CREDIT:Ace Of Hearts;
#BANNER:Nanairo Nadeshiko - bn.png;
#BACKGROUND:Nanairo Nadeshiko - bg.jpg;
#LYRICSPATH:;
#CDTITLE:Ace Of Hearts.png;
#MUSIC:Nanairo Nadeshiko.ogg;
#OFFSET:0.800;
#SAMPLESTART:53.580;
#SAMPLELENGTH:12.000;
#SELECTABLE:YES;
#BPMS:0.000=198.000;
#STOPS:;
#BGCHANGES:0.000=Nanairo Nadeshiko - bg.png=1.000=0=0=1=====,
2.667=Love Get Chu Opening.avi=1.000=0=0=1=====,
311.000=Nanairo Nadeshiko - Finish.png=1.000=1=0=0=StretchNoLoop==CrossFade==,
99999=-nosongbg-=1.000=0=0=0 // don't automatically add -songbackground-
;
#KEYSOUNDS:;

//---------------dance-single - Expert----------------
#NOTES:
     dance-single:
     Ace Of Hearts (2010):
     Challenge:
     9:
     0.903,0.365,0.220,0.785,1.000:
0000
0000
0000
0000
,
1020
0000
0000
0130
0000
0001
1000
0000
0001
0100
0000
0010
,
1000
0000
0001
0020
0000
0032
0000
0000
1003
0010
0000
0100
,
0001
0000
0100
0020
0000
1030
0000
0000
0100
1000
0000
0000
,
1001
0000
0001
0100
0000
0110
0000
0000
0010
1000
0000
0001
,
0100
0000
0010
0200
0000
0000
0301
0000
1000
0100
0000
0120
,
0000
0000
0031
1000
0000
0000
0002
0000
1003
0010
0000
0000
,
0120
0000
1030
0001
0000
1000
0000
0000
0010
0100
0000
0000
,
0101
0000
0001
1000
0000
1010
0000
0000
0010
0100
0000
0001
,
1000
0000
0010
1000
0000
0100
0000
0000
0010
0001
0000
2001
,
0000
0000
3100
0010
0000
0000
0001
0010
0100
1000
0000
0001
,
0200
0000
0310
1000
0000
0001
0020
0000
0130
0010
0000
0001
,
2000
0000
3010
0100
0000
0001
2000
0000
3100
0010
0000
0001
,
2000
0000
3010
0100
0000
0001
0010
0000
0001
1000
0000
0010
,
0000
0000
0100
0002
0000
0000
1003
0000
0100
0010
0000
0001
,
1000
0000
0010
0100
0000
0000
0001
0000
0000
0011
0000
0010
,
0100
0000
1000
0001
0000
0400
0000
0000
0310
1000
0000
0001
,
0010
0000
0001
1000
0000
0010
0100
0000
0010
1000
0000
1100
,
0000
0000
0100
0000
0000
0120
0000
0000
0031
1000
0000
0001
,
0100
0000
0010
1000
0000
0001
0010
0000
0100
2000
0000
3000
,
1010
0000
0010
0100
0000
0002
0000
0000
1003
0100
0000
1000
,
0002
0000
0103
0010
0000
0000
1000
0000
0001
0010
0000
0200
,
0000
0000
1300
0001
0000
0020
0000
0000
0031
1000
0000
0010
,
0100
0000
0001
2000
0000
0000
3010
0000
0000
0110
0000
0010
,
0100
0000
0001
2000
0000
3040
0000
0000
1030
0001
0000
0010
,
0100
0000
0010
0001
0000
1000
0010
0000
0100
0001
0000
0011
,
0000
0000
0010
0000
0000
0200
0000
0000
1300
0001
0000
1000
,
0200
0000
0310
0001
0000
0000
2000
0000
3010
0100
0000
0001
,
1000
0000
0100
0010
0000
0002
0000
0000
1003
0010
0000
0100
,
0001
0000
1000
0100
0000
0000
0020
0000
0130
1000
0000
0001
,
1000
0000
0001
0100
0000
0020
0000
0000
0130
0001
0000
1000
,
0100
0000
1000
0001
0000
0000
0201
0000
0000
0310
0000
0000
,
4010
0000
0000
3001
0000
0010
0000
0000
0001
1000
0000
0010
,
0200
0000
0301
1000
0000
0000
0002
0000
0103
0010
0000
1000
,
0002
0000
1003
0010
0000
0100
0001
0100
0010
1000
0000
0001
,
0020
0000
0130
1000
0000
0000
0002
0000
0000
0103
0000
0010
,
1000
0000
0001
0100
0000
0020
0000
0000
1030
0001
0000
0010
,
0100
0000
1000
0001
0000
0000
2000
0000
3010
0100
0000
0010
,
1000
0000
0001
0010
0000
0200
0000
0000
1300
0001
0000
0100
,
0020
0000
1030
0001
0000
0000
0200
0000
0301
1000
0000
0000
,
0040
0000
0000
2030
0000
3001
0000
0000
0010
0001
0000
1000
,
0020
0000
1030
0001
0000
0000
0020
0000
0130
1000
0000
0000
,
0002
0000
0103
0010
0000
2000
0000
0000
3100
1000
0000
0001
,
0100
0000
0010
2000
0000
0000
3001
0000
0100
0020
0000
0000
,
0130
0000
0001
2000
0000
3100
0010
0000
0001
0020
0000
0130
,
1000
0000
0100
0001
0000
0100
1000
0000
0100
0001
0000
0100
,
1000
0000
0100
0001
0000
0200
0000
0000
0310
0001
0000
1000
,
0010
0000
0001
0010
0000
1000
0010
0000
0001
0010
0000
1000
,
0010
0000
0001
0010
0000
2000
0000
0000
3001
0010
0000
0100
,
2000
0000
0000
3010
0000
0000
0100
0000
0001
1000
0000
0200
,
0000
0000
0310
0001
0000
0000
2000
0000
3001
0100
0000
0000
,
0020
0000
1030
0001
0000
0000
0010
0000
0100
0000
0000
2000
,
0000
0000
3001
0100
0000
0000
0020
0000
1030
0001
0000
1000
,
0100
0000
0001
0100
0000
1000
0010
0000
0001
0010
0000
1000
,
0100
0000
0001
0100
0000
2000
0000
0000
3001
0100
0000
0001
,
0010
0000
1000
0010
0000
0001
0100
0000
1000
0100
0000
0001
,
0010
0000
1000
0010
0000
0002
0000
0000
1003
0010
0000
0100
,
0002
0000
1003
0200
0000
0000
0310
0000
0001
2000
0000
0000
,
3010
0000
0100
0002
0000
0000
0013
0000
0100
1000
0000
0020
,
0000
0000
0130
0001
0000
1000
0100
0000
0010
0001
0000
1000
,
0010
0000
0100
0001
0000
1000
0020
0000
0130
0000
0000
0000
,
0010
0000
0010
0100
0000
0100
0001
0000
0001
1000
0000
1000
,
0100
0000
0100
0010
0000
0010
0100
0000
0100
1000
0000
1000
,
0001
0000
0001
0100
0000
0100
0010
0000
0010
1000
0000
1000
,
0001
0000
0001
0100
0000
0100
0001
0000
0001
1000
0000
0020
,
0000
0000
0000
0100
0000
0100
0000
0000
1000
0000
0000
0000
,
0001
0000
0000
0100
0000
0000
0000
0000
,
0000
0000
0000
0030
0000
0000
2000
0000
0000
0000
0000
0000
3001
0000
0000
0000
0100
0000
0001
0000
0000
0000
0020
0000
,
0000
0000
0130
1000
0000
0000
0002
0000
0103
0010
0000
0000
,
2010
0000
3001
0100
0000
0010
0000
0000
1000
0001
0000
0000
,
0011
0000
0010
0100
0000
1100
0000
0000
1000
0001
0000
0100
,
0010
0000
1000
0001
0000
0010
0000
0000
0001
1000
0000
1020
,
0000
0000
0130
0001
0000
0000
2000
0000
3100
0010
0000
0100
,
2000
0000
3001
0100
0000
0010
1000
0000
0001
0010
0000
0100
,
0010
0000
0001
1000
0000
0010
0100
0000
0001
1000
0000
0001
,
0000
0000
1000
0010
0000
0100
0001
0000
1000
0010
0000
1000
,
0001
0000
0010
0001
0000
0100
0000
0000
0001
1000
0000
0000
,
2002
0000
3003
0000
;

//---------------dance-single - Hard----------------
#NOTES:
     dance-single:
     Ace Of Hearts (2010):
     Hard:
     8:
     0.566,0.203,0.073,0.806,0.696: // measure 1
0000
0000
0000
0000
,  // measure 2
0002
0013
0001
1000
,  // measure 3
0010
0000
1000
0001
0000
0020
0000
0000
0031
1000
0000
0000
,  // measure 4
0002
0000
0000
0103
0000
0010
0000
0000
1000
0000
0000
0000
,  // measure 5
0001
0000
0000
0101
0000
0000
0000
0000
,  // measure 6
0000
0000
0000
0200
0000
0000
0301
0000
1000
0000
0000
0020
,  // measure 7
0000
0130
0002
2003
,  // measure 8
3000
0000
0000
0100
0000
0010
0000
0000
0001
0000
0000
0000
,  // measure 9
1000
0000
0000
1010
0000
0000
0000
0000
,  // measure 10
0000
0000
0000
0010
0000
1000
0000
0000
0001
0000
0000
2000
,  // measure 11
0000
0000
0000
3100
0000
0000
0020
0000
0000
0030
0000
0001
,  // measure 12
1000
0000
1000
0010
0000
0010
0100
0000
0000
0000
0000
0001
,  // measure 13
1000
0000
1000
0010
0000
0010
0100
0000
0000
0000
0000
0001
,  // measure 14
1000
0000
1000
0100
0000
0100
0010
0000
0000
0001
0000
2000
,  // measure 15
0000
0000
3001
0020
0000
0000
0000
0000
0000
0030
0000
0001
,  // measure 16
1000
0000
0000
0010
0000
0000
0100
0000
0000
0000
0000
0001
,  // measure 17
2000
0000
3100
0000
0000
0040
0000
0000
0000
0030
0000
0001
,  // measure 18
1000
0000
1000
0010
0000
0010
0100
0000
0000
0001
0000
1000
,  // measure 19
0000
0000
0010
0000
0000
0200
0000
0000
0000
0300
0000
0001
,  // measure 20
0100
0000
0100
0010
0000
0010
1000
0000
0000
0002
0000
0000
,  // measure 21
0013
0000
0000
0100
0000
2000
0000
0000
0000
3000
0000
0001
,  // measure 22
0010
0000
0000
0001
0000
0000
1000
0000
0010
0000
0000
1000
,  // measure 23
0000
0000
0400
0000
0000
0000
0300
0000
0000
0000
0000
0010
,  // measure 24
0001
0000
0000
2000
0000
0000
3010
0000
0000
0000
0000
1000
,  // measure 25
0001
0000
0020
0000
0000
0034
0000
0000
0003
0000
0000
1000
,  // measure 26
0010
0000
0010
0100
0000
0100
0001
0000
0001
1000
0000
0100
,  // measure 27
0000
0000
0010
0000
0000
0002
0000
0000
0000
0003
0000
0000
,  // measure 28
0000
0000
0000
1000
0000
0000
0020
0000
0000
0030
0000
1000
,  // measure 29
0001
0000
1000
0010
0000
0200
0000
0000
0000
0300
0000
0000
,  // measure 30
0000
0000
0000
0001
0000
0000
0010
0000
0000
0000
0000
0001
,  // measure 31
1000
0000
0001
0100
0000
0020
0000
0000
0000
0030
0000
1000
,  // measure 32
0002
0000
0023
0000
,  // measure 33
0430
0000
0000
0000
0000
0300
0000
0000
0000
0010
0000
0000
,  // measure 34
0002
0000
2003
0000
,  // measure 35
3200
0000
0320
0000
,  // measure 36
0031
0000
0000
1000
0000
0000
0020
0000
0000
0030
0000
1000
,  // measure 37
0001
0000
1000
0010
0000
0200
0000
0000
0000
0300
0000
0000
,  // measure 38
0000
0000
0000
0001
0000
0000
0020
0000
0000
0030
0000
0001
,  // measure 39
1000
0000
0010
1000
0000
0002
0000
0000
0000
0003
0000
0000
,  // measure 40
2000
0000
3020
0000
,  // measure 41
0430
0000
0000
0000
0300
0000
0000
0000
0000
0001
0000
0000
,  // measure 42
0020
0032
2003
3020
,  // measure 43
0130
0000
0001
0000
0000
2000
0000
0000
0000
0000
0000
0000
,  // measure 44
3000
1010
0000
0101
,  // measure 45
0000
0000
0000
0001
0000
0000
1001
0000
0000
2000
0000
3001
,  // measure 46
0010
0000
0010
0001
0000
0001
1000
0000
1000
0010
0000
0010
,  // measure 47
0100
0000
0100
0001
0000
2000
0000
0000
3200
0000
0000
0310
,  // measure 48
0001
0000
0001
1000
0000
1000
0010
0000
0010
1000
0000
1000
,  // measure 49
0001
0000
0001
0010
0000
0200
0000
0000
2300
0000
0000
0000
,  // measure 50
3000
0000
0000
0002
0000
0000
1003
0000
0020
0000
0000
2030
,  // measure 51
0000
3002
0023
0230
,  // measure 52
0300
0000
0000
2000
0000
0000
3001
0000
0200
0000
0000
0302
,  // measure 53
0000
0000
0000
2003
0000
0000
3010
0000
0200
0000
0000
0301
,  // measure 54
0100
0000
0100
0010
0000
0010
1000
0000
1000
0001
0000
0001
,  // measure 55
0010
0000
0010
0001
0000
2000
0000
0000
3020
0000
0000
1030
,  // measure 56
0010
0000
0010
0100
0000
0100
0001
0000
0001
1000
0000
1000
,  // measure 57
0100
0000
0100
0010
0000
0002
0000
0000
2003
0000
0000
0000
,  // measure 58
3000
0000
0000
0020
0000
0000
1030
0000
0002
0000
0000
0000
,  // measure 59
0003
0000
0000
0020
0000
0000
0130
0000
2000
0000
0000
3002
,  // measure 60
0000
0000
0003
2000
,  // measure 61
3100
0000
0010
0000
0000
0002
0000
0000
0000
0000
0000
0203
,  // measure 62
0000
0000
0001
0000
,  // measure 63
0010
0000
1000
0000
,  // measure 64
0302
0000
0000
0000
,  // measure 65
0000
0000
0000
0000
0000
0000
0003
0000
2000
0000
0000
0020
,  // measure 66
0000
0000
0000
0000
,  // measure 67
0000
0000
0000
0000
,  // measure 68
3030
0000
0000
0200
0000
0000
0301
0000
1000
0000
0000
0200
,  // measure 69
0000
0310
0002
2003
,  // measure 70
3000
0000
0000
0010
0000
1000
0000
0000
0001
0000
0000
0000
,  // measure 71
0010
0000
0000
0110
0000
0000
0000
0000
,  // measure 72
0000
0000
0000
0100
0000
1000
0000
0000
0001
0000
0000
0200
,  // measure 73
0000
0310
2000
3000
,  // measure 74
0001
0000
0000
0010
0000
0001
0000
0000
1000
0010
0000
1000
,  // measure 75
0001
0000
1000
0010
0000
0100
0000
0000
0001
1000
0000
0001
,  // measure 76
0100
0000
0001
1000
0000
0010
0000
0000
0100
0000
0000
0001
,  // measure 77
0000
0000
1000
0001
0000
0010
0000
0000
0001
1000
0000
0000
,  // measure 78
2002
0000
3003
0000
;

//---------------dance-single - Medium----------------
#NOTES:
     dance-single:
     Ace Of Hearts (2010):
     Medium:
     6:
     0.342,0.201,0.042,0.450,0.230:
0000
0000
0000
0000
,
0002
1003
0001
0100
,
0001
0000
0000
0000
0000
1000
0000
0000
0000
0000
0000
0000
,
0000
0000
0000
0000
0000
0010
0000
0000
0010
0000
0000
0000
,
0010
0000
0000
0000
0000
0010
0000
0000
0000
0000
0000
0000
,
0000
0000
0000
1000
0000
0000
0001
0000
0000
0000
0000
0020
,
0000
0230
2300
3002
,
0003
0000
0000
0000
0000
1000
0000
0000
1000
0000
0000
0000
,
1000
0000
0000
0000
0000
1000
0000
0000
0000
0000
0000
0000
,
0000
0000
0000
0000
0000
0001
0000
0000
0001
0000
0000
0002
,
0000
0000
0003
0000
,
1000
0010
0100
0000
,
0001
0100
0010
0000
,
1000
0000
0000
0001
0000
0000
0100
0000
0000
0000
0000
0002
,
0000
0003
0000
0000
,
1000
0010
1000
0000
,
0002
0000
0000
0000
0000
1003
0000
0000
0000
0000
0000
0000
,
0001
0000
0000
0010
0000
0000
0100
0000
0000
0000
0000
0010
,
0000
0000
0001
0000
0000
2000
0000
0000
3000
0000
0000
0000
,
0001
0100
0001
1000
,
0010
0000
0000
0000
0000
0200
0000
0000
0300
0000
0000
0000
,
0001
0000
0000
1000
0000
0000
0100
0000
0000
0000
0000
0020
,
0000
0030
0000
0000
,
0100
1000
0001
0000
,
2000
0000
0000
0000
0000
3010
0000
0000
0000
0000
0000
0000
,
1000
0000
0000
0001
0000
0000
0100
0000
0000
0000
0000
0010
,
0000
0000
1000
0000
0000
0002
0000
0000
0003
0000
0000
0000
,
0010
0001
1000
0000
,
0010
0000
0000
0000
0000
0200
0000
0000
0000
0300
0000
0000
,
0000
0001
1000
0000
,
0100
0000
0000
0000
0000
0020
0000
0000
0000
0030
0000
0000
,
0002
0000
0023
0000
,
0230
0000
0300
1000
,
0002
0000
2003
0000
,
3200
0000
0320
0000
,
0031
1000
0010
0000
,
0100
0000
0000
0000
0000
0002
0000
0000
0000
0003
0000
0000
,
0000
1000
0010
0000
,
1000
0000
0000
0000
0000
0002
0000
0000
0003
0000
0000
0000
,
2000
0000
3020
0000
,
0230
0000
0000
0000
0000
0300
0000
0000
0000
0001
0000
0000
,
0100
0010
1000
0001
,
1000
0000
0000
0000
0000
0020
0000
0000
0000
0030
0000
0000
,
0000
1001
0000
1001
,
0000
0001
0100
0001
,
1000
0100
1000
0001
,
0100
0000
0000
0000
0000
0002
0000
0000
0000
0003
0000
0000
,
1000
0010
1000
0001
,
0010
0000
0000
0000
0000
0200
0000
0000
0000
0300
0000
0000
,
0000
0010
0001
1000
,
0010
1000
0001
0010
,
0000
0100
0010
0001
,
1000
0010
1000
0000
,
0001
0100
0010
1000
,
0010
0000
0000
0000
0000
2000
0000
0000
0000
3000
0000
0000
,
0001
0010
0100
1000
,
0100
0000
0000
0000
0000
0020
0000
0000
0000
0030
0000
0000
,
0000
0001
1000
0000
,
0000
0000
0000
0010
0000
0000
1000
0000
0000
0000
0000
0002
,
0000
0000
0003
1000
,
0002
0000
0000
0000
0000
0000
0013
0000
0000
0000
0000
0220
,
0000
0000
0000
0000
,
0000
0000
0000
0000
,
0330
0000
0000
0000
,
0000
0000
0000
0000
0000
0000
0000
0000
2000
0000
0000
0002
,
0000
0000
0000
0000
,
0000
0000
0000
0000
,
3003
0000
0000
1000
0000
0000
0010
0000
0000
0000
0000
2000
,
0000
3020
2030
3002
,
0003
0000
0000
0000
0000
0010
0000
0000
0010
0000
0000
0000
,
0010
0000
0000
0000
0000
0010
0000
0000
0000
0000
0000
0000
,
0000
0000
0000
0000
0000
0001
0000
0000
0001
0000
0000
0002
,
0000
0000
0003
0000
,
1000
0010
1000
0001
,
0010
0000
0000
0000
0000
0001
0000
0000
0000
1000
0000
0000
,
0010
0100
0001
1000
,
0100
0000
0000
0000
0000
0010
0000
0000
0000
0001
0000
0000
,
1001
0000
0000
0000
;

//---------------dance-single - Easy----------------
#NOTES:
     dance-single:
     Ace Of Hearts (2010):
     Easy:
     3:
     0.212,0.161,0.042,0.293,0.000:
0000
0000
0000
0000
,
2002
0000
0000
0000
,
3003
0000
0000
0000
,
0000
0000
1000
0000
0000
1000
0000
0000
,
1000
0000
0000
1000
0000
0000
0000
0000
,
0000
0000
0000
0000
0010
0000
0000
0020
,
0000
0000
0030
0000
,
0000
0000
0100
0000
0000
0100
0000
0000
,
0100
0000
0000
0100
0000
0000
0000
0000
,
0000
0001
0000
0000
,
0010
0000
0020
0000
,
0031
0000
0001
0000
,
1000
0000
1000
0000
,
0010
0000
0010
0000
,
0020
0000
0030
0000
,
1000
0000
1000
0000
,
0001
0000
0001
0000
,
0010
0000
0010
0000
,
0020
0000
0030
0000
,
0001
0000
0001
0000
,
0002
0000
0003
0000
,
0010
0000
0010
0000
,
0020
0000
0030
0000
,
0100
0000
0100
0000
,
1000
0000
1000
0000
,
0001
0000
0001
0000
,
0002
0000
0003
0000
,
1000
0000
1000
0000
,
0020
0000
0030
0000
,
1000
0000
1000
0000
,
0002
0000
0003
0000
,
0010
0000
0010
0000
,
0010
0000
0000
0000
,
0100
0000
0100
0000
,
0200
0000
0300
0000
,
0010
0000
0010
0000
,
0002
0000
0003
0000
,
1000
0000
1000
0000
,
0020
0000
0030
0000
,
0100
0000
0100
0000
,
0100
0000
0000
0000
,
0001
0000
0001
0000
,
2002
0000
0000
0000
,
3003
0000
0000
0000
,
0000
0000
0000
0000
,
1000
1000
1000
0000
,
0020
0000
0030
0000
,
0100
0100
0100
0000
,
0002
0000
0003
0000
,
0000
0000
1000
0000
,
1000
0000
1000
0000
,
0000
0000
0100
0000
,
0100
0000
0100
0000
,
0010
0010
0010
0000
,
0002
0000
0003
0000
,
1000
1000
1000
0000
,
0020
0000
0030
0000
,
0000
0000
1000
0000
,
0000
0000
0001
0000
,
0002
0000
0003
0000
,
0010
0000
0010
0000
,
0020
0000
0000
0000
,
0000
0000
0000
0000
,
0030
0000
0000
0000
,
0000
0000
0000
0000
,
2002
0000
0000
0000
,
0000
0000
0000
0000
,
3003
0000
0000
0000
1000
0000
0000
2000
,
0000
0000
3000
0000
,
0000
0000
0010
0000
0000
0010
0000
0000
,
0010
0000
0000
0010
0000
0000
0000
0000
,
0000
0000
1000
0000
0000
1000
0000
0000
,
2000
0000
3000
0000
,
0001
0000
0001
0000
,
0002
0000
0003
0000
,
1000
0000
1000
0000
,
2000
0000
3000
0000
,
1001
0000
0000
0000
;

//---------------dance-single - Novice----------------
#NOTES:
     dance-single:
     Ace Of Hearts (2010):
     Beginner:
     1:
     0.123,0.161,0.021,0.209,0.000:
0000
0000
0000
0000
,
2002
0000
0000
0000
,
3003
0000
0000
0000
,
0000
0002
0000
0000
,
0003
0000
0000
0000
,
0000
0000
0020
0000
,
0030
0000
0000
0000
,
0000
0002
0000
0000
,
0003
0000
0000
0000
,
0000
2000
0000
0000
,
3000
0000
0000
0000
,
0010
0000
0000
0000
,
0010
0000
0000
0000
,
2000
0000
0000
0000
,
3000
0000
0000
0000
,
0001
0000
0000
0000
,
0001
0000
0000
0000
,
0020
0000
0000
0000
,
0030
0000
0000
0000
,
0001
0000
0000
0000
,
0001
0000
0000
0000
,
2000
0000
0000
0000
,
3000
0000
0000
0000
,
0010
0000
0000
0000
,
0010
0000
0000
0000
,
0200
0000
0000
0000
,
0300
0000
0000
0000
,
0001
0000
0000
0000
,
0001
0000
0000
0000
,
1000
0000
0000
0000
,
1000
0000
0000
0000
,
0200
0000
0000
0000
,
0300
0000
0000
0000
,
0020
0000
0000
0000
,
0030
0000
0000
0000
,
0001
0000
0000
0000
,
0001
0000
0000
0000
,
1000
0000
0000
0000
,
1000
0000
0000
0000
,
0020
0000
0000
0000
,
0030
0000
0000
0000
,
0200
0000
0000
0000
,
0300
0000
0000
0000
,
0002
0000
0000
0000
,
0000
0000
0003
0000
,
1000
0000
1000
0000
,
1000
0000
0000
0000
,
0010
0000
0010
0000
,
0010
0000
0000
0000
,
0100
0000
0000
0000
,
0100
0000
0000
0000
,
0001
0000
0000
0000
,
0001
0000
0000
0000
,
1000
0000
1000
0000
,
1000
0000
0000
0000
,
0100
0000
0100
0000
,
0100
0000
0000
0000
,
0010
0000
0000
0000
,
0010
0000
0000
0000
,
0001
0000
0000
0000
,
0001
0000
0000
0000
,
2000
0000
0000
0000
,
0000
0000
0000
0000
,
3000
0000
0000
0000
,
0000
0000
0000
0000
,
0020
0000
0000
0000
,
0000
0000
0000
0000
,
0030
0000
2000
0000
,
3000
0000
0000
0000
,
0000
0002
0000
0000
,
0003
0000
0000
0000
,
0000
0020
0000
0000
,
0030
0000
0000
0000
,
0001
0000
0000
0000
,
0001
0000
0000
0000
,
1000
0000
0000
0000
,
1000
0000
0000
0000
,
1001
0000
0000
0000
;
