#TITLE:Mr. Raindrop;
#SUBTITLE:;
#ARTIST:Amplified;
#TITLETRANSLIT:;
#SUBTITLETRANSLIT:;
#ARTISTTRANSLIT:;
#GENRE:;
#CREDIT:Ace Of Hearts;
#BANNER:Mr. Raindrop - bn.png;
#BACKGROUND:Mr. Raindrop - bg.png;
#LYRICSPATH:;
#CDTITLE:Ace Of Hearts.png;
#MUSIC:Mr. Raindrop.ogg;
#OFFSET:1.039;
#SAMPLESTART:33.200;
#SAMPLELENGTH:14.000;
#SELECTABLE:YES;
#BPMS:0.000=134.800;
#STOPS:;
#BGCHANGES:;
#FGCHANGES:;
#KEYSOUNDS:;

//---------------dance-single - Hard----------------
#NOTES:
     dance-single:
     Ace Of Hearts (2010):
     Hard:
     7:
     0.481,0.000,0.037,0.868,0.621:
0000
0000
0000
0000
,
0000
0000
0000
0000
,
0000
0000
0000
0000
,
0000
0000
0000
0001
0000
1000
0200
0000
0310
0000
0000
0000
,
0002
0000
1003
0010
0000
2000
0000
0000
3001
0100
0000
0010
,
0000
0000
0000
0100
0000
0001
1000
0000
0020
0000
0000
0130
,
0000
0000
0000
0010
0000
1000
0001
0000
0020
0000
0000
0130
,
0000
0000
0000
0020
0000
0031
2000
0000
3010
0000
0000
0000
,
2000
0000
3100
0010
0000
0002
0000
0003
1000
0010
0000
0100
,
0000
0000
0000
0020
0000
1030
0001
0000
0020
0000
0000
0130
,
0000
0000
0000
2000
0000
3001
0040
0000
0000
0000
0000
0000
,
0030
0000
0000
0002
0000
1003
0020
0000
0130
0000
0000
0000
,
0020
0000
1030
0001
0000
0200
0000
0000
0301
1000
0000
0100
,
0000
0000
0000
0020
0000
0130
2000
0000
3001
0100
0000
0000
,
0002
0000
0000
1003
0000
0100
0020
0000
0130
1000
0000
0000
,
0002
0000
0000
0203
0000
0301
2000
0000
3100
0000
0000
0000
,
0020
0000
0130
1000
0000
0002
0000
0000
1003
0010
0000
0100
,
0000
0000
0000
0020
0000
1030
0001
0000
1000
0100
0000
0000
,
0020
0000
0000
0130
0000
1000
0004
0000
0000
0000
0000
0000
,
0003
0000
0000
0000
0000
1000
0010
0000
0100
0000
0000
0020
,
0000
0000
1030
0000
0000
0001
0020
0000
0000
0130
0000
1000
,
0000
0000
0000
0002
0000
0103
0000
0000
0020
0000
0000
0200
,
0000
0000
0000
0000
,
0330
0000
0000
0000
0000
0010
1000
0000
0001
0000
0000
0020
,
0000
0000
0230
0000
0000
2300
0000
0000
3002
0000
0000
0103
,
0000
0000
0000
0020
0000
0130
0000
0000
0002
0000
0000
2000
,
0000
0000
0000
0000
,
3003
0000
1100
0011
,
0002
0000
0000
1003
0000
0010
1000
0000
0010
0100
0000
0020
,
0000
0000
0130
0001
0000
0000
2000
0000
0000
3200
0000
0000
,
0320
0000
0000
0230
0000
1300
0001
0000
1000
0100
0000
0020
,
0000
0000
0000
0230
0000
0000
2300
0000
3001
0100
0000
0000
,
0020
0000
0000
2030
0000
3001
0100
0000
0001
1000
0000
0020
,
0000
0000
1030
0001
0000
0001
1000
0000
1000
0010
0000
0010
,
0200
0000
0000
0000
,
0000
0300
0004
0000
,
2003
0000
0000
3200
0000
0310
0001
0000
0001
1000
0000
1000
,
0010
0000
0010
0100
0000
0100
0001
0000
0001
1000
0000
1000
,
0020
0000
0000
0230
0000
0301
1000
0000
1000
0100
0000
0020
,
0000
0000
0000
0032
0000
0000
2003
0000
3010
0100
0000
0100
,
0002
0000
0000
0203
0000
0310
1000
0000
1000
0001
0000
0001
,
0010
0000
0010
0001
0000
0001
1000
0000
1000
0001
0000
0001
,
0200
0000
0000
0000
,
0000
0300
0040
0000
,
0030
0000
0000
0000
0000
1000
0001
0000
0100
0000
0000
0020
,
0000
0000
1030
0000
0000
0001
0020
0000
0000
0130
0000
1000
,
0000
0000
0000
0001
0000
0100
0000
0000
0020
0000
0000
0200
,
0000
0000
0000
0000
,
0330
0000
0000
0000
0000
0100
0001
0000
0100
0000
0000
0020
,
0000
0000
2030
0000
0000
3002
0000
0000
2003
0000
0000
3100
,
0000
0000
0000
0020
0000
0130
0000
0000
2000
0000
0000
0002
,
0000
0000
0000
0000
,
3003
0000
0101
1010
,
2000
0000
0000
3001
0000
0010
0200
0000
1300
0000
0000
0000
,
0002
0000
0103
0010
0000
0200
0000
0000
0301
2000
0000
3100
,
0000
0000
0000
2000
0000
3001
0100
0000
0001
1000
0000
0000
,
0200
0000
0000
0320
0000
0031
1000
0000
0001
0020
0000
0000
,
0230
0000
0000
0320
0000
0031
2000
0000
3010
0000
0000
0000
,
0200
0000
0310
1000
0000
0002
0000
0000
1003
0010
0000
1000
,
0004
0000
0000
0000
,
2003
0000
3010
0100
0000
0020
0000
0000
1030
0002
0000
2000
,
0003
0000
0000
3020
0000
1030
0002
0000
0013
0000
0000
0000
,
0002
0000
1003
0010
0000
0200
0000
0000
0310
1000
0000
0002
,
0000
0000
0000
1003
0000
0100
0000
0000
0010
0000
0000
0001
,
2000
0000
3001
0100
0000
0020
0000
0000
1030
0002
0000
2000
,
0003
0000
0000
3020
0000
1030
0002
0000
0103
0000
0000
0000
,
0020
0000
1030
0001
0000
0200
0000
0000
0301
1000
0000
0200
,
0000
0300
0000
0010
0000
0001
0000
0000
0010
0000
0000
0100
,
2000
0000
3001
0100
0000
0002
0000
0000
1003
0020
0000
0200
,
0030
0000
0000
0302
0000
1003
0200
0000
0310
0000
0000
0000
,
0002
0000
0013
0100
0000
2000
0000
0000
3001
0100
0000
0010
,
0000
0000
0000
0100
0000
0001
0000
0000
1000
0000
0000
0010
,
0200
0000
0310
1000
0000
0002
0000
0000
1003
0200
0000
0020
,
0300
0000
0000
0032
0000
1003
0020
0000
0130
0000
0000
0000
,
0002
0000
1003
0100
0000
0020
0000
0000
0130
1000
0000
0002
,
0000
0000
0000
1003
0000
0010
0000
0000
0100
0000
0000
0001
,
2000
0000
3001
0010
0000
0200
0000
0000
0310
0002
0000
2000
,
0000
0000
0000
0000
,
0000
3003
0110
1001
,
0002
0000
0000
0013
0000
0001
1000
0000
0001
1000
0000
0000
,
0020
0000
0000
0230
0000
0310
1000
0000
0010
1000
0000
0000
,
0002
0000
0000
0023
0000
0130
1000
0000
0100
1000
0000
0000
,
0002
0000
0000
1003
0000
0001
0010
0000
0001
0010
0000
0000
,
0200
0000
0000
0320
0000
0130
1000
0000
0100
1000
0000
0000
,
0002
0000
0000
0203
0000
0310
4000
0000
0000
0000
0000
0000
,
3002
0000
0000
0023
0000
0031
1000
0000
0010
1000
0000
0001
,
0200
0000
0000
0000
,
0300
0000
0000
0000
;

//---------------dance-single - Expert----------------
#NOTES:
     dance-single:
     Ace Of Hearts (2010):
     Challenge:
     9:
     0.646,0.000,0.162,1.000,0.877:
0000
0000
0000
0000
,
0000
0000
0000
0000
,
0000
0000
0000
0000
,
0000
0000
0000
2000
0000
3010
0200
0000
0301
0000
0000
0000
,
2000
0000
3100
0010
0000
0002
0000
0000
1003
0010
0000
0100
,
0000
0000
0000
0002
0000
1003
0200
0000
0310
0200
0000
1300
,
0002
0000
0000
0203
0000
0310
2000
0000
3001
0020
0000
0031
,
2000
0000
0000
3020
0000
1030
0002
0000
0013
0000
0000
0000
,
0200
0000
1300
0001
0000
0200
0000
0000
0310
1000
0000
0002
,
0000
0000
0000
0203
0000
0310
2000
0000
3001
0200
0000
0301
,
2000
0000
0000
3020
0000
1030
0001
0100
0001
1000
0010
1000
,
2002
0000
3000
0203
0000
0310
2000
0000
3100
0000
0000
0000
,
0120
0000
0031
1000
0000
0020
0000
0000
0130
0001
0000
2000
,
0000
0000
3000
0020
0000
0130
0001
0000
1000
0100
0000
1000
,
0002
0000
0000
2003
0000
3010
0100
0000
0010
1000
0000
0001
,
0020
0000
0000
0230
0000
1300
0002
0000
0103
0000
0000
0000
,
0120
0000
1030
0001
0000
0200
0000
0000
0301
0010
0000
0200
,
0000
0000
0000
1300
0000
0001
0100
0000
0010
0100
0000
0001
,
2000
0000
0000
3010
0000
0100
0001
1000
0100
0010
0100
1000
,
2002
0000
0000
3003
0000
0001
0010
0000
0100
1000
0000
1002
,
0000
0000
0103
0000
0000
0010
1000
0000
0001
0010
0000
0100
,
0000
0000
0010
0002
0000
1003
0000
0000
0010
0000
0000
2000
,
0001
0000
0010
0000
0000
3001
0100
0010
0100
0001
1000
0100
,
0220
0000
0000
0330
0000
0010
0001
0000
1000
0100
0000
0020
,
0000
0000
0031
1000
0000
0200
0000
0000
0310
0100
0000
1100
,
0000
0000
1000
0001
0000
0100
0000
0000
0001
0000
0000
0020
,
0100
0000
0001
0000
0000
0100
0000
0000
0001
0000
0000
0130
,
2000
0000
3001
0020
0000
0130
0220
0000
0330
2002
0000
3003
,
0022
0003
0130
1000
0000
1000
0001
0000
0001
0100
0000
0100
,
0010
0000
0010
1000
0000
1000
0100
0000
0100
0010
0000
0010
,
0001
0000
0001
1000
0000
1000
0001
0000
0001
0100
0000
0020
,
0000
0000
0000
2030
0000
0000
3002
0000
0013
0100
0000
0100
,
1000
0000
1000
0001
0000
0001
0100
0000
0100
0010
0000
0010
,
0001
0000
0001
0010
0000
0010
1000
0000
1000
0001
0000
0001
,
0200
0000
0000
0300
,
0002
0000
0000
2003
0000
0000
3100
0010
0001
1000
0010
0100
,
0002
0000
1003
0010
0000
0010
0100
0000
0100
0010
0000
0010
,
0001
0000
0001
0010
0000
0010
1000
0000
1000
0100
0000
0100
,
0010
0000
0010
0100
0000
0100
1000
0000
1000
0001
0000
0020
,
0000
0000
0000
0032
0000
0000
2003
0000
3010
0100
0000
0100
,
0001
0000
0001
1000
0000
1000
0100
0000
0100
0010
0000
0010
,
0100
0000
0100
1000
0000
1000
0001
0000
0001
0010
0000
0010
,
0200
0000
0000
0300
,
0020
0000
0000
0032
0000
0000
1003
0010
1000
0001
0100
0010
,
2020
0000
0000
3030
0000
0010
0100
0000
0001
1000
0000
0200
,
0000
0000
0310
0000
0000
0001
2000
0000
3010
0100
0000
0001
,
0000
0000
0010
0100
0000
2000
0000
0000
3010
0000
0000
0200
,
0001
0000
0010
0000
0000
0301
1000
0100
0010
0001
1000
0010
,
0220
0000
0000
0330
0000
0100
0001
0000
1000
0100
0000
0020
,
0000
0000
0130
1000
0000
0002
0000
0000
0103
0010
0000
1010
,
0000
0000
1000
0001
0000
0010
0000
0000
0200
0000
0000
2300
,
0001
0000
0010
0000
0000
0100
0000
0000
0010
0000
0000
3001
,
0020
0000
0031
2000
0000
3100
0220
0000
0330
0022
0000
0033
,
0202
0000
0003
0320
0000
1030
0002
0000
0013
0000
0000
0000
,
0200
0000
1300
0001
0000
0200
0000
0000
0310
1000
0000
0002
,
0000
0003
0000
0020
0000
0130
1000
0000
0001
0010
0000
0001
,
2000
0000
0000
3020
0000
0130
0001
0000
1000
0010
0000
0100
,
0002
0000
0000
0023
0000
0130
2000
0000
3010
0000
0000
0000
,
0200
0000
0301
1000
0000
0200
0000
0000
0310
0001
0000
1000
,
0001
0010
0001
1000
0100
1000
0001
0100
0001
1000
0010
1000
,
0001
0010
0100
0010
0001
1000
0100
0010
0100
1000
0001
0200
,
0020
0000
0300
2030
0000
3001
0200
0000
0310
0000
0000
0000
,
2000
0000
3001
0010
0000
0200
0000
0000
0310
0002
0000
0200
,
0000
0000
0000
0010
0000
1000
0000
0000
0010
0003
0000
0310
,
2000
0000
3001
0100
0000
0020
0000
0000
1030
0002
0000
0200
,
0003
0000
0000
0320
0000
1030
0002
0000
0013
0000
0000
0000
,
0200
0000
1300
0001
0000
0200
0000
0000
0310
2000
0000
0200
,
0000
0000
0000
0010
0000
0001
0000
0000
0010
3000
0000
0310
,
0002
0000
1003
0010
0000
1000
0001
0010
0100
1000
0100
0020
,
0002
0030
0000
2003
0000
3010
0200
0000
0301
0000
0000
0000
,
2000
0000
3100
0010
0000
0002
0000
0000
1003
0020
0000
0200
,
0000
0000
0000
1000
0000
0001
0000
0000
1000
0030
0000
0301
,
2000
0000
3100
0010
0000
0002
0000
0000
1003
0020
0000
0200
,
0030
0000
0000
0302
0000
0013
0200
0000
1300
0000
0000
0000
,
0020
0000
0130
0001
0000
0020
0000
0000
0031
2000
0000
0002
,
0000
0000
0000
0010
0000
0100
0000
0000
0010
3000
0000
0013
,
0200
0000
1300
0001
0000
0100
0010
1000
0001
0010
0100
2002
,
0000
0000
0000
0000
,
0000
0000
0000
0000
0000
3003
2020
0000
3030
0202
0000
0303
,
0022
0000
0030
2003
0000
3010
0100
0000
0001
1000
0000
0100
,
0020
0000
0000
0031
0000
1000
2020
0000
3030
0202
0000
0303
,
2002
0000
0003
3020
0000
0130
0001
0000
1000
0100
0000
0010
,
0002
0000
0000
2003
0000
3010
0220
0000
0330
0202
0000
0303
,
0022
0000
0003
0230
0000
1300
0001
0000
0100
0010
0000
1000
,
0002
0000
0000
0203
0000
0310
1000
0001
0010
0100
1000
0001
,
0200
0000
0000
0310
0000
1000
0002
0000
0013
0001
0000
0100
,
0200
0000
0000
0000
,
0300
0000
0000
0000
;

//---------------dance-single - Medium----------------
#NOTES:
     dance-single:
     Ace Of Hearts (2010):
     Medium:
     5:
     0.409,0.000,0.025,1.000,0.250:
0000
0000
0000
0000
,
0000
0000
0000
0000
,
0000
0000
0000
0000
,
0000
0000
0000
0002
0000
0000
1003
0000
0010
0000
0000
0000
,
2000
0000
0000
3001
0000
0100
0000
0000
0000
0001
0000
1000
,
0000
0020
0230
0302
,
1003
0020
0230
0302
,
1003
0000
0000
0020
0000
0000
0130
0000
0001
0000
0000
0000
,
2000
0000
0000
3100
0000
0010
0000
0000
0000
0001
0000
1000
,
0000
0020
0230
0302
,
1003
0020
4030
0000
,
3000
0000
0000
0002
0000
0000
0103
0000
0010
0000
0000
0000
,
2000
0000
0000
3001
0000
0010
0000
0000
0000
0001
0000
1000
,
0000
0020
2030
3002
,
0203
0320
0230
0302
,
2003
0000
0000
3002
0000
0000
1003
0000
0100
0000
0000
0000
,
0020
0000
0000
0130
0000
1000
0000
0000
0000
0001
0000
0100
,
0000
0020
0230
0302
,
2003
3200
0340
0000
,
0030
0000
0000
0000
0000
0000
0001
0000
1000
0000
0000
0020
,
0000
0000
1030
0000
0000
0001
0200
0000
0000
0301
0000
1000
,
0000
0000
0000
0001
0000
0010
0000
0000
0001
0000
0000
2000
,
0000
0000
0000
0000
,
3000
0000
0000
0000
0000
0000
0001
0000
1000
0000
0000
0002
,
0000
0000
0023
0000
0000
0230
0000
0000
2300
0000
0000
3001
,
0000
0000
0000
1000
0000
0010
0000
0000
1000
0000
0000
0002
,
0000
0000
0000
0000
,
0003
0000
2000
3020
,
0230
0302
2003
3200
,
0320
0230
2300
3002
,
0023
0000
0000
0032
0000
0000
2003
0000
0000
3200
0000
0320
,
0000
0230
2300
3002
,
0023
0032
2003
3200
,
0320
0032
2003
3020
,
0230
0000
0000
0000
,
0300
0000
0040
0000
,
2030
3002
0203
0302
,
2003
3200
0320
0032
,
2003
0000
0000
3002
0000
0000
2003
0000
0000
3200
0000
0320
,
0000
0230
2300
3002
,
0203
0320
2030
3002
,
0203
0320
2030
3002
,
0203
0000
0000
0000
,
0300
0000
0004
0000
,
0003
0000
0000
0000
0000
0000
1000
0000
0010
0000
0000
2000
,
0000
0000
3001
0000
0000
1000
0200
0000
0000
1300
0000
0001
,
0000
0000
0000
0010
0000
0100
0000
0000
1000
0000
0000
0002
,
0000
0000
0000
0000
,
0003
0000
0000
0000
0000
0000
1000
0000
0001
0000
0000
2000
,
0000
0000
3020
0000
0000
0230
0000
0000
0302
0000
0000
1003
,
0000
0000
0000
0001
0000
1000
0000
0000
0010
0000
0000
0200
,
0000
0000
0000
0000
,
0300
0000
0002
2003
,
3200
0000
0000
0320
0000
0000
0031
0000
1000
0000
0000
0000
,
0020
0000
0000
1030
0000
0001
0000
0000
0000
1000
0000
0100
,
0000
0020
0032
2003
,
3020
0230
0302
2003
,
3002
0000
0000
0023
0000
0000
0130
0000
1000
0000
0000
0000
,
0002
0000
0000
1003
0000
0010
0000
0000
0000
1000
0000
0004
,
0000
0000
0000
0003
,
2000
0000
0000
3001
0000
0020
0000
0000
0000
0031
0000
2000
,
0000
0000
0000
3020
0000
0000
0130
0000
0001
0000
0000
0000
,
2000
0000
0000
3001
0000
0010
0000
0000
0000
0001
0000
1000
,
0000
2020
0000
3030
,
0020
0000
0000
0130
0000
0001
0000
0000
0000
1000
0000
0100
,
0000
0000
0000
0020
0000
0000
0031
0000
1000
0000
0000
0000
,
0002
0000
0000
1003
0000
0010
0000
0000
0000
1000
0000
0001
,
0000
0202
0000
0303
,
0002
0000
0000
1003
0000
0010
0000
0000
0000
1000
0000
0002
,
0000
0000
0000
0023
0000
0000
0130
0000
1000
0000
0000
0000
,
0002
0000
0000
1003
0000
0010
0000
0000
0000
1000
0000
0001
,
0000
0022
0000
0033
,
0020
0000
0000
0130
0000
1000
0000
0000
0000
0001
0000
0200
,
0000
0000
0000
0320
0000
0000
1030
0000
0001
0000
0000
0000
,
0020
0000
0000
0031
0000
0010
0000
0000
0000
0001
0000
1000
,
0000
2200
0000
3300
,
0200
0000
1300
0001
0000
0200
0000
0000
0301
2000
0000
0002
,
0000
0000
0000
0000
,
0000
3003
2000
3200
,
0320
0032
2003
3020
,
0230
0302
2003
3200
,
0320
0230
2300
3002
,
0203
0320
2030
3002
,
0023
0032
2003
3020
,
2030
3002
0203
0320
,
2030
0000
0000
3002
0000
1003
0010
0000
1000
0002
0000
0000
,
0203
0000
0000
0000
,
0300
0000
0000
0000
;

//---------------dance-single - Easy----------------
#NOTES:
     dance-single:
     Ace Of Hearts (2010):
     Easy:
     3:
     0.224,0.000,0.006,0.337,0.000:
0000
0000
0000
0000
,
0000
0000
0000
0000
,
0000
0000
0000
0000
,
0000
1000
1000
0000
,
0010
0010
0010
0000
,
0010
0100
0100
0000
,
0001
1000
1000
0000
,
0001
0010
0010
0000
,
0100
0100
0100
0000
,
0100
1000
1000
0000
,
0001
0100
0400
0000
,
0320
1030
1000
0000
,
0001
0001
0001
0000
,
0001
0010
0010
0000
,
0100
1000
1000
0000
,
0001
0100
0100
0000
,
0001
0001
0001
0000
,
0100
0010
0010
0000
,
1000
0001
0004
0000
,
0003
0000
2000
0000
,
3010
0010
0100
0100
,
0100
0000
0001
0000
,
0002
0000
0000
0000
,
0003
0000
2000
0000
,
3001
0001
0100
0100
,
0001
0000
1000
0000
,
2000
0000
0000
0000
,
3000
0000
0001
0001
,
0002
0000
0203
0000
,
0320
0000
2030
0000
,
3002
0000
0203
0000
,
0320
0000
0230
0000
,
0302
0000
2003
0000
,
3200
0000
0320
0000
,
0032
0000
0000
0000
,
0003
0000
4000
0000
,
3020
0000
0230
0000
,
0302
0000
2003
0000
,
3200
0000
0320
0000
,
0032
0000
2003
0000
,
3020
0000
2030
0000
,
3002
0000
0023
0000
,
0230
0000
0000
0000
,
0300
0000
4000
0000
,
3000
0000
0002
0000
,
1003
1000
1000
0010
,
0010
0000
0100
0000
,
0200
0000
0000
0000
,
0300
0000
0010
0000
,
1000
1000
0001
0001
,
0100
0000
0010
0000
,
0020
0000
0000
0000
,
0030
0000
1000
1000
,
1000
0010
0010
0000
,
1000
1000
1000
0000
,
1000
0100
0100
0000
,
0010
0100
0100
0000
,
1000
0001
0001
0000
,
0100
0100
0100
0000
,
0400
0000
0000
0300
,
0001
0001
0001
0000
,
0002
1003
1000
0000
,
0010
0010
0010
0000
,
0010
2000
0000
3000
,
0001
0010
0010
0000
,
0001
1000
1000
0000
,
0100
0100
0100
0000
,
0100
0020
0000
0030
,
0001
0001
0001
0000
,
0001
0100
0100
0000
,
0010
0010
0010
0000
,
0010
2000
0000
3000
,
0010
0010
0010
0000
,
0010
0100
0100
0000
,
0001
0001
0001
0000
,
0001
0200
0000
0300
,
0001
1000
0001
0000
,
2002
0000
0000
0000
,
3003
0000
1000
1000
,
2000
0000
3020
0000
,
0230
0000
0302
0000
,
2003
0000
3200
0000
,
0320
0000
0032
0000
,
2003
0000
3020
0000
,
0230
0000
0302
0000
,
0003
1000
0010
1000
,
0200
0000
0000
0000
,
0300
0000
0000
0000
;

//---------------dance-single - Novice----------------
#NOTES:
     dance-single:
     Ace Of Hearts (2010):
     Beginner:
     1:
     0.131,0.000,0.006,0.268,0.000:
0000
0000
0000
0000
,
0000
0000
0000
0000
,
0000
0000
0000
0000
,
0000
0002
0003
0000
,
1000
0000
1000
0000
,
1000
0000
0000
0000
,
0000
0000
0000
0000
,
0000
0020
0030
0000
,
0100
0000
0100
0000
,
0100
0000
0000
0000
,
0000
0000
0002
0000
,
0003
2000
3000
0000
,
0100
0000
0100
0000
,
0100
0000
0000
0000
,
0200
0000
0300
0000
,
0000
0020
0030
0000
,
0001
0000
0001
0000
,
0001
0000
0000
0000
,
2000
0000
3000
0000
,
0000
0000
0010
0000
,
0010
0000
0010
0000
,
0010
0000
1000
0000
,
2000
0000
0000
0000
,
3000
0000
0001
0000
,
0001
0000
0001
0000
,
0001
0000
0010
0000
,
0020
0000
0000
0000
,
0030
0000
0000
0000
,
0002
0000
0000
0000
,
2003
0000
0000
0000
,
3020
0000
0000
0000
,
0230
0000
0000
0000
,
0302
0000
0000
0000
,
2003
0000
0000
0000
,
3200
0000
0000
0000
,
0300
0000
0000
0000
,
0020
0000
0000
0000
,
0032
0000
0000
0000
,
2003
0000
0000
0000
,
3020
0000
0000
0000
,
2030
0000
0000
0000
,
3002
0000
0000
0000
,
0203
0000
0000
0000
,
0300
0000
0020
0000
,
0030
0000
1000
0000
,
1000
0000
1000
0000
,
1000
0000
0010
0000
,
0020
0000
0000
0000
,
0030
0000
1000
0000
,
1000
0000
1000
0000
,
1000
0000
0010
0000
,
0020
0000
0000
0000
,
0030
0000
0000
0000
,
0000
2000
3000
0000
,
0001
0000
0001
0000
,
0001
0000
0000
0000
,
0200
0000
0300
0000
,
0000
0020
0030
0000
,
1000
0000
1000
0000
,
2000
0000
0000
0000
,
3001
0000
0001
0000
,
0002
0000
0003
0000
,
0100
0000
0100
0000
,
0100
0000
0000
0000
,
0010
0000
0010
0000
,
0020
0000
0030
0000
,
1000
0000
1000
0000
,
1000
0000
0000
0000
,
0001
0000
0001
0000
,
0002
0000
0003
0000
,
0010
0000
0010
0000
,
0010
0000
0000
0000
,
0100
0000
0100
0000
,
0200
0000
0300
0000
,
1000
0000
1000
0000
,
1000
0000
0000
0000
,
0001
0000
1000
0000
,
2002
0000
0000
0000
,
3003
0000
0000
0000
,
0002
0000
0000
0000
,
2003
0000
0000
0000
,
3200
0000
0000
0000
,
0320
0000
0000
0000
,
0230
0000
0000
0000
,
2300
0000
0000
0000
,
3001
0000
1000
0000
,
0200
0000
0000
0000
,
0300
0000
0000
0000
;
