#TITLE:Love Fighter;
#SUBTITLE:;
#ARTIST:Brandy;
#TITLETRANSLIT:;
#SUBTITLETRANSLIT:;
#ARTISTTRANSLIT:;
#GENRE:J-Pop;
#CREDIT:Ace Of Hearts;
#BANNER:Love Fighter - bn.PNG;
#BACKGROUND:Love Fighter - bg.jpg;
#LYRICSPATH:;
#CDTITLE:Ace Of Hearts.png;
#MUSIC:Love Fighter.ogg;
#OFFSET:1.850;
#SAMPLESTART:63.380;
#SAMPLELENGTH:12.000;
#SELECTABLE:YES;
#BPMS:0.000=125.000;
#STOPS:;
#BGCHANGES:;
#KEYSOUNDS:;

//---------------dance-single - Hard----------------
#NOTES:
     dance-single:
     Ace Of Hearts (2010):
     Hard:
     9:
     0.587,0.000,0.231,0.497,0.609: // measure 1
0000
0000
0000
0000
,  // measure 2
0000
0000
0000
0000
,  // measure 3
0000
0000
0000
0000
,  // measure 4
1010
0000
0000
0101
0000
0000
1001
0000
,  // measure 5
0011
0000
0000
1100
0000
0110
0000
0000
,  // measure 6
0011
0000
0000
1100
0000
1000
0100
0010
,  // measure 7
0011
0000
0000
1001
0000
1000
0100
0010
,  // measure 8
0002
0000
1003
0000
0010
0000
1000
0000
0001
0010
0100
1000
0000
0000
0001
0000
,  // measure 9
1000
0010
0000
1000
0010
0000
1000
0010
0000
1000
0010
0000
0100
0000
0001
0000
,  // measure 10
2000
0000
0000
0000
3020
0000
0000
0000
1030
0001
0000
0010
0000
0001
0000
2000
,  // measure 11
0000
0000
3010
0000
0000
0000
1000
0000
1001
0000
0000
0001
0000
0000
0010
0000
,  // measure 12
0002
0000
1003
0000
0010
0000
1000
0000
0001
0100
0010
1000
0000
0000
0001
0000
,  // measure 13
1000
0100
0000
1000
0100
0000
1000
0100
0000
1000
0100
0000
0010
0000
0001
0000
,  // measure 14
2000
0000
3010
0000
0100
0000
0001
0000
1000
0100
0000
0010
0000
0001
0000
2000
,  // measure 15
0000
0000
3010
0000
0100
0000
0001
1000
0000
0100
0000
1000
0000
0001
0100
0001
,  // measure 16
1000
0001
0000
1000
0000
0100
0000
1000
0000
0001
0000
0100
0020
0000
0000
0000
,  // measure 17
0030
0000
1000
0000
0001
0000
0010
0000
0002
0000
1003
0010
0000
0100
0000
0002
,  // measure 18
0000
0000
0003
1000
0010
0000
1000
0000
0100
0000
0000
0020
0000
0000
0031
0000
,  // measure 19
0000
0000
1000
0000
0010
0000
0100
0000
0002
0000
0000
1003
0000
0000
0200
0000
,  // measure 20
0310
0001
0010
0000
0001
0000
1000
0010
0000
1000
0001
0000
0010
0100
1000
0000
,  // measure 21
0000
0000
0001
0000
0100
0000
0010
0000
2000
0000
3001
0010
0000
0001
0000
2000
,  // measure 22
0000
0000
3000
0001
0100
0000
0010
0000
0100
0000
0000
0002
0000
0000
1003
0000
,  // measure 23
0000
0100
0010
0200
0000
1300
0001
0020
,  // measure 24
0031
0000
1000
0000
0001
0000
1000
0000
0010
1000
0010
0000
0100
0000
0002
0000
,  // measure 25
0000
1003
0010
1000
0001
0010
0100
2000
,  // measure 26
0000
0000
0000
3004
0040
0000
0000
0000
0000
0000
0000
0000
0000
0000
0000
0000
0000
0000
0033
0000
0000
0020
0000
0000
,  // measure 27
0000
0130
1000
0001
0100
0010
1000
0002
,  // measure 28
0000
1003
0000
0002
0000
0023
0000
0030
,  // measure 29
0200
0000
0300
1100
0000
0000
1000
0000
0002
0000
0003
0101
0000
0000
0100
0000
,  // measure 30
0010
0000
1000
0000
0001
0000
0010
0000
0200
0000
0000
0310
0000
0000
0001
0000
,  // measure 31
1000
0000
0000
0000
1100
0000
0000
0100
0010
0000
0001
0000
1000
0000
0020
0000
,  // measure 32
0000
0000
0000
0000
0000
0000
0000
0000
0000
0000
0000
0000
0030
0000
1000
0001
,  // measure 33
0010
0000
0000
0110
0000
0000
0100
0000
1000
0000
0000
1001
0000
0000
0001
0000
,  // measure 34
0101
0000
0000
0000
0100
0010
1000
0001
,  // measure 35
0020
0000
0031
0000
1000
0000
0001
0000
1000
0100
0010
0001
0000
0000
1000
0000
,  // measure 36
0001
0010
0000
0001
1000
0000
0001
0010
0000
0001
1000
0000
0010
0000
0100
0000
,  // measure 37
0002
0000
1003
0000
0100
0000
0010
0000
0100
1000
0000
0001
0000
0100
0000
0020
,  // measure 38
0000
0000
1030
0000
0000
0001
0000
0000
0010
0000
0000
0110
0000
0000
0100
0000
,  // measure 39
2000
0000
3001
0000
0100
0000
0010
0000
1000
0010
0100
0001
0000
0000
1000
0000
,  // measure 40
0001
0010
0000
0001
1000
0000
0001
0010
0000
0001
1000
0000
0010
0000
0100
0000
,  // measure 41
0002
0000
1003
0000
0010
0000
1000
0000
0001
0010
0000
0001
0000
1000
0000
0020
,  // measure 42
0000
0000
0130
0000
0001
0000
1000
0100
0000
0010
0000
0100
0000
1000
0001
0100
,  // measure 43
0001
1000
0000
0000
0001
0010
0000
0000
0000
0000
0002
0000
0203
0000
0320
0000
,  // measure 44
2030
0000
0000
3002
0000
0000
0103
0000
0000
0010
0000
0000
1000
0000
0001
0200
,  // measure 45
0000
0000
0000
0310
0000
1000
0001
0000
0000
0101
0000
0000
0000
1010
0000
0000
,  // measure 46
2000
0000
0000
3020
0000
0000
0130
0000
0000
0000
0001
0000
1000
0000
0100
0020
,  // measure 47
0000
0000
0130
0000
1000
0001
0100
0000
0010
0000
0000
0000
0000
0400
0000
0000
,  // measure 48
0301
0000
0000
2000
0000
0000
3010
0000
0000
1000
0000
0001
0100
0000
0010
0000
,  // measure 49
0000
2010
0000
0000
0000
3001
0000
0000
0010
0000
0000
0400
0000
0000
0300
0000
,  // measure 50
0000
1100
0000
1100
0000
1100
0000
0000
0000
0110
0000
0110
0000
0110
0000
0000
,  // measure 51
0000
0011
0000
0011
0000
0011
0000
0000
0001
1000
0010
1000
0001
1000
0100
0010
,  // measure 52
0000
0022
0000
0030
,  // measure 53
1003
0000
0000
0000
1000
0000
0000
0010
1000
0000
0001
0000
1000
0010
1000
0000
,  // measure 54
0001
0000
1000
0000
0100
0000
0010
0000
0002
0000
1003
0010
0000
1000
0000
0002
,  // measure 55
0000
0000
0000
1003
0000
0000
0010
0000
0000
1000
0000
0000
0001
0000
0000
0000
0000
0000
0010
0000
0000
0000
0000
0000
0400
0000
4000
0000
0000
0000
0000
0000
0000
0000
0000
0000
0000
0000
0000
0000
0000
0000
0000
0000
0000
0000
0000
0000
,  // measure 56
3300
0000
0100
0000
0010
0000
0001
0000
2000
0000
0000
3010
0000
0000
0200
0000
,  // measure 57
0000
0301
1000
0000
0100
0010
0000
0100
1000
0000
0001
0100
0000
0001
2000
0000
,  // measure 58
3100
0000
0010
0000
0100
0000
1000
0000
0002
0000
0103
0010
0000
1000
0000
0002
,  // measure 59
0000
0000
0000
0013
0000
0000
0100
0000
0000
0010
0000
0000
0001
0000
0000
0000
0000
0000
0100
0000
0000
0000
0000
0000
0040
0000
4000
0000
0000
0000
0000
0000
0000
0000
0000
0000
0000
0000
0000
0000
0000
0000
0000
0000
0000
0000
0000
0000
,  // measure 60
3030
0000
0010
0000
0100
0000
0001
0000
2000
0000
0000
3100
0000
0000
0020
0000
,  // measure 61
0000
0000
0000
0030
,  // measure 62
0004
4000
0000
0000
0000
0000
0000
0000
0000
0000
0000
0000
0000
0000
0000
0000
0000
0000
0000
0000
0000
0000
0000
0000
,  // measure 63
3003
0000
0000
0001
0100
0000
0010
0000
1000
0001
0000
0100
0000
0010
1000
0000
,  // measure 64
0001
0020
0000
0031
2000
0000
3001
0200
0000
0301
2000
0000
3100
0020
0000
0130
,  // measure 65
2000
0000
3001
0020
0000
0031
2000
0000
3001
0100
0001
0000
2000
0000
3200
0000
,  // measure 66
0310
0000
0001
0000
1000
0100
0010
0001
0000
0000
1000
0000
0001
0010
0100
1000
,  // measure 67
0000
0000
0001
0000
1000
0100
0010
0001
0000
0000
1000
0000
0001
0100
0010
1000
,  // measure 68
0000
0000
0001
0000
1000
0010
0100
0001
0000
1000
0000
0001
0000
0100
0000
0002
,  // measure 69
0000
0000
1003
0000
0010
0000
1000
0001
0000
0100
0000
0010
0000
1000
0001
0100
,  // measure 70
0000
0220
0000
0000
,  // measure 71
0000
0000
0000
0000
,  // measure 72
0330
0000
0000
0000
;

//---------------dance-single - Expert----------------
#NOTES:
     dance-single:
     Ace Of Hearts (2010):
     Challenge:
     11:
     0.893,0.000,0.562,0.678,1.000: // measure 1
0000
0000
0000
0000
,  // measure 2
0000
0000
0000
0000
,  // measure 3
0000
0000
0000
0000
,  // measure 4
0011
0000
0000
0MM0
0000
0000
0110
0000
0000
M00M
0000
0000
1100
0000
0MM0
0000
,  // measure 5
1010
0000
0000
0000
1000
0001
1MM0
0001
1000
0000
0000
0000
1100
0000
0000
0000
MM00
0000
0000
0000
0011
0000
0000
0000
0000
0000
00MM
0000
0000
0000
0000
0000
,  // measure 6
1001
0000
0000
0000
0000
0000
0MM0
0000
0000
0000
0000
0000
1100
0000
0000
0000
1MM0
0001
1000
0001
1000
0000
0000
0000
0010
0000
0000
0000
0100
0000
0000
0000
,  // measure 7
M1M1
0000
0MM0
0000
0000
0000
1M1M
0000
1000
0001
0010
0100
0010
0001
1000
0100
,  // measure 8
0120
0000
0130
0000
1000
0000
0001
0100
0001
1000
0010
0100
0000
0000
0001
0000
,  // measure 9
01M1
0100
0000
0010
1M10
0000
1000
110M
0000
0100
0010
0000
0M11
0000
0001
0000
,  // measure 10
0201
0000
0310
0000
1000
0000
0001
0100
0001
1000
0000
0100
0000
0010
0000
0012
,  // measure 11
0000
0000
0000
0000
1003
0000
0000
0000
0000
0000
0010
0000
0000
0000
0000
0000
0110
0000
0000
0000
0000
0000
0010
0000
0000
0000
0000
0000
1000
0010
1000
0010
,  // measure 12
2000
0000
3001
0000
0010
0000
0001
1000
0100
0010
0100
1000
0000
0000
0001
0000
,  // measure 13
M011
0010
0000
0010
011M
0000
0100
11M0
0000
1000
0010
0000
M110
0000
0100
0000
,  // measure 14
0102
0000
1003
0000
0100
0000
1000
0001
0010
0100
0000
0010
0000
0001
0000
2001
,  // measure 15
0000
0000
0000
0000
3001
0100
0001
0100
0001
0000
0000
0000
1000
0100
1000
0100
1000
0000
0001
0000
0000
0000
0101
0000
0000
0000
0100
0000
0010
0000
1000
0000
,  // measure 16
0M01
0000
0010
0000
0000
0000
00M1
0000
0000
0000
1000
0000
0000
0000
1M10
0000
0000
0000
0010
0000
0000
0000
0100
0000
00M2
0000
0000
0000
1003
0010
1000
0010
,  // measure 17
1000
0000
0001
0000
0100
0000
0010
0000
2000
0000
3010
0100
0000
0001
0000
0021
,  // measure 18
0000
0000
0000
0031
1000
0000
0010
0000
0200
0000
0000
0302
0000
0000
2003
0000
,  // measure 19
3000
0000
0200
0000
0320
0000
0032
0000
2003
0000
0000
3200
0000
0000
0320
0000
,  // measure 20
0031
0000
1000
0000
0001
0100
0001
0100
0001
0000
0000
0000
0100
0000
0010
0000
0000
0000
1000
0000
0001
0000
0000
0000
0010
0000
0100
0000
1000
0000
0000
0000
,  // measure 21
1002
0000
0103
0000
0010
0000
1000
0000
0200
0000
0310
0001
0000
1000
0000
1020
,  // measure 22
0000
0000
0000
0130
0001
0000
1000
0000
0020
0000
0000
2030
0000
0000
3002
0003
,  // measure 23
0011
0000
0000
0011
0000
0000
1100
0000
0000
1000
0010
0000
1000
0001
0010
0100
,  // measure 24
2000
0000
0000
0000
3001
0010
0001
0010
0001
0000
0000
0000
0100
0000
0000
0000
0010
0000
1000
0000
0001
0000
0000
0000
0010
0000
0000
0000
0210
0000
0000
0000
,  // measure 25
0000
1300
0010
0100
0001
1000
0001
0201
,  // measure 26
0000
0000
0000
0301
0010
0100
0010
0001
0010
0100
1000
0100
0010
0100
1000
0100
0010
0001
0010
0100
1000
0002
0000
0000
,  // measure 27
0000
0103
0010
1000
0001
0010
0100
2000
,  // measure 28
0000
0000
0000
0000
3001
0100
0001
0100
0001
0000
0000
0000
2000
0000
0000
0000
0000
0000
0000
0000
3200
0000
0000
0000
0310
0000
0001
0000
1000
0000
0000
0000
,  // measure 29
1200
0000
0000
0320
0000
0000
0031
0000
0201
0000
0000
0320
0000
0000
1030
0000
,  // measure 30
1200
0000
0000
0000
0320
0000
0000
0000
0032
0000
0000
0000
2003
0000
0000
3000
1200
0000
0000
0000
0000
0000
0320
0000
0000
0000
0000
0000
0031
0000
0000
0000
,  // measure 31
1001
0000
0000
0000
1000
0000
0000
0100
0020
0000
0031
0000
1000
0000
0020
0000
,  // measure 32
0130
0001
0100
0001
0100
0000
0000
0000
0010
0100
0010
0100
0010
0000
1000
0000
0001
0000
0010
0000
0100
0000
0000
0000
1100
0000
0000
0000
1000
0000
0001
0000
,  // measure 33
0011
0000
0000
0001
0000
0000
0100
0000
0110
0000
0000
0010
0000
0000
1000
0000
,  // measure 34
2200
0000
0000
0000
3300
0000
0000
0000
1000
0100
0010
0001
1000
0100
0010
0001
,  // measure 35
2001
0000
3010
0000
0100
0000
0001
0010
0001
1000
0010
0100
0000
0000
0001
0000
,  // measure 36
01M1
0100
0000
0100
M110
0000
0010
101M
0000
1000
0001
0000
0M11
0000
0010
0000
,  // measure 37
0210
0000
1300
0000
0001
0000
1000
0010
1000
0001
0000
0100
0000
0010
0000
2010
,  // measure 38
0000
0000
0000
0000
3001
0000
0000
0000
0000
0000
0010
0000
0000
0000
0000
0000
0110
0000
0000
0000
0000
0000
1100
0000
0000
0000
0000
0000
1000
0001
1000
0001
,  // measure 39
2000
0000
3010
0000
0100
0000
0001
1000
0100
0010
0100
1000
0000
0000
0001
0000
,  // measure 40
M011
0010
0000
0010
011M
0000
0100
11M0
0000
1000
0001
0000
M101
0000
0100
0000
,  // measure 41
0120
0000
1030
0000
0001
0000
1000
0100
0010
0001
0000
1000
0000
0010
0000
0210
,  // measure 42
0000
0000
0000
0000
0301
0100
0001
0100
0001
0000
0000
0000
1000
0000
0010
0000
0000
0000
1000
0000
0000
0000
1100
0000
0000
0000
0100
0000
0010
0000
0001
0000
,  // measure 43
1000
1000
0010
0100
0001
0001
1000
0100
0010
0010
0200
0000
2300
0000
3002
0000
,  // measure 44
0023
0000
0000
0230
0000
0000
1300
0001
0100
0000
0010
0100
0010
1000
0001
0000
,  // measure 45
1000
0000
0000
0000
0100
0010
0100
0010
0100
0000
1000
0000
0001
0000
0100
0000
0010
0000
1000
0000
0001
0000
0010
0000
0100
0000
0010
0000
0001
0000
1000
0000
,  // measure 46
0020
0000
0000
0230
0000
0000
0301
1000
0100
0000
0010
0100
1000
0001
0100
0010
,  // measure 47
0100
0000
0001
0000
1000
0000
0100
0000
0010
0000
0000
0000
0100
0000
1000
0000
0001
0000
0000
0000
1000
0000
0100
0000
0010
0000
0001
0000
1000
0001
1000
0001
,  // measure 48
2000
0000
0000
3020
0000
0000
0130
0000
0000
0101
0000
0000
0001
0000
0000
1000
,  // measure 49
0000
0000
1020
0000
0000
0000
0000
0000
0000
0000
0130
0000
0000
0000
0000
0000
0001
0000
0000
0000
1000
0100
1000
0100
1000
0000
0001
0000
1000
0000
0010
0000
,  // measure 50
0000
0000
0101
0000
0000
0000
0101
0000
0000
0000
0101
0000
0000
0000
0MM0
0000
0000
0000
0110
0000
0000
0000
0110
0000
0000
0000
0110
0000
0000
0000
M10M
0010
,  // measure 51
0100
0010
1000
0000
0000
0000
1010
0000
0000
0000
1010
0000
1000
0001
1MM0
0001
0010
0000
0001
0000
1000
0000
0010
0000
0100
0000
0001
0000
1000
0000
0010
0000
,  // measure 52
0000
0000
0220
0000
0000
0000
0000
0030
,  // measure 53
0001
0000
0000
0000
0001
0000
0000
0301
1000
0000
1010
0000
0010
0100
0001
1000
,  // measure 54
1200
0000
0310
0000
0001
0000
1000
0000
0020
0000
1030
0001
0000
1000
0000
0020
,  // measure 55
0000
0000
0000
1030
0000
0000
0001
0000
0000
0010
0000
0000
0001
0000
0000
1000
0000
0000
0010
0000
0000
0100
0000
0000
0001
0000
1000
0000
0001
0000
1000
0000
0010
0000
1000
0000
0001
0000
0100
0000
0001
0000
0010
0000
0100
0000
1000
0000
,  // measure 56
0002
0000
0203
0000
0310
0000
0100
0000
0002
0000
0000
1003
0000
0000
0200
0000
,  // measure 57
0310
0000
0001
0000
1000
0000
0000
0000
0010
0000
0100
0000
0000
0000
0001
0000
0100
0000
0000
0000
0010
0000
1000
0000
0000
0000
0001
0000
1000
0100
1000
0100
,  // measure 58
0010
0000
0001
0000
1000
0000
0010
0000
0200
0000
0301
1000
0000
0100
0000
2000
,  // measure 59
0000
0000
0000
3001
0000
0000
0100
0000
0000
0001
0000
0000
1000
0000
0000
0100
0000
0000
0010
0000
0000
0001
0000
0000
1000
0000
0010
0000
1000
0000
0001
0000
0100
0000
0001
0000
1000
0000
0001
0000
1000
0000
0100
0000
0010
0000
0001
0000
,  // measure 60
2000
0000
3010
0000
0100
0000
0001
0000
2000
0000
0000
3002
0000
0000
0023
0000
,  // measure 61
0130
0000
0000
0000
1000
0100
1000
0100
1000
0000
0001
0000
0000
0000
0101
0000
0000
0000
0100
0000
0020
0000
0030
0000
2010
0000
0000
0000
3001
0000
0000
0000
,  // measure 62
0010
0001
0010
0100
1000
0100
0010
0001
0010
0001
1000
0001
1000
0010
1000
0001
0100
0001
1000
0100
0010
0100
1000
0001
,  // measure 63
0020
0000
0000
0031
1000
0000
0010
0000
0200
0301
0000
1001
0000
1000
0200
0000
,  // measure 64
0310
0002
0000
1003
0020
0000
1030
0002
0000
0103
0020
0000
1030
0002
0000
1003
,  // measure 65
0200
0000
0000
0000
1300
0000
0002
0000
0000
0000
0103
0000
0020
0000
0000
0000
1030
0000
0001
0000
0200
0000
0000
0000
0310
0000
1000
0000
0001
0100
0001
0100
,  // measure 66
0001
1000
0100
0000
0010
0100
1000
0001
0000
1000
0010
0000
1000
0001
0010
0100
,  // measure 67
1000
0100
0010
0000
0001
1000
0010
0100
0000
0001
0100
0000
0001
1000
0100
0010
,  // measure 68
0100
1000
0001
0000
0100
0010
1000
0001
0010
0001
0000
1000
0000
0001
0000
0201
,  // measure 69
0000
0000
0000
0000
0310
1000
0010
1000
0020
0000
0000
0000
1030
0000
0001
0000
0000
0000
0010
0000
0000
0000
0110
0000
0000
0000
0100
0000
1000
0000
0001
0000
,  // measure 70
0000
0022
0000
0000
,  // measure 71
0000
0000
0000
0000
,  // measure 72
0033
0000
0000
0000
;

//---------------dance-single - Medium----------------
#NOTES:
     dance-single:
     Ace Of Hearts (2010):
     Medium:
     7:
     0.407,0.000,0.043,0.418,0.310:
0000
0000
0000
0000
,
0000
0000
0000
0000
,
0000
0000
0000
0000
,
0001
0000
0000
0101
0000
0000
0000
0000
,
0001
0000
0000
1001
0000
0000
0000
0000
,
1000
0000
0000
1010
0000
1000
0100
0010
,
0001
0000
0000
2001
0000
0000
0000
0000
,
3001
0000
0010
0000
0001
0000
1000
0000
0001
0000
0000
0010
0000
0000
0000
0000
,
0001
0000
0000
0000
0001
0000
0000
0001
0000
0000
1000
0000
0010
0000
1000
0000
,
0002
0000
0000
0000
0013
0000
0000
0000
0100
0000
0000
1000
0000
0001
0000
2000
,
0000
0000
3010
0000
0000
1000
0000
0000
0001
0000
0000
0010
0000
0000
0001
0000
,
0020
0000
0000
0000
0031
0000
1000
0000
0010
0000
0000
1000
0000
0000
0000
0000
,
0010
0000
0000
0000
0010
0000
0000
0010
0000
0000
1000
0000
0001
0000
1000
0000
,
0020
0000
0000
0000
1030
0000
0000
0000
0001
0000
0000
0010
0000
0001
0000
2000
,
0000
0000
3010
0000
1000
0000
0000
0001
0000
0010
0000
0001
0000
0000
1000
0000
,
0020
0000
0000
0030
,
0000
0000
1000
0000
0001
0000
0010
0000
0002
0000
0000
1003
0000
0010
0000
1000
,
0000
0000
0000
0000
0001
0000
1000
0000
0020
0000
0000
1030
0000
0000
0001
0000
,
0000
0000
1000
0000
0010
0000
0000
0000
1000
0000
0000
0001
0000
0000
0100
0000
,
0001
0000
0100
0000
0010
0000
0000
1000
0000
0000
0001
0000
0010
0000
0001
0000
,
0000
0000
1000
0000
0010
0000
1000
0000
0002
0000
0000
1003
0000
0100
0000
0010
,
0000
0000
0000
0000
0001
0000
1000
0000
0001
0000
0000
0100
0000
0000
0010
0000
,
0000
1000
0001
2000
0000
3001
0100
0002
,
0000
0000
0000
0000
0003
1000
0100
0020
,
0000
0130
1000
0001
1000
0010
1000
0002
,
0000
4003
0000
0000
0000
0000
3000
0020
,
0000
1030
0001
0100
0001
1000
0100
2000
,
0000
3001
0000
2000
0000
3010
0000
0000
,
1000
0000
0000
0001
0000
0000
0010
0000
0001
0000
0000
1000
0000
0000
0010
0000
,
1000
0000
0001
0000
0010
0000
0100
0000
1000
0000
0000
0002
0000
0000
1003
0000
,
0010
0000
1000
0000
0001
1000
0001
0020
,
0000
0000
0000
0000
0000
0000
0030
0001
,
1000
0000
0000
0010
0000
0000
1000
0000
0001
0000
0000
0010
0000
0000
0100
0000
,
1000
0000
0002
0000
,
0013
0000
0001
0000
1000
0000
0010
0000
1000
0000
0000
0001
0000
0000
0000
0000
,
1000
0000
0000
0000
1000
0000
0000
1000
0000
0000
0010
0000
1000
0000
0010
0000
,
0200
0000
0000
0000
0302
0000
0000
0000
1003
0000
0000
0010
0000
1000
0000
0002
,
0000
0000
0013
0000
0000
0001
0000
0000
1000
0000
0000
0010
0000
0000
1000
0000
,
0001
0000
0100
0000
0001
0000
1000
0000
0010
0000
0000
1000
0000
0000
0000
0000
,
0001
0000
0000
0000
0001
0000
0000
0001
0000
0000
1000
0000
0100
0000
1000
0000
,
0002
0000
0000
0000
1003
0000
0010
0000
1000
0000
0000
0001
0000
0010
0000
0002
,
0000
0000
1003
0000
0010
0000
0000
1000
0000
0001
0000
1000
0000
0000
0001
0000
,
0200
0000
0000
0000
0000
0301
1000
0000
,
0020
0000
0000
2030
0000
0000
3001
0000
0000
0000
1000
0000
0100
0000
0000
0000
,
0010
0001
0010
0000
0001
1000
0001
0000
,
2000
0000
0000
3002
0000
0000
0103
0000
0000
0000
0001
0000
1000
0000
0000
0000
,
0010
1000
0010
0000
1000
0001
1000
0000
,
0020
0000
0000
2030
0000
0000
3001
0000
0000
0000
0010
0000
0001
0000
0000
0000
,
1000
0010
1000
0000
0001
1000
0001
0000
,
0000
1000
0000
1000
0000
1000
0000
0000
0000
0100
0000
0100
0000
0100
0000
0000
,
0000
0010
0000
0010
0000
0010
0000
0000
0000
0001
0000
1000
0000
0010
0000
0000
,
0000
0220
0000
0030
,
0301
0000
0001
0000
1000
0001
1000
0000
,
0010
0000
1000
0000
0001
0000
0010
0000
0002
0000
0000
1003
0000
0010
0000
2000
,
0000
3001
0010
0001
4000
0000
0000
0000
,
3000
0000
0010
0000
1000
0000
0000
0000
0002
0000
0000
0013
0000
0000
0200
0000
,
0000
0000
1300
0000
1000
0000
0000
0000
1000
0000
0000
1000
0000
0000
0001
0000
,
0100
0000
0010
0000
0100
0000
0001
0000
2000
0000
0000
3001
0000
0100
0000
0020
,
0000
1030
0001
1000
0040
0000
0000
0000
,
0030
0000
1000
0000
0001
0000
0000
0000
2000
0000
0000
3100
0000
0000
0020
0000
,
0000
0000
0000
0030
,
0004
0000
0000
0000
,
0003
0000
0000
0000
0000
0000
0000
0000
1000
0000
0000
0010
0000
0000
1000
0000
,
0001
0000
0000
0000
0200
0000
0000
0302
0000
0000
2003
0000
0000
3002
0000
0000
,
0023
0000
0000
0032
0000
0000
2003
0000
0000
3001
0000
0000
0020
0000
0000
0000
,
0031
0000
0000
0000
2000
0000
0000
3010
0000
0000
1000
0000
0002
0000
0000
0013
,
0000
0000
0100
0000
2000
0000
0000
3001
0000
0000
1000
0000
0020
0000
0000
0130
,
0000
0000
0001
0000
2000
0000
0000
3001
0000
0010
0000
0001
0000
1000
0000
0200
,
0000
0000
0310
0000
0001
0000
0000
1000
0000
0010
0000
1000
0000
0000
0001
0000
,
0000
0022
0000
0000
,
0000
0000
0000
0000
,
0033
0000
0000
0000
;

//---------------dance-single - Easy----------------
#NOTES:
     dance-single:
     Ace Of Hearts (2010):
     Easy:
     4:
     0.209,0.000,0.050,0.209,0.000:
0000
0000
0000
0000
,
0000
0000
0000
0000
,
0000
0000
0000
0000
,
0001
0000
0000
0001
0000
0000
0000
0000
,
1000
0000
0000
1000
0000
0000
0000
0000
,
0100
0000
0000
0100
0000
0000
0000
0000
,
1000
0000
0000
1000
0000
0000
0000
0000
,
2002
0000
3003
0000
,
0001
0001
0001
0001
,
1000
1000
0010
0010
,
0020
0030
1000
1000
,
2002
0000
3003
0000
,
1000
1000
1000
1000
,
0010
0010
0100
0100
,
0200
0000
0300
0000
,
0001
0000
0002
0000
,
0003
1000
1000
1000
,
1000
0010
0010
0010
,
0000
0100
0100
0100
,
0200
0000
0300
0000
,
0000
0001
0001
0001
,
0001
1000
1000
1000
,
0000
0010
0010
0010
,
0020
0000
0030
1000
,
2000
0000
3000
0000
,
0004
0000
0000
0003
,
1000
1000
1000
0000
,
0010
0000
0010
0000
,
0100
0000
0100
0000
,
0001
0001
0001
0000
,
1000
1000
1000
0000
,
0020
0000
0030
0000
,
0100
0000
0100
0000
,
0110
0000
0000
0000
,
0220
0000
0330
0000
,
0010
0010
0010
0010
,
0001
0001
1000
2000
,
3000
0000
0001
0001
,
2002
0000
3003
0000
,
1000
1000
1000
1000
,
0010
0010
0100
0100
,
0200
0000
0300
0000
,
0001
0001
0000
0000
,
1000
1000
1000
0000
,
0020
0000
0030
0000
,
0100
0100
0100
0000
,
0002
0000
0003
0000
,
1000
1000
1000
0000
,
0200
0000
0300
0000
,
2000
3000
2000
3000
,
2000
3000
0002
0003
,
0000
2002
0000
0000
,
0000
0000
3003
0000
,
0000
1000
1000
1000
,
1000
0000
0004
0000
,
0003
0000
0010
0010
,
0010
0100
0100
0100
,
0100
1000
1000
1000
,
1000
0000
0004
0000
,
0003
0000
0010
0010
,
0020
0000
0030
0000
,
0001
0001
1000
1000
,
0010
0010
0100
0100
,
0001
0001
1000
1000
,
0001
0001
1000
1000
,
0010
0010
0010
0100
,
0100
0001
0001
1000
,
1000
0001
0001
0100
,
0100
0010
0010
0010
,
0000
2020
0000
0000
,
0000
0000
0000
0000
,
3030
0000
0000
0000
;

//---------------dance-single - Novice----------------
#NOTES:
     dance-single:
     Ace Of Hearts (2010):
     Beginner:
     2:
     0.122,0.000,0.007,0.231,0.000:
0000
0000
0000
0000
,
0000
0000
0000
0000
,
0000
0000
0000
0000
,
0002
0000
0000
0003
0000
0000
0000
0000
,
2000
0000
0000
3000
0000
0000
0000
0000
,
0002
0000
0000
0003
0000
0000
0000
0000
,
0020
0000
0000
0030
0000
0000
0000
0000
,
0002
0000
0003
0000
,
1000
1000
1000
0000
,
0002
0000
0000
0000
,
0003
0000
0010
0000
,
0020
0000
0030
0000
,
0001
0001
0001
0000
,
2000
0000
0000
0000
,
3000
0000
0000
0000
,
0020
0000
0030
0000
,
1000
0000
1000
0000
,
2000
0000
3000
0000
,
0001
0000
0001
0000
,
0002
0000
0003
0000
,
0010
0000
0010
0000
,
0020
0000
0030
0000
,
0100
0000
0100
0000
,
0200
0000
0300
0000
,
0020
0000
0030
0000
,
0002
0000
0003
0000
,
1000
0000
1000
0000
,
2000
0000
3000
0000
,
0010
0000
0010
0000
,
0020
0000
0030
0000
,
1000
0000
1000
0000
,
2000
0000
3000
0000
,
0001
0000
0001
0000
,
0001
0000
0000
0000
,
0020
0000
0030
0000
,
0100
0100
0100
0000
,
2000
0000
0000
0000
,
3000
0000
0010
0000
,
0020
0000
0030
0000
,
1000
1000
1000
0000
,
0002
0000
0000
0000
,
0003
0000
0010
0000
,
0020
0000
0030
0000
,
0002
0000
0000
0000
,
0003
0000
0000
0000
,
2000
0000
0000
0000
,
3000
0000
0000
0000
,
0020
0000
0000
0000
,
0030
0000
0000
0000
,
1000
0000
1000
0000
,
1000
0000
0000
0000
,
0000
0002
0000
0000
,
0000
0000
0000
0000
,
0003
0000
0010
0000
,
0010
0000
0040
0000
,
0030
0000
0100
0000
,
0200
0000
0000
0000
,
0300
0000
1000
0000
,
1000
0000
4000
0000
,
3000
0000
0100
0000
,
0200
0000
0300
0000
,
0040
0000
0000
0000
,
0030
0000
0001
0000
,
0001
0000
0002
0000
,
0003
0000
0000
0000
,
1000
0000
1000
0000
,
0001
0000
0001
0000
,
0100
0000
0100
0000
,
0010
0000
0010
0000
,
0000
2002
0000
0000
,
0000
0000
0000
0000
,
3003
0000
0000
0000
;
